#VERSION:0.83;
#TITLE:ぼくってウパ?;
#SUBTITLE:;
#ARTIST:Mr.T;
#TITLETRANSLIT:BOKUTTE UPA?;
#SUBTITLETRANSLIT:;
#ARTISTTRANSLIT:;
#GENRE:;
#ORIGIN:;
#CREDIT:DigiMindAxel;
#BANNER:BOKUTTE UPA.png;
#BACKGROUND:BOKUTTE UPA-bg.png;
#PREVIEWVID:;
#JACKET:BOKUTTE UPA-jacket.png;
#CDIMAGE:;
#DISCIMAGE:;
#LYRICSPATH:;
#CDTITLE:pop'n music.png;
#MUSIC:BOKUTTE UPA.ogg;
#OFFSET:-0.501000;
#SAMPLESTART:7.994988;
#SAMPLELENGTH:12.000000;
#SELECTABLE:YES;
#BPMS:0.000=128.000;
#STOPS:108.000=0.469;
#DELAYS:;
#WARPS:;
#TIMESIGNATURES:0.000=4=4;
#TICKCOUNTS:0.000=4;
#COMBOS:0.000=1;
#SPEEDS:0.000=1.000=0.000=0;
#SCROLLS:0.000=1.000;
#FAKES:;
#LABELS:0.000=Song Start;
#BGCHANGES:;
#KEYSOUNDS:;
#ATTACKS:
;

//---------------dance-single - ----------------
#NOTEDATA:;
#CHARTNAME:;
#STEPSTYPE:dance-single;
#DESCRIPTION:;
#CHARTSTYLE:;
#DIFFICULTY:Easy;
#METER:4;
#RADARVALUES:0.207873,0.257390,0.109820,0.155578,0.000000,159.000000,147.000000,12.000000,17.000000,0.000000,0.000000,0.000000,0.000000,0.000000,0.207873,0.257390,0.109820,0.155578,0.000000,159.000000,147.000000,12.000000,17.000000,0.000000,0.000000,0.000000,0.000000,0.000000;
#CREDIT:;
#NOTES:
0000
0000
0000
0000
,
0000
0000
0000
0000
,
0000
0000
0000
0000
,
0000
0000
0000
0000
,
1000
0100
0010
0001
,
0000
0000
1000
1000
,
0001
0010
0100
0000
,
1000
0000
1001
0000
,
1000
0001
1000
0000
,
0010
0100
0010
0000
,
1000
0001
1000
0001
,
0100
0010
0100
0000
,
0001
1000
0001
0000
,
0100
0010
0100
0000
,
0001
0001
1000
1000
,
0220
0000
0000
0330
,
0001
0010
0001
0100
,
0010
1000
0100
0000
,
1000
0100
1000
0010
,
0100
0001
0010
0000
,
0001
0100
0001
0100
,
0010
1000
0010
0000
,
1000
0010
0100
0100
,
2002
0000
0000
3003
,
0022
0000
0000
0033
,
0200
0000
0000
0300
,
2000
0000
0000
3000
,
0001
1001
0000
0001
,
0010
0001
0010
0001
,
0010
0100
1000
1000
,
0100
1000
0100
1000
,
0100
0010
0001
0001
,
0100
0001
0100
0010
,
0010
0010
0010
1000
,
0010
1000
0010
0100
,
0100
0100
0000
0202
,
0000
0000
0303
0020
,
0000
0000
0030
2000
,
0000
0000
3000
0002
,
0000
0000
0003
1000
,
0000
0100
0000
0010
,
0000
0001
0000
1000
,
0000
0001
0000
0220
,
0000
0000
0330
1000
,
0100
0010
0001
0000
,
0000
1000
1000
0001
,
0010
0100
0000
1000
,
0010
1000
1000
1001
,
0000
0001
1000
0001
,
0010
0100
0000
1000
,
0001
1000
0001
1000
,
0100
0010
0000
1001
,
0000
1000
0010
1000
,
0100
0010
0000
0001
,
0100
0001
0010
0110
,
0000
1001
0000
0220
,
0000
0330
0000
0000
;

//---------------dance-single - ----------------
#NOTEDATA:;
#CHARTNAME:;
#STEPSTYPE:dance-single;
#DESCRIPTION:;
#CHARTSTYLE:;
#DIFFICULTY:Hard;
#METER:11;
#RADARVALUES:0.478500,0.539918,0.219639,0.256246,0.384369,366.000000,342.000000,24.000000,28.000000,0.000000,0.000000,0.000000,0.000000,0.000000,0.478500,0.539918,0.219639,0.256246,0.384369,366.000000,342.000000,24.000000,28.000000,0.000000,0.000000,0.000000,0.000000,0.000000;
#CREDIT:;
#NOTES:
0000
0000
0000
0000
,
0000
0000
0000
0000
,
0000
0000
0000
0000
,
2002
0000
3003
1001
,
0102
2003
3100
1001
,
0000
2000
0000
0001
3001
0010
0100
0000
,
2010
0000
0000
0000
3002
0000
0000
0000
0013
0000
0000
0000
0000
0001
0010
0000
,
0100
0000
1000
0001
0000
0100
0000
0010
0000
0000
0000
0000
0100
0000
0010
0000
,
0110
0000
0001
0000
0010
0000
0100
0000
1000
0000
0100
0000
0001
0100
0000
0000
,
1000
0000
0010
0000
0001
0010
0000
2000
0000
0000
0000
0000
3000
0000
0000
0000
,
0001
0000
1000
0000
0100
0000
0010
0000
0001
0000
0010
0000
1000
0010
0000
0000
,
0001
0000
0100
0000
1000
0100
0000
0001
1000
0000
0000
0010
0000
0000
0100
0000
,
1001
0000
0010
0000
0100
0000
1000
0000
0001
0000
0010
0000
1000
0010
0000
0000
,
0001
0000
0100
0000
1000
0100
0000
0002
0000
0000
0000
0000
0003
0000
0000
0000
,
1000
0001
1000
0001
1000
0000
0010
0100
0000
0100
0001
0000
0010
0000
0100
0000
,
1000
0000
1000
0000
0001
0000
0000
1001
0000
0000
0000
0000
0100
0000
0010
0000
,
0110
0000
0000
0010
0000
0100
0001
0000
1000
0000
0100
0000
0010
0000
0001
0000
,
0100
0000
0000
0010
0000
0100
0000
0020
0000
0000
0000
0000
1030
0000
0000
0000
,
0010
0000
0000
0100
0000
0010
1000
0000
0001
0000
0010
0000
0100
0000
1000
0000
,
0010
0000
0000
0100
0000
0010
0000
0100
0001
0000
0010
0000
0100
0000
1000
0000
,
1001
0000
0000
0001
0000
0100
0001
0000
0010
0000
1000
0000
0010
0000
0001
0000
,
0100
0000
0000
0010
0000
0100
0000
0020
0000
0000
0000
0000
0130
0000
0000
0000
,
0001
0000
0000
1000
0000
0010
1000
0000
0100
0000
0001
0000
0100
0000
1000
0000
,
0220
0000
0330
0110
,
2001
0100
0001
3100
,
0002
0100
1000
0103
,
2000
0010
0100
3010
,
0110
0000
0000
0000
0010
0000
0100
0000
0110
0000
0000
0000
0001
0000
1000
0010
,
0000
0010
1000
0000
0001
0000
0100
0010
0000
0010
0100
0000
0001
0000
0010
0000
,
0100
0000
1000
0001
1000
0001
1000
0000
0001
0000
0000
0000
1000
0000
0001
0100
,
0000
0100
0001
0000
1000
0000
0010
0100
0000
0100
0010
0000
0000
1000
0100
0000
,
0010
0000
0001
1000
0001
1000
0001
0000
1000
0000
0000
0000
0001
0000
0100
0001
,
0000
0100
0001
0000
1000
0000
0100
1000
0000
0001
0000
1000
0001
0000
0100
0000
,
1000
0000
0100
0000
0001
0000
0010
0000
1000
0000
0010
0000
0001
0000
1000
0100
,
0000
0010
0000
0000
0001
0000
0010
0100
0000
1000
0000
0000
0010
0000
0100
0000
,
0110
0000
0000
1001
0000
0000
0000
0000
0010
0000
0100
0000
0002
0000
0000
0000
,
1000
1000
1003
0020
,
0100
0100
0130
0002
,
0100
0100
0103
0020
,
1000
1000
1030
1001
,
0010
0100
1000
0010
,
0100
0001
1000
0001
,
0100
0000
0010
0000
0100
0000
0001
0000
0010
0000
0100
0000
1000
0000
0000
0010
,
0000
1000
0000
0001
0000
0000
0000
0000
1001
0000
0000
0000
2100
0000
0000
0000
,
3200
0000
0320
0000
0130
0000
0000
2000
,
0000
0001
3001
0010
0100
0000
0021
0000
,
0230
0000
0000
0000
0310
0000
0000
0000
0000
0001
1000
0000
0010
0000
0100
0001
,
0000
1000
0000
0001
0000
0000
0000
0000
0100
0000
0010
0000
0110
0000
1000
0000
,
0100
0000
0001
0000
0100
0000
1000
0000
0001
0100
0000
0000
0001
0000
1000
0000
,
0100
1000
0000
0002
0000
0000
0000
0000
0003
0000
0000
0000
0000
0000
1000
0000
,
0010
0000
0001
0000
0010
0000
1000
0000
0100
0010
0000
0000
0001
0000
0001
0000
,
1000
0100
0000
1000
0001
0000
0000
0010
0000
0000
0100
0000
0110
0000
0001
0000
,
0010
0000
1000
0000
0010
0000
0001
0000
1000
0010
0000
0000
1000
0000
1000
0000
,
0001
0010
0000
0200
0000
0000
0000
0000
0300
0000
0000
0000
1000
0001
1000
0001
,
1000
0000
0010
0100
0000
0100
0001
0000
0010
0000
0100
0000
1000
0000
1000
0000
,
0001
0100
0000
0000
0001
0000
0001
0000
1000
0010
0000
0000
1000
0000
1000
0000
,
0001
0100
0000
0110
0000
0000
0000
0000
0000
0000
0000
0000
0000
0000
0000
0000
;

//---------------dance-single - ----------------
#NOTEDATA:;
#CHARTNAME:;
#STEPSTYPE:dance-single;
#DESCRIPTION:;
#CHARTSTYLE:;
#DIFFICULTY:Medium;
#METER:8;
#RADARVALUES:0.335996,0.385656,0.173881,0.118971,0.013727,257.000000,238.000000,19.000000,13.000000,0.000000,0.000000,0.000000,0.000000,0.000000,0.335996,0.385656,0.173881,0.118971,0.013727,257.000000,238.000000,19.000000,13.000000,0.000000,0.000000,0.000000,0.000000,0.000000;
#CREDIT:;
#NOTES:
0000
0000
0000
0000
,
0000
0000
0000
0000
,
0000
0000
0000
0000
,
0000
0000
0000
0000
,
0001
0010
0100
1000
,
0000
0010
0000
0010
0100
0100
0100
0000
,
0001
0000
0010
0000
0100
0000
0000
1000
,
0001
0010
0100
1000
0002
0000
0000
0000
,
1003
0001
0100
0001
1000
0000
1000
0000
,
0010
0100
0010
0000
1001
0000
0000
0000
,
0000
1000
0010
1000
0001
0000
0001
0000
,
0100
0010
0100
0000
1001
0000
0000
0000
,
1000
0001
0010
0100
1000
0000
1001
0000
,
0010
0100
0010
0000
0101
0000
0000
0000
,
0100
0010
0100
0010
0000
1000
0100
0010
,
0001
0000
0001
0000
0001
0000
0000
1001
0000
0000
0000
0000
1000
0000
0001
0000
,
1000
0100
0001
0100
,
1000
0010
0001
0010
,
1000
0100
0010
1000
,
0010
0000
0001
0000
1000
0001
0010
0100
,
1000
0001
0100
0000
0010
0100
0010
0000
,
1000
0001
0010
0000
0100
0010
0100
0000
,
1000
0001
0100
0000
0001
0100
0010
1000
,
0200
0000
0000
0310
,
2002
0000
0000
3003
,
0020
0000
0000
0030
,
0200
0000
0000
0300
,
1001
0000
1001
0000
1001
0000
0001
0010
,
0001
0000
1000
0100
1000
0000
0001
0100
,
0001
0000
0010
0100
1000
0000
1000
0100
,
1000
0000
0001
0010
0001
0000
1000
0010
,
1000
0000
0100
0010
0001
0000
0001
0100
,
0001
0000
1000
0010
1000
0000
0001
0010
,
0001
0010
0100
1000
0100
0000
1000
0010
,
1000
0000
0001
0100
0001
0000
1000
1000
,
1000
0000
0000
1001
0000
0000
0000
0000
0001
0000
1000
0000
0002
0000
0000
0000
,
0000
0000
1003
0020
,
0000
0000
0130
0002
,
0000
0000
0013
0200
,
0000
0000
1300
1001
,
1000
0000
0001
1000
,
0001
0000
0001
1000
,
0010
0100
0020
0000
0030
0000
0220
0000
,
0000
0330
1001
1000
,
0100
0000
0010
0000
0001
0000
0000
0100
,
0000
0100
0010
0100
0001
0000
1000
0000
,
0010
0000
0100
0000
0000
0001
1000
0000
,
0100
0010
0100
0000
1000
0001
1001
0000
,
0100
1000
0001
0000
0001
0000
0010
0001
,
0100
0000
0110
0000
0000
0000
0000
0001
,
0010
0001
1000
0000
1000
0000
0100
1000
,
0010
0000
1010
0000
0000
0000
0001
1000
,
0100
1000
0001
0000
1001
0000
1000
0001
,
1000
0000
1001
0000
0000
0000
0001
1000
,
0100
1000
0000
0001
1000
0001
0010
0100
,
1000
0000
0100
0010
0001
0000
0100
0100
,
0100
0000
0000
0110
0000
0000
0000
0000
0000
0000
0000
0000
0000
0000
0000
0000
;

//---------------dance-single - ----------------
#NOTEDATA:;
#CHARTNAME:;
#STEPSTYPE:dance-single;
#DESCRIPTION:;
#CHARTSTYLE:;
#DIFFICULTY:Beginner;
#METER:1;
#RADARVALUES:0.052295,0.127551,0.064062,0.000000,0.000000,40.000000,33.000000,7.000000,0.000000,0.000000,0.000000,0.000000,0.000000,0.000000,0.052295,0.127551,0.064062,0.000000,0.000000,40.000000,33.000000,7.000000,0.000000,0.000000,0.000000,0.000000,0.000000,0.000000;
#CREDIT:;
#NOTES:
0000
0000
0000
0000
,
0000
0000
0000
0000
,
0000
0000
0000
0000
,
0000
0000
0000
0000
,
0001
0000
0000
0000
,
0000
0000
0000
0000
,
1000
0000
0000
0000
,
0000
0000
0000
0000
,
1001
0000
0000
0000
,
0000
0000
0000
0000
,
0001
0000
0000
0000
,
0000
0000
0000
0000
,
1000
0000
0000
0000
,
0000
0000
0000
0000
,
0001
0000
0000
0000
,
1000
0000
0000
0000
,
1001
0000
0000
0000
,
0000
0000
0000
0000
,
0010
0000
0000
0000
,
0000
0000
0000
0000
,
0010
0000
0000
0000
,
0000
0000
0000
0000
,
0010
0000
0000
0000
,
1001
0000
0000
0000
,
0100
0000
0000
0000
,
0000
0000
0000
0000
,
0000
0000
0000
0000
,
1001
0000
0000
0001
,
0000
0000
0000
0000
,
0000
0000
0000
1000
,
0000
0000
0000
0000
,
0000
0000
0000
0001
,
0000
0000
0000
0000
,
0000
0000
0000
1000
,
0000
0000
0000
0001
,
0000
0000
0000
1001
,
0000
0000
0000
0000
,
0000
0000
0000
1000
,
0000
0000
0000
0000
,
0000
0000
0000
0001
,
0000
0000
0000
0000
,
0000
0000
0000
0001
,
0000
0000
0000
1000
,
0000
0000
0000
1001
,
0000
0000
0000
0000
,
0000
0000
0000
0010
,
0000
0000
0000
0000
,
0000
0000
0000
0100
,
0000
0000
0000
0000
,
0000
0000
0000
0001
,
0000
0000
0000
0000
,
0000
0000
0000
1000
,
0000
0000
0000
0000
,
0000
0000
0000
0001
,
0000
0000
0000
1001
,
0000
1000
0000
0001
;

//---------------dance-double - ----------------
#NOTEDATA:;
#CHARTNAME:;
#STEPSTYPE:dance-double;
#DESCRIPTION:;
#CHARTSTYLE:;
#DIFFICULTY:Easy;
#METER:4;
#RADARVALUES:0.228791,0.308868,0.118971,0.118971,0.000000,175.000000,162.000000,13.000000,13.000000,0.000000,0.000000,0.000000,0.000000,0.000000,0.228791,0.308868,0.118971,0.118971,0.000000,175.000000,162.000000,13.000000,13.000000,0.000000,0.000000,0.000000,0.000000,0.000000;
#CREDIT:;
#NOTES:
00000000
00000000
00000000
00000000
,
00000000
00000000
00000000
00000000
,
00000000
00000000
00000000
00000000
,
00000000
00000000
00000000
00000000
,
10000000
01000000
00100000
00010000
,
00000000
00001000
00000000
00000000
00010000
00000000
00010000
00000000
,
00000100
00000010
00000001
00000000
,
00000100
00000010
00001001
00000000
,
00000010
00000100
00001000
00000000
,
00010000
00001000
00010000
00000000
,
00001000
00010000
00001000
00010000
,
00100000
01000000
10000000
00000000
,
10010000
10000000
10000000
00000000
,
00100000
01000000
00100000
00000000
,
10000000
01000000
00100000
00010000
,
00022000
00000000
00000000
00033000
,
00010000
00100000
00010000
01000000
,
00100000
00010000
00001000
00000000
,
00001000
00000100
00001000
00000010
,
00000100
00001000
00010000
00000000
,
00010000
01000000
00010000
10000000
,
01000000
00100000
00010000
00000000
,
00001000
00000010
00001000
00000001
,
00000220
00000000
00000000
00000330
,
00000001
00000000
00000001
00000000
,
00000010
00000000
00000010
00000000
,
00000100
00000000
00000100
00000000
,
00001000
00011000
00000000
00010000
,
00100000
00010000
00100000
00010000
,
00100000
00010000
00001000
00000100
,
00001000
00000100
00001000
00000100
,
00001000
00010000
00100000
01000000
,
10000000
00100000
10000000
01000000
,
00100000
00010000
00001000
00000100
,
00000010
00000100
00000010
00000001
,
00000001
00001001
00000000
00000002
,
00000000
00000000
00000000
00002003
,
00000000
00000000
00000000
00003020
,
00000000
00000000
00000000
00000230
,
00000000
00000000
00000000
00000301
,
00000010
00000100
00001000
00010000
,
00100000
01000000
10000000
01000000
,
00100000
10010000
01100000
20020000
,
00000000
00000000
30030000
10000000
,
01000000
00000000
00100000
00000000
00010000
00000000
00000000
00001000
,
00000000
00010000
00010000
00000100
,
00000010
00000001
00000100
00000010
,
00000100
00000010
00001001
00000000
,
00000010
00000100
00001000
00010000
,
00100000
01000000
10000000
00010000
,
10000000
00100000
01000000
00001000
,
00010000
00000200
00000000
00000310
,
00000001
00000010
00000001
00000100
,
00000010
00010000
00000000
00001000
,
00010000
00001000
01000000
01010000
,
00000000
00011000
00000000
00002020
,
00000000
00003030
00000000
00000000
;

//---------------dance-single - ----------------
#NOTEDATA:;
#CHARTNAME:;
#STEPSTYPE:dance-single;
#DESCRIPTION:;
#CHARTSTYLE:;
#DIFFICULTY:Challenge;
#METER:14;
#RADARVALUES:0.690295,0.771312,0.302004,0.018303,1.020408,528.000000,495.000000,33.000000,2.000000,0.000000,0.000000,0.000000,0.000000,0.000000,0.690295,0.771312,0.302004,0.018303,1.020408,528.000000,495.000000,33.000000,2.000000,0.000000,0.000000,0.000000,0.000000,0.000000;
#CREDIT:;
#NOTES:
// measure 0
0000
0000
0000
0000
,  // measure 1
0000
0000
0000
0000
,  // measure 2
0000
0000
0000
0000
,  // measure 3
0001
0100
0000
0100
0000
0100
0000
0001
1000
0000
0000
0000
0001
1000
0001
1000
,  // measure 4
0001
0000
0000
0001
0010
0000
0000
0010
0100
0000
0000
0100
1000
0000
0000
0000
,  // measure 5
0000
0000
1001
0000
0000
0000
1000
0000
0010
0000
0010
0000
0010
0100
0000
0000
,  // measure 6
0001
0000
0000
0001
0100
0000
0000
0100
0010
0000
0000
0000
0000
1000
0100
0010
,  // measure 7
0001
0000
0001
1000
0000
1000
0000
0010
1000
0100
0010
0001
1000
0010
1000
0010
,  // measure 8
1000
0000
0001
0000
0010
0000
1000
0000
0010
0000
0001
0000
0001
1000
0000
0000
,  // measure 9
0100
0000
0010
0000
0001
0100
0000
0020
0000
0000
0000
0000
0030
0000
0000
0000
,  // measure 10
0000
0000
1000
0000
0100
0000
0001
0000
0100
0000
1000
0000
1000
0001
0000
0000
,  // measure 11
0010
0000
0010
0000
0001
0100
0000
0010
1000
0100
1000
0100
0000
0010
0001
0010
,  // measure 12
0100
0000
1000
0000
0010
0000
0001
0000
0010
0000
1000
0000
1000
0001
0000
0000
,  // measure 13
0010
0000
0100
0000
1000
0010
0000
0200
0000
0000
0000
0000
0300
0000
0000
0000
,  // measure 14
0001
1000
0001
1000
0001
0000
1000
0001
0000
0010
0100
1000
0100
0010
0100
1000
,  // measure 15
0001
0000
1001
0000
0100
0010
0000
0110
0000
0000
0000
0000
0001
1000
0001
1000
,  // measure 16
0001
0100
0000
0010
0000
0100
0001
0010
0100
1000
0100
0010
0001
1000
0100
0000
,  // measure 17
1000
0001
0000
0100
0000
0001
0000
0100
0010
1000
0100
0010
0001
0010
0100
0000
,  // measure 18
1000
0100
0000
0010
0000
0100
1000
0010
0100
0010
1000
0100
0010
0001
0100
0000
,  // measure 19
0001
1000
0000
0100
0000
0001
0000
0100
1000
0000
0010
0100
0010
1000
0001
1000
,  // measure 20
0010
0100
0000
0001
0000
0010
0100
0010
0001
0010
0100
1000
0100
0010
0100
0000
,  // measure 21
1000
0010
0000
0001
0000
0010
0000
1000
0001
0010
0100
1000
0010
0100
0010
0000
,  // measure 22
1000
0001
0000
0001
0010
0100
0010
0100
1000
0010
1000
0010
0100
0001
0100
0001
,  // measure 23
1000
0010
0000
1001
0000
1001
0000
1000
0010
0000
0000
0000
0100
0010
0100
0010
,  // measure 24
0100
0101
0100
1100
,  // measure 25
0010
0110
0001
0101
,  // measure 26
1000
1100
0100
0110
,  // measure 27
1001
0000
0000
0000
1001
0000
1001
0000
1000
0001
0000
0000
1000
0010
0100
0001
,  // measure 28
0000
0001
0100
0001
1000
0100
0010
0001
0000
0001
0010
0001
1000
0100
0001
0100
,  // measure 29
1000
0000
0001
0100
1000
0100
0001
0010
0100
0000
0000
0000
1000
0010
0100
0001
,  // measure 30
0000
0001
0100
0001
1000
0100
0010
0001
0000
0001
0100
0010
0000
1000
0001
0010
,  // measure 31
1000
0010
0001
0100
1000
0100
0001
0100
0010
0000
1000
0000
1000
0100
0010
0001
,  // measure 32
0000
0001
1000
0010
0100
0001
0100
0001
0000
0001
0000
1000
0100
0001
0100
1000
,  // measure 33
0000
0100
1000
0100
0000
0010
0100
0010
0001
0010
0100
0000
1000
0010
0100
0001
,  // measure 34
0000
0001
0000
0001
1000
0100
0010
0001
0000
0001
1000
0010
0110
0000
0110
0000
,  // measure 35
0001
1000
0000
1001
0000
0000
0000
0000
0001
1000
0001
1000
0001
0000
0000
0000
,  // measure 36
0000
0000
0000
0000
0110
1010
0000
0000
,  // measure 37
0000
0000
0000
0000
0110
0101
0000
0000
,  // measure 38
0000
0000
0000
0000
0110
1010
0000
0000
,  // measure 39
0000
0000
0000
0000
0000
0000
0100
0010
0001
0010
0100
1000
0001
0100
0000
0100
,  // measure 40
0000
0001
0010
0100
1000
0000
0010
0000
0010
0000
0100
0000
0001
0100
0000
1000
,  // measure 41
0000
0100
0000
0001
0000
0000
0000
0000
0000
0000
0000
0000
1000
0001
0000
0001
,  // measure 42
0000
1000
0010
1000
0001
0010
0001
0010
0100
1000
0100
1000
0001
0100
0000
1001
,  // measure 43
0000
1001
0000
0010
1000
0000
0000
0000
0001
1000
0001
1000
0001
0000
0000
0001
,  // measure 44
0010
0000
0000
0010
0100
0000
0000
0100
1000
0000
0000
0000
0000
0000
1001
0000
,  // measure 45
0000
0000
0001
0000
0001
0000
0100
0000
0001
1000
0000
0000
1000
0000
0000
1000
,  // measure 46
0010
0000
0000
0010
0100
0000
0000
0000
0000
0001
0010
0100
1000
0000
1000
0010
,  // measure 47
0000
0100
0000
0010
1000
0100
0010
0001
1000
0010
1000
0010
1000
0000
0001
0000
,  // measure 48
0010
0000
1000
0000
0010
0000
0001
0000
0001
1000
0000
0000
0100
0000
0100
0000
,  // measure 49
1000
0100
0000
0010
0000
0001
0000
0001
1000
0000
1000
0000
0000
0000
0001
0000
,  // measure 50
0100
0000
1000
0000
0100
0000
0001
0000
0001
1000
0000
0000
0100
0000
0100
0000
,  // measure 51
1000
0010
0000
0010
0100
0001
0000
1000
0100
0000
1000
0001
1000
0000
0001
0000
,  // measure 52
0010
0000
1000
0000
0010
0000
0001
0000
0001
1000
0000
0000
0001
0000
0001
0000
,  // measure 53
0100
0010
0000
1000
0000
0001
0000
0001
1000
0000
1000
0000
0001
0100
0001
0100
,  // measure 54
0001
0000
0100
0010
0000
1000
0100
0010
0001
0010
0100
1000
1001
0000
1001
0000
,  // measure 55
0010
0100
0000
0000
1001
0000
1001
0000
0100
0010
0000
0000
0110
0000
0110
0000
,  // measure 56
1000
0001
0000
1001
0000
0000
0000
0000
0000
0000
0000
0000
0000
0000
0000
0000
;

//---------------dance-double - ----------------
#NOTEDATA:;
#CHARTNAME:;
#STEPSTYPE:dance-double;
#DESCRIPTION:;
#CHARTSTYLE:;
#DIFFICULTY:Medium;
#METER:9;
#RADARVALUES:0.381754,0.437077,0.247094,0.054910,0.022879,292.000000,265.000000,27.000000,6.000000,0.000000,0.000000,0.000000,0.000000,0.000000,0.381754,0.437077,0.247094,0.054910,0.022879,292.000000,265.000000,27.000000,6.000000,0.000000,0.000000,0.000000,0.000000,0.000000;
#CREDIT:;
#NOTES:
00000000
00000000
00000000
00000000
,
00000000
00000000
00000000
00000000
,
00000000
00000000
00000000
00000000
,
00000000
00000000
00000000
00000000
,
10000000
01000000
00100000
00001000
,
00000000
00010000
00000000
00010000
00000100
00000010
00000100
00000000
,
00001000
00000000
00000010
00000000
00000100
00000000
00000000
00000001
,
00000100
00000010
00010000
00001000
00010000
00000000
00000000
00000000
,
00001000
00100000
01000000
10000000
00100000
00000000
10100000
00000000
,
01000000
00001000
00100000
00001000
00010000
00000000
00000000
00000000
,
00000000
00000100
00000010
00000001
00000100
00000000
00000101
00000000
,
00000010
00000000
00000100
00000000
00010000
00000000
00001000
00000000
00100000
00000000
00000000
01000000
00000000
00000000
10000000
00000000
,
00010000
10000000
01000000
00100000
01000000
00000000
11000000
00000000
,
00100000
00001000
00010000
00001000
00100000
00000000
00000000
00000000
,
00001000
00001000
00001000
00010000
00000000
00000010
00000100
00000001
,
00010000
00000000
00010000
00000000
00010000
00000000
00000000
00011000
00000000
00000000
00000000
00000000
00100000
00000000
01000000
00000000
,
10000000
00000000
11000000
00000000
00100000
00001000
00010000
00000000
,
00000100
00000000
00000110
00000000
00000001
00000010
00000100
00000000
,
00001000
00000000
00011000
00000000
01000000
00100000
10000000
00000000
,
00100000
00000000
01100000
00000000
01000000
00001000
00010000
00000100
,
00000010
00000001
00000100
00000001
00000010
00000001
00000100
00000000
,
00000010
00010000
00000100
00010000
00000010
00000000
00011000
00000000
,
00100000
01000000
10000000
00100000
01000000
01000000
00001000
00001000
,
00022000
00000000
00033000
00000110
,
00001001
00000000
00000001
00000000
,
00001000
00000000
00010000
00000000
,
10000000
00000000
00010000
00000000
,
20020000
00000000
00000000
00000000
30030000
00000000
01000000
10000000
,
00100000
01000000
00010000
00100000
00001000
00000000
00010000
00000100
,
00001000
00000010
00000100
00000001
00000010
00000000
00000001
00000010
,
00000100
00000010
00000001
00010000
00000100
00000000
00010000
00001000
,
01000000
00001000
00010000
00100000
01000000
00000000
10000000
00100000
,
01000000
00010000
00100000
00001000
00010000
00000000
00000100
00001000
,
00000010
00000100
00000001
00000010
00000100
00000000
00010000
00001000
,
01000000
00001000
00010000
00001000
01000000
00000000
00100000
00100000
,
00100000
00000000
00000000
01100000
00000000
00000000
00000000
00000000
10000000
00000000
01000000
00000000
00100000
00000000
00000000
00000000
,
00000000
00000000
00011000
00000100
,
00000000
00000000
00011000
01000000
,
00000000
00000000
00011000
00000100
,
00000000
00000000
00001000
01100000
,
10000000
00000000
00010000
10000000
,
00001000
00000000
00010000
00000001
,
00001000
00000001
00001000
00000100
00000010
00000001
00022000
00000000
,
00000000
00033000
00011000
10000000
,
01000000
00000000
00100000
00000000
00001000
00000000
00000000
00010000
,
00000000
00010000
00000010
00000100
00000001
00000000
00000010
00000000
,
00000100
00000000
00010000
00000000
00000000
00001000
01000000
00100000
,
10000000
01000000
00100000
00000000
00001000
00001000
00010000
00000100
,
00000010
00000001
00000100
00000000
00000101
00000000
00000010
00010000
,
00001000
00100000
01000000
00000000
00000000
00000000
00000000
10000000
,
01000000
00100000
00001000
00000000
00011000
00000000
00000010
00000100
,
00000001
00000000
00000100
00000000
00000010
00000000
00000000
00001000
00000000
00000000
00010000
00000000
01000000
00000000
00100000
00000000
,
01000000
00001000
00010000
00000000
00011000
00000000
00000100
00000010
,
00000001
00000010
00000100
00000000
00000000
00000000
00010000
00000010
,
00000100
00000001
00000000
00000010
00000100
00010000
00001000
00001000
,
00011000
00000000
01000000
01000000
01100000
00000000
00001000
00001000
,
00011000
00000000
00000000
00010010
00000000
00000000
00000000
00000000
00000000
00000000
00000000
00000000
00000000
00000000
00000000
00000000
;

//---------------dance-double - ----------------
#NOTEDATA:;
#CHARTNAME:;
#STEPSTYPE:dance-double;
#DESCRIPTION:;
#CHARTSTYLE:;
#DIFFICULTY:Hard;
#METER:11;
#RADARVALUES:0.500726,0.539918,0.356914,0.082365,0.416400,383.000000,344.000000,39.000000,9.000000,0.000000,0.000000,0.000000,0.000000,0.000000,0.500726,0.539918,0.356914,0.082365,0.416400,383.000000,344.000000,39.000000,9.000000,0.000000,0.000000,0.000000,0.000000,0.000000;
#CREDIT:;
#NOTES:
00000000
00000000
00000000
00000000
,
00000000
00000000
00000000
00000000
,
00000000
00000000
00000000
00000000
,
10010000
00000000
00000000
00100000
00000000
01000000
00000000
00001000
00000000
00000000
00000000
00000000
00011000
00000000
00000000
00000000
,
00010010
00000110
00000101
00010001
,
00000000
00002000
00000000
01000000
01003000
00100000
10000000
00000000
,
11000000
00000000
00000000
00000000
01100000
00000000
00000000
00000000
01001000
00000000
00000000
00000000
00000000
00010000
00000100
00000000
,
00000010
00000000
00000001
00000100
00000000
00000010
00000000
00020000
00000000
00000000
00000000
00000000
00031000
00000000
00010000
00000000
,
00011000
00000000
00100000
00000000
01000000
00000000
10000000
00000000
00010000
00000000
00010000
00000000
01000000
00001000
00000000
00000000
,
00010000
00000000
00000100
00000000
00000001
00000100
00000000
00020000
00000000
00000000
00000000
00000000
00030000
00000000
00000000
00000000
,
00000000
00000000
00000100
00000000
00000010
00000000
00000001
00000000
00001000
00000000
00001000
00000000
00000100
00010000
00000000
00000000
,
00001000
00000000
01000000
00000000
10000000
01000000
00000000
00001000
00010000
00000000
00000000
00000100
00000000
00000000
00010000
00000000
,
00011000
00000000
00100000
00000000
01000000
00000000
10000000
00000000
00010000
00000000
00010000
00000000
01000000
00001000
00000000
00000000
,
00010000
00000000
00000100
00000000
00000001
00000100
00000000
00020000
00000000
00000000
00000000
00000000
00030000
00000000
00000000
00000000
,
00000010
00000100
00000010
00000100
00000010
00000000
00000100
00000001
00000000
00000001
00000010
00000000
00000100
00000000
00010000
00000000
,
00001000
00000000
00001000
00000000
00011000
00000000
00000000
01001000
00000000
00000000
00000000
00000000
00100000
00000000
01000000
00000000
,
00100000
10000000
00000000
01000000
00000000
10000000
00010000
00000000
01000000
00000000
00001000
00000000
00010000
00000000
00000100
00000000
,
00000010
00000001
00000000
00000100
00000000
00000001
00000000
00000020
00000000
00000000
00000000
00000000
00000130
00000000
00000000
00000000
,
00001000
00000001
00000000
00000100
00000000
00000001
00010000
00000000
00001000
00000000
00100000
00000000
01000000
00000000
10000000
00000000
,
00100000
10000000
00000000
01000000
00000000
10000000
00000000
00100000
01000000
00000000
00001000
00000000
00010000
00000000
00000010
00000000
,
00000100
00000001
00000000
00000010
00000000
00000001
00000100
00000000
00000010
00000000
00001000
00000000
00010000
00000000
01000000
00000000
,
00100000
10000000
00000000
01000000
00000000
10000000
00000000
00200000
00000000
00000000
00000000
00000000
01300000
00000000
00000000
00000000
,
00010000
10000000
00000000
00100000
00000000
10000000
00010000
00000000
00100000
00000000
00001000
00000000
00000100
00000000
00000010
00000000
,
00001001
00000000
00000000
00000100
00000000
00000010
00000000
00000100
00000000
00000000
00000000
00000000
00000110
00000000
00000000
00000000
,
00011000
00100000
01000000
00100000
,
00011000
00000100
00000010
00000100
,
00011000
00100000
01000000
00100000
,
00011000
00000000
00000010
00000010
00000110
00000000
00000001
00000010
,
00001000
00000010
00000001
00000100
00010000
00000100
00000001
00000010
,
00000100
00000000
00010000
00001000
00010000
00001000
01000000
00100000
01000000
00000000
00000000
00000000
00010000
00000000
01000000
00000000
,
10000000
01000000
00010000
00100000
10000000
00100000
00001000
00010000
,
00000100
00000000
00000010
00000001
00000010
00000001
00010000
00000010
00010000
00000000
00000000
00000000
00001000
00000000
00100000
01000000
,
00000000
00100000
01000000
00000000
10000000
00000000
00100000
10000000
00000000
00001000
00000000
00010000
00000010
00000000
00000010
00000000
,
00000010
00000000
00000100
00000000
00000100
00000000
00000001
00000000
00000001
00000000
00000010
00000000
00000100
00000000
00010000
00000010
,
00000000
00010000
00000000
00000001
00000100
00000000
00000010
00010000
00000000
00001000
01000000
00000000
00100000
00000000
00100000
00000000
,
01100000
00000000
00000000
01001000
00000000
00000000
00000000
00000000
00010000
00000000
00000010
00000000
00000110
00000000
00000000
00000000
,
00000000
00000000
00000110
00010000
,
00000000
00000000
01100000
00001000
,
00000000
00000000
00000110
00010000
,
00000000
00000000
01100000
01001000
,
00001000
00001000
10000000
00100000
,
01000000
00001000
00000000
00010000
,
00010000
00000000
00000000
00000000
00010000
00000000
00000100
00000000
00000010
00000000
00000001
00000000
00001000
00000000
00000000
00000010
,
00000000
00000100
00000000
00000010
00000000
00000000
00000000
00000000
00000110
00000000
00000000
00000000
00000101
00000000
00000000
00000000
,
00000110
00000000
00010010
00000000
00011000
00000000
00000000
00002000
,
00000000
01000000
01003000
00100000
10000000
00000000
11000000
00000000
,
01100000
00000000
00000000
00000000
00101000
00000000
00000000
00000000
00000000
00010000
00000010
00000000
00000100
00000000
00000001
00000010
,
00000000
00000100
00000000
00000010
00000000
00000000
00000000
00000000
00000001
00000000
00001000
00000000
00001001
00000000
00000010
00000000
,
00000100
00000000
00010000
00000000
00001000
00000000
01000000
00000000
00100000
10000000
00000000
00000000
00100000
00000000
00100000
00000000
,
10000000
00010000
00000000
00200000
00000000
00000000
00000000
00000000
00300000
00000000
00000000
00000000
00000000
00000000
00010000
00000000
,
01000000
00000000
00001000
00000000
00010000
00000000
00000100
00000000
00000010
00000001
00000000
00000000
00000100
00000000
00000100
00000000
,
00000010
00001000
00000000
00001000
00000100
00000000
00000000
00010000
00000000
00000000
00100000
00000000
10010000
00000000
01000000
00000000
,
00100000
00000000
00001000
00000000
00010000
00000000
00000100
00000000
00000010
00000001
00000000
00000000
00000100
00000000
00000100
00000000
,
00000001
00001000
00000000
00000200
00000000
00000000
00000000
00000000
00000300
00000000
00000000
00000000
00010000
00001000
00010000
00001000
,
00010000
00000000
00001000
01000000
00000000
01000000
00100000
00000000
10000000
00000000
01000000
00000000
00100000
00000000
00100000
00000000
,
01000000
00100000
00000000
00000000
00001000
00000000
00001000
00000000
00010000
00001000
00000000
00000000
00000100
00000000
00000100
00000000
,
00000010
00000100
00000000
00001001
00000000
00000000
00000000
00000000
00000000
00000000
00000000
00000000
00000000
00000000
00000000
00000000
;

//---------------dance-double - ----------------
#NOTEDATA:;
#CHARTNAME:;
#STEPSTYPE:dance-double;
#DESCRIPTION:;
#CHARTSTYLE:;
#DIFFICULTY:Challenge;
#METER:14;
#RADARVALUES:0.682451,0.771312,0.210488,0.018303,1.057015,522.000000,499.000000,23.000000,2.000000,0.000000,0.000000,0.000000,0.000000,0.000000,0.682451,0.771312,0.210488,0.018303,1.057015,522.000000,499.000000,23.000000,2.000000,0.000000,0.000000,0.000000,0.000000,0.000000;
#CREDIT:;
#NOTES:
00000000
00000000
00000000
00000000
,
00000000
00000000
00000000
00000000
,
00000000
00000000
00000000
00000000
,
10000000
00100000
00000000
00100000
00000000
00100000
00000000
01000000
00001000
00000000
00000000
00000000
00010000
00001000
00010000
00001000
,
00010000
00000000
00000000
00010000
00000100
00000000
00000000
00000100
00000010
00000000
00000000
00000010
00000001
00000000
00000000
00000000
,
00000000
00000000
00000110
00000000
00000000
00000000
00000100
00000000
00000010
00000000
00000010
00000000
00000010
00010000
00000000
00000000
,
00011000
00000000
00000000
00001000
01000000
00000000
00000000
01000000
00100000
00000000
00000000
00000000
00000000
10000000
01000000
00100000
,
00001000
00000000
00010000
00000100
00000000
00000010
00000000
00000001
00000100
00000010
00001000
00000100
00010000
00001000
00010000
00001000
,
00010000
00000000
00000100
00000000
00000100
00000000
00000010
00000000
00000010
00000000
00000001
00000000
00000100
00000010
00000000
00000000
,
00010000
00000000
00010000
00000000
00001000
01000000
00000000
00200000
00000000
00000000
00000000
00000000
00300000
00000000
00000000
00000000
,
00000000
00000000
10000000
00000000
10000000
00000000
00010000
00000000
00010000
00000000
01000000
00000000
00100000
10000000
00000000
00000000
,
00001000
00000000
00001000
00000000
00010000
00000100
00000000
00000010
00000001
00000010
00000001
00000100
00000000
00000100
00000001
00000010
,
00000100
00000000
00001000
00000000
00001000
00000000
00000010
00000000
00000010
00000000
00000100
00000000
00000001
00000010
00000000
00000000
,
00010000
00000000
00010000
00000000
00001000
00100000
00000000
02000000
00000000
00000000
00000000
00000000
03000000
00000000
00000000
00000000
,
10000000
00010000
10000000
00010000
10000000
00000000
00100000
01000000
00000000
00010000
00100000
01000000
00100000
00001000
00010000
00000010
,
00000100
00000000
00000110
00000000
00001000
00000001
00000000
00001001
00000000
00000000
00000000
00000000
00010000
00001000
00010000
00001000
,
00010000
00000010
00000000
00000100
00000000
00000001
00000010
00000100
00010000
00001000
00100000
01000000
10000000
00010000
01000000
00000000
,
00010000
00100000
00000000
01000000
00000000
10000000
00000000
01000000
00100000
00001000
00010000
00000010
00000100
00000001
00000010
00000000
,
00000100
00000010
00000000
00000001
00000000
00000010
00000100
00010000
00001000
00100000
01000000
10000000
00010000
01000000
00010000
00000000
,
10000000
00100000
00000000
01000000
00000000
00100000
00000000
10000000
00100000
00000000
01000000
00001000
00100000
00001000
01000000
00001000
,
10000000
01000000
00000000
00100000
00000000
01000000
10000000
00100000
01000000
00001000
00010000
00000100
00000010
00000001
00000010
00000000
,
00000001
00000100
00000000
00000010
00000000
00000100
00000000
00000001
00000010
00000100
00010000
00001000
00100000
01000000
10000000
00000000
,
00100000
10000000
00000000
01000000
00100000
01000000
00100000
01000000
10000000
00100000
10000000
00100000
01000000
00001000
01000000
00001000
,
00010000
00000100
00000000
00000011
00000000
00000011
00000000
00000100
00010000
00000000
00000000
00000000
00001000
00010000
00001000
00010000
,
00001000
00000000
00000000
10000000
01000000
00000000
00000000
01000000
00001000
00000000
00000000
00001000
00010000
00000000
00000000
00010000
,
00000100
00000000
00000000
00000100
00000001
00000000
00000000
00000001
00000100
00000000
00000000
00000100
00010000
00000000
00000000
00010000
,
00001000
00000000
00000000
00001000
01000000
00000000
00000000
01000000
10000000
00000000
00000000
10000000
01000000
00000000
00000000
01000000
,
00001000
00000000
00000000
00000000
00011000
00000000
00011000
00000000
00001000
00010000
00000000
00000000
00000100
00000010
00000001
00000100
,
00000000
00000100
00000010
00010000
00000100
00010000
00001000
01000000
00000000
01000000
00100000
10000000
01000000
00100000
01000000
10000000
,
00001000
00000000
00001000
00100000
01000000
00100000
00001000
00010000
00000100
00000000
00000000
00000000
00000010
00000001
00000100
00000010
,
00000000
00000010
00010000
00001000
00010000
00000010
00010000
00001000
00000000
00001000
00100000
01000000
00000000
10000000
00010000
00100000
,
10000000
00100000
00010000
01000000
10000000
01000000
00001000
00010000
00000100
00000000
00000010
00000000
00000010
00000001
00000100
00000010
,
00000000
00000010
00001000
00000100
00010000
00001000
01000000
00010000
00000000
10000000
00000000
10000000
01000000
00100000
00001000
00010000
,
00000000
00000100
00000010
00000100
00000000
00000010
00000001
00000010
00000100
00010000
00001000
00000000
00100000
01000000
10000000
00100000
,
00000000
00100000
00000000
01000000
00001000
00010000
00000010
00000100
00000000
00000100
00000001
00000010
00000100
00000000
00000110
00000000
,
00010000
00000100
00000000
00010100
00000000
00000000
00000000
00000000
00001000
00010000
00001000
00010000
00001000
00000000
00000000
00000000
,
00000000
00000000
01100000
00000000
,
00000000
00000000
00011000
00000000
,
00000000
00000000
00000110
00000000
,
00000000
00000000
00000000
00000000
00000000
00000000
00000000
00000000
00001000
00000000
00100000
00000000
01000000
10000000
00000000
10000000
,
00000000
00100000
01000000
00001000
00010000
00000000
00000010
00000000
00000010
00000000
00000100
00000000
00000001
00001000
00000000
00000100
,
00000000
00001000
00000000
00000010
00000000
00000000
00000000
00000000
00000000
00000000
00000000
00000000
00010000
00000010
00000000
00000100
,
00000000
00000010
00010000
00000000
00001000
00100000
00001000
00100000
01000000
10000000
01000000
10000000
00001000
01000000
00000000
10100000
,
00000000
10100000
00000000
01000000
00001000
00000000
00000000
00000000
00010000
00001000
00010000
00001000
00010000
00000000
00000000
00010000
,
00000010
00000000
00000000
00000010
00000100
00000000
00000000
00000100
00000001
00000000
00000000
00000000
00000000
00000000
00000110
00000000
,
00000000
00000000
00000001
00000000
00000001
00000000
00000010
00000000
00000100
00010000
00000000
00000000
00011000
00000000
00000000
00001000
,
01000000
00000000
00000000
01000000
00100000
00000000
00000000
00000000
00000000
10000000
01000000
00100000
00001000
00000000
00010000
00000010
,
00000000
00000100
00000000
00000001
00000010
00000100
00010000
00001000
01000000
00100000
01000000
00100000
01000000
00000000
00100000
00000000
,
00100000
00000000
10000000
00000000
10000000
00000000
01000000
00000000
00100000
00001000
00000000
00000000
00010000
00000000
00010000
00000000
,
00000010
00000100
00000000
00000001
00000000
00000100
00000000
00000010
00010000
00000000
00010000
00000000
00000000
00000000
00001000
00000000
,
00001000
00000000
01000000
00000000
01000000
00000000
00100000
00000000
10000000
01000000
00000000
00000000
10000000
00000000
10000000
00000000
,
00100000
01000000
00000000
00100000
01000000
00001000
00000000
00001000
00100000
00000000
00001000
00010000
00001000
00000000
00010000
00000000
,
00010000
00000000
00000010
00000000
00000010
00000000
00000100
00000000
00000001
00000010
00000000
00000000
00000001
00000000
00000001
00000000
,
00000100
00000010
00000000
00010000
00000000
00001000
00000000
00001000
00100000
00000000
00100000
00000000
01000000
00100000
01000000
00100000
,
01000000
00000000
10000000
00100000
00000000
10000000
01000000
00100000
00001000
00010000
00000100
00000010
00000001
00000000
00001001
00000000
,
00001000
00000001
00000000
00000000
00011000
00000000
00011000
00000000
00001000
00010000
00000000
00000000
01100000
00000000
01100000
00000000
,
01000000
00100000
00000000
10010000
00000000
00000000
00000000
00000000
00000000
00000000
00000000
00000000
00000000
00000000
00000000
00000000
;
