#TITLE:B.O.D.Y.;
#SUBTITLE:;
#ARTIST:BEMANI Sound Team "L.E.D. Sota F."& Starbitz;
#TITLETRANSLIT:;
#SUBTITLETRANSLIT:;
#ARTISTTRANSLIT:L.E.D. Sota F.& Starbitz;
#GENRE:;
#CREDIT:DigiMindAxel;
#BANNER:B.O.D.Y..png;
#BACKGROUND:B.O.D.Y.-bg.png;
#LYRICSPATH:B.O.D.Y..lrc;
#CDTITLE:beatmania IIDX.png;
#MUSIC:B.O.D.Y..ogg;
#OFFSET:-1.021000;
#SAMPLESTART:71.319298;
#SAMPLELENGTH:12.000000;
#SELECTABLE:YES;
#BPMS:0.000000=157.000000
;
#STOPS:
;
#BGCHANGES:-4.000=B.O.D.Y..avi=1.000=1=0=0=StretchNoLoop==CrossFade==,
99999=-nosongbg-=1.000=0=0=0 // don't automatically add -songbackground-
;
#KEYSOUNDS:;
#ATTACKS:;

//---------------dance-single - ----------------
#NOTES:
     dance-single:
     :
     Easy:
     6:
     0.274709,0.299669,0.033885,0.016942,0.000000,227.000000,223.000000,4.000000,2.000000,0.000000,0.000000,0.274709,0.299669,0.033885,0.016942,0.000000,227.000000,223.000000,4.000000,2.000000,0.000000,0.000000:
// measure 0
0000
0000
0000
0000
,  // measure 1
0000
0000
0000
0000
,  // measure 2
0000
0000
0000
0000
,  // measure 3
0000
0000
0000
0000
,  // measure 4
1000
0100
1000
0100
,  // measure 5
0010
0000
0001
0000
,  // measure 6
0100
0010
0100
0010
,  // measure 7
1000
0000
0100
0000
,  // measure 8
0010
0001
0010
0001
,  // measure 9
1000
0000
0010
0000
,  // measure 10
0100
0001
0100
0001
,  // measure 11
0010
0000
0100
0000
,  // measure 12
1001
0000
1000
0000
,  // measure 13
1000
0000
1000
0000
,  // measure 14
0001
0010
0100
1000
,  // measure 15
0001
0010
0100
1000
,  // measure 16
0001
0000
0001
0000
,  // measure 17
0001
0000
0001
0000
,  // measure 18
1000
0100
0010
0001
,  // measure 19
1000
0100
0010
0001
,  // measure 20
1000
0010
1000
0000
,  // measure 21
0001
1000
0001
0000
,  // measure 22
1000
0010
1000
0000
,  // measure 23
0001
1000
0001
0000
,  // measure 24
0010
0001
0010
0001
,  // measure 25
0100
0010
0100
0010
,  // measure 26
1000
0100
1000
0100
,  // measure 27
2002
0000
0000
3003
,  // measure 28
0001
0100
0001
0100
,  // measure 29
0010
1000
0010
1000
,  // measure 30
0100
0010
0100
0010
,  // measure 31
0001
1000
0001
1000
,  // measure 32
0001
0010
0100
1000
,  // measure 33
0001
0010
0100
1000
,  // measure 34
0010
0100
0010
1000
,  // measure 35
0010
0100
0001
1000
,  // measure 36
0100
1000
0010
0100
,  // measure 37
0010
0100
0001
0010
,  // measure 38
0001
1000
0100
1000
,  // measure 39
0100
0010
0001
0100
,  // measure 40
0010
0100
0010
0100
,  // measure 41
0001
1000
0001
1000
,  // measure 42
0000
0000
0000
0000
,  // measure 43
0010
0000
0000
0010
0000
0000
0000
0000
,  // measure 44
1001
0000
0000
0000
,  // measure 45
0000
0000
0000
0000
,  // measure 46
1000
0100
1000
0100
,  // measure 47
0010
0001
0010
0001
,  // measure 48
0100
0010
0100
0010
,  // measure 49
1000
0001
1000
0001
,  // measure 50
0100
0010
0100
0010
,  // measure 51
1000
0010
1000
0010
,  // measure 52
0100
0001
0100
0001
,  // measure 53
0010
0000
0100
0000
,  // measure 54
1000
0001
1000
0001
,  // measure 55
0010
0100
0010
0100
,  // measure 56
1000
0010
1000
0010
,  // measure 57
0100
0001
0100
0001
,  // measure 58
0010
0100
1000
0001
,  // measure 59
0100
0001
0100
0001
,  // measure 60
1000
0100
0010
0001
,  // measure 61
1001
0000
0000
0000
,  // measure 62
0000
0000
0000
0000
,  // measure 63
0010
0100
0010
0100
,  // measure 64
0001
0010
0100
1000
,  // measure 65
0001
0001
1000
1000
,  // measure 66
0100
0100
0010
0010
,  // measure 67
0001
0100
0010
0100
,  // measure 68
0001
1000
0100
1000
,  // measure 69
0001
0001
1000
1000
,  // measure 70
0100
0100
0010
0010
;

//---------------dance-single - ----------------
#NOTES:
     dance-single:
     :
     Medium:
     11:
     0.442923,0.540833,0.381204,0.016942,0.004236,366.000000,321.000000,45.000000,2.000000,0.000000,0.000000,0.442923,0.540833,0.381204,0.016942,0.004236,366.000000,321.000000,45.000000,2.000000,0.000000,0.000000:
0000
0000
0000
0000
,
0000
0000
0000
0000
,
0000
0000
0000
0000
,
0000
0000
0000
0000
,
1000
0000
0100
1000
0000
0000
0100
1000
,
0000
0000
0000
0010
0000
0100
0001
0000
,
0010
0000
0001
0100
0000
0000
0001
0100
,
0000
0000
0000
0001
0000
0001
1000
0000
,
0100
0000
1000
0100
0000
0000
1000
0100
,
0000
0000
0000
0010
0000
0010
0100
0000
,
1000
0000
1000
0001
0000
0000
1000
0001
,
0101
0000
0000
0101
0000
0000
0101
0000
,
1000
1000
1000
1000
,
0001
0001
0001
0001
,
1000
0100
0010
0001
1000
0100
0010
0000
,
0001
0100
0010
1000
0001
0100
0010
0000
,
1000
1000
1000
1000
,
0001
0001
0001
0001
,
1000
0100
0010
0001
1000
0100
0010
0000
,
0001
0100
0010
1000
0001
0100
0010
0000
,
1000
1001
1000
1001
,
1000
1001
0010
0100
,
0010
0110
0010
0110
,
0010
0110
0010
0110
,
1000
0001
0100
0001
1000
0000
1001
0000
,
0001
0010
0100
0010
0001
0000
0011
0000
,
0100
1000
0001
1000
0100
0000
1100
0000
,
1001
0000
0000
0110
0000
0000
1001
0000
,
0001
0010
0001
0010
0100
0000
1000
0000
,
0010
1000
0010
1000
0001
0000
0010
0000
,
0100
0010
0100
0010
0001
0000
0100
0000
,
0010
1000
0010
1000
0001
0000
0010
0000
,
0001
0000
0100
0000
1000
0100
0001
0000
,
1000
0000
0010
0000
0001
0010
1000
0000
,
0001
0000
0010
0000
1000
0010
0001
0000
,
1000
0000
0100
0000
0001
0100
1000
0000
,
0100
0010
0100
0010
0001
0000
0100
0000
,
0010
1000
0010
1000
0001
0000
0010
0000
,
0100
0010
0100
0010
0001
0000
0100
0000
,
0010
1000
0010
1000
0001
0000
0010
0000
,
1100
1001
0011
0110
,
1100
1001
0011
0110
,
1000
0000
1000
0000
,
0110
0000
0000
0110
0000
0000
0000
0000
,
2002
0000
0000
0000
,
0000
0000
0000
3003
,
1001
0100
0010
0001
,
0100
0001
0100
0010
0100
0001
0100
0000
,
0001
0010
0100
1000
,
0001
1000
0010
1000
0001
1000
0010
0000
,
1000
0001
0010
0100
,
1000
0001
0100
0001
1000
0001
0100
0000
,
0001
1000
0100
0010
,
0100
1000
0001
1000
0100
1000
0001
0000
,
1000
0010
0100
0001
,
1000
0001
0010
0001
1000
0001
0010
0000
,
0100
0010
0001
1000
,
0001
0100
0010
0100
0001
0100
0010
0000
,
1000
0001
0010
0100
,
1000
0001
0100
0001
1000
0001
0100
0000
,
0001
0100
0010
1000
,
0001
0010
0000
0100
0000
1000
0000
0001
,
0000
0000
0000
0000
,
1000
0001
0100
0000
0100
0001
1000
0000
,
0001
1000
0100
0000
0100
1000
0001
0000
,
1100
1001
0011
0110
,
1100
1001
0011
0110
,
1000
0001
0100
0000
0100
0001
1000
0000
,
0001
0010
0100
0000
0100
0010
0001
0000
,
1100
1001
0011
0110
,
1100
0000
0000
0000
1001
0000
0000
0000
0011
0000
0000
0000
0110
0000
0000
1001
;

//---------------dance-single - ----------------
#NOTES:
     dance-single:
     :
     Hard:
     14:
     0.674066,0.792905,0.321906,0.076241,0.436267,557.000000,519.000000,38.000000,9.000000,0.000000,0.000000,0.674066,0.792905,0.321906,0.076241,0.436267,557.000000,519.000000,38.000000,9.000000,0.000000,0.000000:
0000
0000
0000
0000
,
0000
0000
0000
0000
,
0000
0000
0000
0000
,
0000
0000
0000
0000
,
0001
0100
0001
1000
0100
1000
0001
0200
,
0000
0000
0000
0310
0000
0010
0100
0010
,
1000
0100
1000
0001
0100
0001
1000
0200
,
0000
0000
0000
0310
0000
0010
0100
1000
,
0001
0100
1000
0100
0001
1000
0100
0020
,
0000
0000
0000
0130
1000
0001
0100
0000
,
0001
0010
1000
0010
0001
1000
0100
0010
,
1100
0000
0000
0110
0000
0000
0011
0000
0000
0110
0000
0000
1100
0000
1000
0000
,
0001
0010
0001
0000
0001
1000
0010
0000
,
1000
0010
1000
0000
1000
0001
0010
0000
,
0001
0000
0001
0000
1000
0100
0000
1000
0100
0000
0000
0011
0000
0000
0000
0000
,
1000
0000
1000
0000
0001
0100
0000
0001
0100
0000
0000
1010
0000
0000
0000
0000
,
0100
1000
0100
0000
0100
1000
0010
0000
,
0100
0001
0010
0000
0010
0001
0010
0000
,
0001
0000
0001
0000
0100
0010
0000
0100
0010
0000
0000
1010
0000
0000
0000
0000
,
1000
0000
1000
0000
0001
0010
0000
0001
0010
0000
0000
1100
0000
0000
0000
0000
,
0010
1000
0010
0100
0010
1000
0010
0100
,
0001
1000
0001
0010
0001
1000
0001
0000
,
0010
0001
0010
0100
0010
0001
0010
0100
,
1000
0001
0100
0001
1000
0001
0100
0000
,
0001
1000
0001
0000
0100
0010
0000
1000
0010
0000
0100
0010
0000
0000
0000
0000
,
1000
0001
1000
0000
0100
0010
0000
0001
0010
0000
0000
0000
1001
0000
0000
0000
,
0001
0100
0001
0000
0010
0100
0000
1000
0010
0000
0100
0001
0000
0000
0000
0000
,
1001
0000
1000
0000
0000
1000
0000
0000
1000
0000
0000
1001
0000
0000
0000
0000
,
0010
0000
0100
0000
0001
0000
0010
0100
0000
0000
1000
0000
0100
0000
0010
0000
,
0001
1000
0002
0000
0100
0000
0103
0000
0001
1000
0002
0000
0100
0000
0103
0000
,
0010
0000
0100
0000
0001
0000
0010
0100
0000
0000
1000
0000
0010
0000
0100
0000
,
1001
0000
1100
0010
0001
0100
0110
0000
,
0001
0100
0001
0000
1000
0001
1000
0000
0100
0000
0010
0000
0001
0000
1000
0000
,
0010
0000
1000
0100
0010
0000
0001
0000
1000
0010
1000
0000
0001
1000
0001
0000
,
0010
0001
0010
0000
0100
0010
0100
0000
1000
0000
0010
0000
0001
0000
0010
0000
,
1010
0000
0100
0101
0000
1000
1001
0000
,
0001
1000
0001
0000
0100
0000
0010
1000
0000
0010
1000
0000
0001
0000
0010
0000
,
0100
0010
0100
0000
1000
0000
0001
0100
0001
0000
0100
0000
0010
0000
1000
0000
,
0100
1000
0100
0000
0010
0000
0001
1000
0000
0001
1000
0000
0100
0000
0010
0000
,
0001
0100
0001
0000
1000
0000
0100
0010
0100
0000
1000
0000
0010
0000
0000
0000
,
1001
0000
0000
1000
0010
0000
0000
0010
0100
0000
0000
0100
0001
0000
0000
0000
,
1001
0000
0000
1000
0010
0000
0000
0010
0100
0000
0000
0100
0001
0000
0000
0000
,
1001
0100
0010
0001
1001
0010
0100
1000
,
1010
0000
0100
0101
0000
0000
0110
0000
,
2002
0000
0000
3000
,
0100
0100
0100
1003
,
0001
1000
0100
0001
0100
1000
0001
0010
,
0100
0010
0100
0000
1000
0000
0001
0100
0001
0000
1000
0000
0100
0000
0000
0000
,
1000
0001
0010
1000
0010
0001
1000
0010
,
0100
0001
0100
0000
0010
0000
1000
0100
1000
0000
0001
0000
0010
0000
0100
0000
,
1000
0001
0100
1000
0100
0001
1000
0100
,
0010
0100
0010
0000
0001
0000
1000
0010
1000
0000
0001
0000
0100
0000
0000
0000
,
0001
1000
0001
0000
1000
0100
1000
0000
0001
0010
0001
0000
0100
0010
0100
0000
,
0001
0010
0100
0000
1000
0000
0010
0000
0001
0000
0010
0000
1001
0000
0000
0000
,
1000
0010
0001
0010
0100
0001
1000
0100
,
0010
0000
0100
0000
1000
0000
0010
1000
0001
0000
0010
0000
0100
0000
0000
0000
,
1000
0100
0001
1000
0100
0010
1000
0001
,
1000
0100
1000
0000
0001
0000
0100
0010
0100
0000
0001
0000
0010
0000
0100
0000
,
1000
0001
0100
1000
0100
0010
1000
0001
,
0010
0001
0010
0000
0100
0000
1000
0001
1000
0000
0010
0000
0100
0000
0000
0000
,
0001
0100
0001
0000
1000
0001
1000
0000
0100
1000
0100
0000
0010
0100
0010
0000
,
1001
1001
0000
1001
0000
0110
0110
0000
,
0000
0000
0000
1001
,
1000
0100
0010
0000
0100
1000
0100
0000
1000
0100
0010
0000
0100
1000
0100
0000
,
0010
0001
1000
0000
0010
0100
0001
0000
0010
0001
1000
0000
0010
0100
0001
0000
,
1001
0000
0000
1000
0010
0000
0000
0010
0100
0000
0000
0100
0001
0000
0000
0000
,
1001
0000
0000
1000
0010
0000
0000
0010
0100
0000
0000
0100
0001
0000
0000
0000
,
0010
0100
1000
0000
0001
0100
0001
0000
0010
0100
1000
0000
0001
0100
0001
0000
,
0100
0010
1000
0000
0100
0010
0001
0000
0100
0010
1000
0000
0100
0010
0001
0000
,
1001
0000
0000
1000
0010
0000
0000
0010
0100
0000
0000
0100
0001
0000
0000
0000
,
1001
0000
0000
1000
0010
0000
0000
0010
0100
0000
0000
0100
0001
0000
0000
2002
,
0000
0000
0000
0000
,
3003
0000
0000
0000
;

//---------------dance-single - ----------------
#NOTES:
     dance-single:
     :
     Challenge:
     16:
     0.895527,1.006379,0.347319,0.609927,1.037722,740.000000,699.000000,41.000000,72.000000,0.000000,0.000000,0.895527,1.006379,0.347319,0.609927,1.037722,740.000000,699.000000,41.000000,72.000000,0.000000,0.000000:
0000
0000
0000
0000
,
0000
0000
0000
0000
,
0000
0000
0000
0000
,
0000
0000
0000
0000
,
1001
0000
0100
1000
0100
0000
0001
0000
0100
0000
1000
0000
0010
0000
0200
0000
,
0001
0000
0301
2000
0000
3100
0010
0001
,
0100
0000
0000
0010
1000
0000
0100
0000
0001
0000
0100
0000
1000
0000
0002
0000
,
0010
0000
0013
0200
0000
1300
0010
0100
,
1001
0000
0010
0001
0010
0000
1000
0000
0010
0000
0001
0000
0100
0000
0020
0000
,
1000
0000
1030
0001
0010
0100
1000
0001
,
0100
0000
0000
0100
0001
0000
1000
0000
0001
0000
0100
0000
1000
0000
0100
0000
,
0101
0000
0000
1010
0000
0000
0110
0000
0000
1001
0000
0000
0110
0000
0110
0000
,
1001
0010
0001
0100
0001
0010
0001
0100
,
0001
1000
0001
0010
0001
1000
0001
0010
,
1100
0000
1100
0000
0010
0001
0000
0100
0010
0000
1000
0100
0000
0000
0000
0000
,
0101
0000
0101
0000
0010
1000
0000
0100
0010
0000
0001
0100
0001
0100
0001
0000
,
1000
0100
1000
0010
1000
0100
1000
0010
,
1000
0001
1000
0100
1000
0001
1000
0100
,
0011
0000
0011
0000
0100
1000
0000
0010
0100
0000
0001
0010
0000
0000
0000
0000
,
0101
0000
0101
0000
0010
1000
0000
0010
0100
0000
0001
0100
0001
0100
0001
0000
,
1000
0100
1000
0000
0100
0010
0100
0000
1000
0100
1000
0000
0100
0010
0100
0000
,
0010
0001
0010
0000
0001
0100
0001
0000
0010
0001
0010
0000
0001
0100
0001
0000
,
1000
0001
1000
0000
0010
0100
0010
0000
1000
0001
1000
0000
0010
0100
0010
0000
,
1000
0100
1000
0000
0001
0100
0001
0000
1000
0100
1000
0000
0001
0100
0001
0000
,
1001
0000
1001
0000
0100
1000
0010
0100
0001
0000
0001
1000
0000
0000
0000
0000
,
1100
0000
1100
0000
0010
0001
0100
0010
1000
0000
0010
1000
0001
0000
0000
0000
,
1000
0100
0001
0100
1000
0001
0010
0001
1000
0010
0001
0010
1000
0100
0010
0000
,
0001
0010
1000
0010
0001
1000
0100
1000
0001
0100
0010
2000
0000
0000
3000
0000
,
0001
0100
1000
0000
0100
0000
0001
0010
0000
0100
1000
0001
0100
0001
0010
0000
,
0100
1000
0001
1000
0100
1000
0001
0000
0100
0001
1000
0001
0100
0001
1000
0000
,
0001
0010
1000
0000
0010
0000
0001
0100
0000
0010
1000
0100
0010
0001
0100
0000
,
0001
1000
0100
1000
0001
1000
0100
0000
0010
0001
1000
0001
0010
0001
1000
0000
,
0100
0010
0001
1000
0100
0010
0100
0000
0010
0001
0100
0010
1000
0100
0010
0000
,
0100
1000
0010
0100
0001
0010
0100
0000
0010
0001
0100
0010
1000
0100
0010
0000
,
0001
0100
0010
1000
0100
0010
0100
0000
1000
0010
0100
0001
0010
0100
0010
0000
,
2002
3003
0010
2002
3003
0010
0220
0330
,
1000
0100
0001
0100
1000
0001
0010
0100
0000
1000
0010
0000
0100
0001
1000
0000
,
0100
1000
0001
1000
0100
1000
0001
0000
0100
0001
0010
0001
0100
0001
0010
0000
,
0001
0010
1000
0010
0001
0100
0010
1000
0000
0001
0100
0000
0010
1000
0001
0000
,
1000
0001
0100
0001
1000
0001
0100
0000
0010
1000
0001
1000
0010
1000
0001
0000
,
2200
0000
3300
2000
0020
0000
3030
0200
0002
0000
0303
0020
0200
0000
0330
0000
,
2020
0000
3030
2000
0200
0000
3300
0020
0002
0000
0033
0200
0020
0000
0330
0000
,
0001
0100
0001
0100
0010
1000
0100
0000
0010
0001
0010
0001
1000
0100
0010
0000
,
2002
3003
0010
2002
3003
0010
0220
0330
,
2002
0000
0000
3000
,
1000
0000
0100
0000
1000
0003
1001
0000
,
0101
0000
0000
0000
0010
1000
0100
1000
0010
0000
1000
0000
0100
0000
0010
0000
,
0001
0100
0010
0100
0001
0000
1000
0010
0100
0010
1000
0000
0100
0000
0010
0000
,
0100
0000
1000
0000
0001
1000
0010
1000
0001
0000
0010
0000
0100
0000
1000
0000
,
0001
0010
0001
0010
0100
1000
0001
0100
1000
0100
0001
1000
0010
0100
0001
0000
,
1001
0000
0000
0000
1000
0001
0010
0001
1000
0000
0010
0000
0100
0000
0001
0000
,
1000
0100
0010
0100
1000
0000
0001
0010
0100
0010
0001
0000
0100
0000
0010
0000
,
1000
0100
1000
0100
0010
0001
1000
0010
0001
0010
1000
0100
0010
0001
0100
0000
,
0001
0100
1000
0100
0001
0010
0001
0010
0100
1000
0001
0100
0010
0000
0000
0000
,
1001
0000
0100
0000
0010
0001
1000
0001
0010
0000
0100
0000
1000
0000
0001
0000
,
0100
0001
1000
0001
0100
0000
0010
1000
0001
1000
0010
0000
0100
0000
0001
0000
,
0010
0100
1000
0100
0010
0001
1000
0010
0001
0010
1000
0100
0010
0001
0100
0000
,
0010
1000
0001
0010
0100
1000
0001
0100
1000
0100
0001
0010
0100
1000
0010
0000
,
1000
0000
0001
0000
0010
0100
1000
0100
0010
0000
0001
0000
0100
0000
0010
0000
,
1000
0001
0100
0001
1000
0000
0001
1000
0010
1000
0001
0000
0010
0000
0100
0000
,
1000
0010
0001
0010
1000
0100
0001
0100
1000
0010
0100
0001
0010
0100
0010
0000
,
0101
0101
0000
0110
0000
1010
2020
0000
,
0000
0000
0000
0000
0000
3030
1001
0000
,
0001
0100
1000
0100
0001
1000
0100
0010
0001
0100
1000
0100
0001
1000
0100
0010
,
0001
0010
1000
0010
0001
1000
0010
0100
0001
0010
1000
0010
0001
0100
0010
2000
,
0200
0000
3300
0200
0020
0000
0330
0020
0002
0000
0033
0002
2000
0000
3003
2000
,
0200
0000
3300
0200
0020
0000
0330
0020
0002
0000
0033
0002
2000
0000
3003
0000
,
1000
0010
0001
0010
1000
0010
0100
0001
1000
0010
0001
0010
1000
0010
0100
0001
,
1000
0100
0001
0100
1000
0001
0010
0100
1000
0100
0001
0100
1000
0001
0010
0200
,
2000
0000
3300
0020
0200
0000
0330
0002
0020
0000
0033
2000
0002
0000
3003
0200
,
2000
0000
3300
0020
0200
0000
0330
0002
0020
0000
0033
2000
0002
0000
3003
0220
,
0000
0000
0000
0000
,
0330
0000
0000
0000
;

//---------------dance-single - ----------------
#NOTES:
     dance-single:
     :
     Beginner:
     2:
     0.110126,0.179166,0.050827,0.000000,0.000000,91.000000,85.000000,6.000000,0.000000,0.000000,0.000000,0.110126,0.179166,0.050827,0.000000,0.000000,91.000000,85.000000,6.000000,0.000000,0.000000,0.000000:
0000
0000
0000
0000
,
0000
0000
0000
0000
,
0000
0000
0000
0000
,
0000
0000
0000
0000
,
1000
0000
0000
0000
,
0000
0000
0000
0000
,
0100
0000
0000
0000
,
0000
0000
0000
0000
,
0010
0000
0000
0000
,
0000
0000
0000
0000
,
0001
0000
0000
0000
,
1001
0000
0000
0000
,
1001
0000
0000
0000
,
1000
0000
0000
0000
,
0001
0000
0000
0000
,
0001
0000
0000
0000
,
1000
0000
0000
0000
,
1000
0000
0000
0000
,
0001
0000
0000
0000
,
0001
0000
0000
0000
,
0100
0000
0000
0000
,
0010
0000
0000
0000
,
0100
0000
0000
0000
,
0010
0000
0000
0000
,
1000
0000
0000
0000
,
0100
0000
0000
0000
,
0010
0000
0000
0000
,
0001
0000
0000
0000
,
1001
0000
0000
0000
,
1000
0000
0001
0000
,
1000
0000
0000
0000
,
0100
0000
1000
0000
,
0100
0000
0000
0000
,
0010
0000
0100
0000
,
0010
0000
0000
0000
,
0001
0000
0010
0000
,
0001
0000
0000
0000
,
0100
0000
0010
0000
,
0100
0000
0000
0000
,
0001
0000
0100
0000
,
0001
0000
0010
0000
,
0100
0000
1000
0000
,
0000
0000
0000
0000
,
1001
0000
0000
0000
,
0010
0000
0000
0000
,
0000
0000
0000
0000
,
0110
0000
0000
0000
,
0100
0000
0010
0000
,
0100
0000
0000
0000
,
0001
0000
0100
0000
,
0001
0000
0000
0000
,
1000
0000
0100
0000
,
1000
0000
0010
0000
,
0100
0000
0000
0000
,
0001
0000
1000
0000
,
0100
0000
0000
0000
,
0010
0000
0001
0000
,
1000
0000
0000
0000
,
0010
0000
1000
0000
,
0001
0000
0000
0000
,
0100
0000
0001
0000
,
1000
0000
0000
0000
,
0000
0000
0000
0000
,
1001
0000
0001
0000
,
0001
0000
0001
0000
,
0100
0000
0010
0000
,
1000
0000
0001
0000
,
1000
0000
1000
0000
,
1000
0000
1000
0000
,
0100
0000
0010
0000
,
0001
0000
1000
0000
;
