#TITLE:Ancient Heritage;
#SUBTITLE:;
#ARTIST:BEMANI Sound Team "Sota Fujimori";
#TITLETRANSLIT:;
#SUBTITLETRANSLIT:;
#ARTISTTRANSLIT:Sota Fujimori;
#GENRE:;
#CREDIT:DigiMindAxel;
#BANNER:Ancient Heritage.png;
#BACKGROUND:Ancient Heritage-bg.png;
#LYRICSPATH:;
#CDTITLE:pop'n music.png;
#MUSIC:Ancient Heritage.ogg;
#OFFSET:-0.553000;
#SAMPLESTART:51.702728;
#SAMPLELENGTH:12.000000;
#SELECTABLE:YES;
#BPMS:0.000000=150.000000
;
#STOPS:
;
#BGCHANGES:;
#KEYSOUNDS:;
#ATTACKS:;

//---------------dance-single - ----------------
#NOTES:
     dance-single:
     :
     Easy:
     5:
     0.265146,0.347015,0.123148,0.175926,0.000000,211.000000,197.000000,14.000000,20.000000,0.000000,0.000000,0.265146,0.347015,0.123148,0.175926,0.000000,211.000000,197.000000,14.000000,20.000000,0.000000,0.000000:
0000
0000
0000
0000
,
0000
0000
0000
0000
,
0000
0000
0000
0000
,
0000
0000
0000
0000
,
1000
1000
0100
0100
,
1000
1000
0001
0001
,
0100
0100
0001
0001
,
0220
0000
0000
0330
,
0001
0001
0100
0100
,
0001
0001
1000
1000
,
0100
0010
0001
0100
,
0220
0000
0000
0330
,
1000
0001
1000
0000
,
0100
1000
0010
0000
,
1000
0001
1000
0000
,
0010
0000
1001
0000
,
0001
0001
0100
0010
,
0100
0100
0001
1000
,
0100
0100
1000
0010
,
0100
0000
1001
0000
,
0001
0001
1000
1000
,
0100
0100
0010
0010
,
0001
0001
1000
1000
,
0010
0010
0100
0100
,
0002
0000
0023
0000
,
0230
0000
2300
0000
,
3002
0000
0203
0000
,
0320
0000
2030
0000
,
3001
0001
1000
1000
,
0001
0001
1000
1000
,
0010
0010
0100
0100
,
0010
0010
0110
0000
,
1001
0001
1000
0100
,
0010
0010
0001
0100
,
0010
0010
1000
0100
,
0010
0010
0001
1000
,
0100
0100
1000
0001
,
0100
0100
0001
1000
,
0100
0100
1000
0010
,
0200
0320
0230
0300
,
0002
0000
0000
0000
,
2003
0000
0000
0000
,
3002
0000
0000
0000
,
0023
0000
0000
0000
,
0030
0000
0000
0000
,
0001
1000
0001
0001
,
1000
0100
1000
1000
,
0001
0100
0001
0001
,
0100
0000
0110
0000
,
0010
0100
0010
0010
,
1000
0001
1000
1000
,
0100
1000
0100
0100
,
1000
0000
1001
0000
,
0001
0100
0010
0100
,
0001
1000
0010
1000
,
0001
0010
0100
0010
,
0001
0000
1001
0000
,
1000
0010
0100
0010
,
1001
1001
1001
0000
,
0001
0100
0010
0100
,
0001
0000
1001
0000
,
2000
0000
0000
3000
,
0001
0001
0100
0010
,
1000
1000
0100
0010
,
0001
0001
0100
0010
,
1000
0100
0010
1001
;

//---------------dance-single - ----------------
#NOTES:
     dance-single:
     :
     Medium:
     10:
     0.459922,0.462686,0.325464,0.219908,0.074769,366.000000,329.000000,37.000000,25.000000,0.000000,0.000000,0.459922,0.462686,0.325464,0.219908,0.074769,366.000000,329.000000,37.000000,25.000000,0.000000,0.000000:
0000
0000
0000
0000
,
0000
0000
0000
0000
,
0000
0000
0000
0000
,
0000
0000
0000
0000
,
0001
0010
0100
0000
1000
0001
0100
0001
,
1000
0100
0010
0000
0002
0000
0100
0000
,
0103
0010
1000
0000
0001
0010
0100
0010
,
1001
0000
0000
0100
0000
0000
0010
0000
0000
0001
0000
0000
1000
0000
0000
0000
,
0001
0100
0010
0000
1000
0001
0010
0001
,
1000
0100
0010
0000
0002
0000
0100
0000
,
0103
0010
1000
0000
0001
0010
0100
0010
,
1001
0000
0000
0010
0000
0000
0100
0000
0000
1000
0000
0000
0001
0000
0000
0000
,
1100
0000
0000
0000
0000
0000
0000
0000
1000
0000
0000
1000
0000
0000
1000
0000
,
0011
0000
0000
0000
0000
0000
0000
0000
0001
0000
0000
0001
0000
0000
0001
0000
,
1100
0000
0000
0000
0000
0000
0000
0000
1000
0000
0000
1000
0000
0000
1000
0000
,
0011
0000
0000
0000
1001
0001
0000
0000
,
1000
0000
0100
0000
0010
0000
0000
0000
0001
0000
0000
0001
0000
0000
0001
0000
,
1000
0000
0010
0000
0100
0000
0000
0000
0001
0000
0000
0001
0000
0000
0001
0000
,
0100
0000
0010
0000
1000
0000
0000
0000
0100
0000
0000
0100
0000
0000
0100
0000
,
0010
0001
1000
0000
1001
1000
0000
0000
,
0001
0000
0100
0000
1000
0100
0001
0000
,
1000
0001
0100
0000
0010
0100
0010
0000
,
1000
0000
0100
0000
0001
0100
1000
0000
,
0110
0000
0000
0000
0010
0000
0000
0000
1001
0000
0000
1001
0000
0000
0000
0000
,
0002
0023
0230
0320
,
0032
0023
0230
0320
,
0032
2003
3020
2030
,
3002
2003
3020
2030
,
3001
0011
1000
1100
,
0001
0011
1000
1100
,
0010
0110
0001
1001
,
0100
0110
1000
1001
,
0001
0100
0001
0001
1000
0100
0010
0000
,
0100
1000
0010
0000
0100
0001
1000
0000
,
0001
0100
0001
0001
1000
0100
0010
0000
,
0100
1000
0010
0000
0100
0001
1000
0000
,
0100
0010
0001
0001
1000
0010
0100
0000
,
0001
0010
0100
0100
0010
0001
1000
0000
,
0100
0010
0001
0001
1000
0010
0100
0000
,
1001
0000
0000
0000
0110
0000
0000
0000
1001
0000
0000
1001
0000
0000
0000
0000
,
0010
0010
0010
0010
,
0010
0010
0010
0010
,
0110
0100
0100
0100
,
0100
0100
0100
0100
,
2002
0000
0000
3003
,
1000
0100
0010
0001
1000
0001
0100
0000
,
0001
0100
1000
0100
0001
0010
0100
0000
,
1000
0100
0010
0001
1000
0001
0100
0000
,
1001
0000
0000
0001
0000
0000
0001
0000
0100
0000
0000
0000
0110
0000
0000
0000
,
0001
0010
0100
1000
0001
1000
0010
0000
,
1000
0010
0001
0010
1000
0100
0010
0000
,
0001
0010
0100
1000
0001
1000
0010
0000
,
1001
0000
0000
0000
1001
1000
1000
0000
,
0001
0010
1000
0000
0010
0001
0100
0000
,
0001
0010
0001
0010
0100
1000
0100
1000
,
0001
0010
1000
0000
0010
0001
1000
0000
,
1001
0000
0000
0001
0000
0000
0001
0000
0100
0000
0000
0000
0110
0000
0000
0000
,
1000
0100
0001
0100
1000
0001
0010
0000
,
1100
0000
0000
0000
1100
0000
0000
0000
1001
0000
0000
0001
0000
0000
0000
0000
,
1000
0010
0001
0010
1000
0100
0010
0000
,
0101
0000
0000
0100
0001
0001
0001
0000
,
2002
0000
0000
3003
,
0001
0000
0000
0001
0000
0000
0010
0000
0200
0000
0000
0000
1000
0000
0300
0000
,
1000
0001
0100
0001
2000
0000
3001
0000
,
1000
0000
0000
1000
0000
0000
0100
0000
0020
0000
0000
0000
0001
0000
0030
0000
,
0001
0010
0100
1000
0001
0100
1001
0000
;

//---------------dance-single - ----------------
#NOTES:
     dance-single:
     :
     Hard:
     14:
     0.703705,0.694029,0.483797,0.211112,0.571760,560.000000,505.000000,55.000000,24.000000,0.000000,0.000000,0.703705,0.694029,0.483797,0.211112,0.571760,560.000000,505.000000,55.000000,24.000000,0.000000,0.000000:
// measure 0
0000
0000
0000
0000
,  // measure 1
0000
0000
0000
0000
,  // measure 2
0000
0000
0000
0000
,  // measure 3
0000
0000
0000
0000
,  // measure 4
1000
0000
0010
0000
0100
0000
0100
0000
0010
0000
1000
0000
0100
0000
0010
0001
,  // measure 5
0010
0000
0100
0010
0100
0000
1000
0000
0002
0000
1000
0000
1003
0000
0000
0000
,  // measure 6
0001
1000
0001
0000
1000
0100
1000
0000
0001
0010
0001
0000
1000
0001
1000
0000
,  // measure 7
0002
0000
0000
0203
0000
0000
0320
0000
0000
2030
0000
0000
3100
0000
0000
0000
,  // measure 8
0010
0001
0100
0100
0001
0010
0100
1000
,  // measure 9
0010
1000
0010
0000
0100
0010
0100
0000
0002
0000
1000
0000
1003
0000
0000
0000
,  // measure 10
0001
0010
0001
0000
1000
0001
1000
0000
0100
1000
0100
0000
1000
0001
1000
0000
,  // measure 11
0002
0000
0000
0203
0000
0000
0320
0000
0000
2030
0000
0000
3001
0000
0000
0000
,  // measure 12
1000
0000
0100
0000
0010
0000
0001
0000
0101
0000
0000
0101
0000
0000
0100
0000
,  // measure 13
1001
0000
0100
0000
0010
0000
0001
0000
0101
0000
0000
0101
0000
0000
0100
0000
,  // measure 14
1001
0000
0010
0000
0100
0000
0001
0000
0011
0000
0000
0011
0000
0000
0010
0000
,  // measure 15
1001
0010
0100
0001
1001
1001
0000
0000
,  // measure 16
0001
0000
0010
0000
0100
0000
1000
0000
1010
0000
0000
1010
0000
0000
0010
0000
,  // measure 17
1001
0000
0010
0000
0100
0000
1000
0000
1010
0000
0000
1010
0000
0000
0010
0000
,  // measure 18
1001
0000
0100
0000
0010
0000
1000
0000
1100
0000
0000
1100
0000
0000
0100
0000
,  // measure 19
1001
0010
0100
1000
1001
1001
0000
0000
,  // measure 20
1000
0010
0100
0010
1000
0100
0001
0100
,  // measure 21
1000
0000
0001
0000
0010
0000
0001
0000
1000
0010
1000
0000
0001
0100
0001
0000
,  // measure 22
1000
0100
0010
0100
1000
0010
0001
0010
,  // measure 23
1010
0000
0000
0000
0110
0000
0000
0000
1001
0000
0000
1001
0000
0000
0000
0000
,  // measure 24
0001
0000
0001
0100
0000
0100
0010
0000
0010
1000
0000
1000
,  // measure 25
0001
0000
0001
0010
0000
0010
0100
0000
0100
1000
0100
1000
,  // measure 26
0001
0000
0001
0100
0000
0100
1000
0000
1000
0100
0000
0100
,  // measure 27
0001
0000
0001
0010
0000
0010
1000
0000
1000
0010
1000
0010
,  // measure 28
0001
1000
0001
1000
0000
0000
0100
1000
0100
1000
0000
0000
,  // measure 29
0010
0100
0010
0100
0000
0100
0001
0000
0001
1000
0000
1000
,  // measure 30
0100
0010
0100
0010
0000
0000
0001
0100
0001
0100
0000
0000
,  // measure 31
0001
1000
0001
1000
0000
1000
0100
0000
0100
0010
0000
0000
,  // measure 32
0100
1000
0100
0000
0010
0000
0010
0000
0001
0100
0010
0000
0200
0000
0000
0000
,  // measure 33
0310
1000
0010
0000
0100
0000
0100
0000
0001
0010
0100
0000
0020
0000
0000
0000
,  // measure 34
0031
1000
0001
0000
0010
0000
0010
0000
0100
1000
0010
0000
0200
0000
0000
0000
,  // measure 35
0310
1000
0010
0000
0100
0000
0100
0000
0001
0010
0100
1000
0002
0000
0000
0000
,  // measure 36
0013
0001
0010
0000
0100
0000
0100
0000
1000
0010
0100
0000
0020
0000
0000
0000
,  // measure 37
0130
0001
0100
0000
0010
0000
0010
0000
1000
0100
0010
0000
0200
0000
0000
0000
,  // measure 38
1300
0001
1000
0000
0010
0000
0010
0000
1000
0100
0010
0000
0200
0000
0000
0000
,  // measure 39
1300
0000
0000
0000
0010
0000
0000
0000
0100
0000
0000
0000
0001
0000
0000
0000
0010
0000
0000
0000
0100
0000
0000
0000
1001
0000
0000
0000
0000
0000
0000
0000
0000
1001
0000
0000
0000
0000
0000
0000
0000
0000
0000
0000
0000
0000
0000
0000
,  // measure 40
1000
0100
0001
0000
0001
0100
1000
0001
,  // measure 41
1000
0010
0001
0000
0001
0010
1000
0000
,  // measure 42
0001
0100
1000
0000
1000
0100
0001
1000
,  // measure 43
0001
0010
1000
0000
1000
0010
0001
0000
,  // measure 44
2001
0000
0000
3020
0000
0000
0130
0000
0002
0000
0000
0000
1003
0000
0000
0000
,  // measure 45
0001
0000
1000
0100
1000
0000
0010
0100
0001
0000
0010
0000
0100
0000
0000
0000
,  // measure 46
1000
0010
0100
0000
0010
0100
0001
0000
1000
0000
1000
0100
1000
0000
1000
0000
,  // measure 47
0001
0000
1000
0010
1000
0000
0001
0000
0010
0100
1000
0000
0010
0100
0001
0000
,  // measure 48
1001
0000
0000
1001
0000
0000
1001
0000
0110
0000
0000
0000
0101
0000
0000
0000
,  // measure 49
1000
0000
0001
0010
0001
0000
0100
0010
1000
0000
0100
0000
0010
0000
0000
0000
,  // measure 50
0001
0100
0010
0000
0100
0010
1000
0000
0001
0000
0001
0010
0001
0000
0001
0000
,  // measure 51
1000
0000
0001
0100
0001
0000
1000
0000
0100
0010
0001
0000
0010
0100
1000
0000
,  // measure 52
1001
0000
0000
0000
0000
0000
0010
0100
0010
0000
0010
0000
0110
0000
0000
0000
,  // measure 53
1000
0000
0010
0100
0001
0000
0001
0000
0010
0100
1000
0000
0020
0000
0000
0000
,  // measure 54
1030
0000
0100
0000
0001
0100
1000
0000
0001
0000
0100
0000
1000
0100
0001
0000
,  // measure 55
1000
0100
0010
0001
1000
0000
0000
0000
0001
0010
0100
1000
0001
0000
0000
0000
,  // measure 56
1001
0000
0000
1001
0000
0000
1001
0000
0110
0000
0000
0000
1010
0000
0000
0000
,  // measure 57
0001
0000
0100
0010
1000
0000
1000
0000
0100
0010
0001
0000
0100
0010
0100
0000
,  // measure 58
1001
0000
0000
0000
1001
0000
0000
0000
1100
0000
0000
0011
0000
0000
0001
0000
,  // measure 59
1000
0000
0010
0100
0001
0000
0001
0000
0010
0100
1000
0000
0010
0100
0010
0000
,  // measure 60
1001
0000
0000
0000
0000
0000
0100
0010
0100
0000
0100
0000
0110
0000
0000
0000
,  // measure 61
1002
0000
0000
0203
0000
0000
0310
0000
0020
0000
0000
0000
1030
0000
0000
0000
,  // measure 62
1001
0000
0000
1001
0000
0000
0011
0000
0100
0010
0100
0010
0100
0010
0100
0000
,  // measure 63
1000
0000
0010
0000
0100
0000
0001
0000
0100
0010
0100
0010
0100
0000
0000
0000
,  // measure 64
1001
0000
0000
1001
0000
0000
1100
0000
0010
0100
0010
0100
0010
0100
0010
0000
,  // measure 65
0001
0000
0100
0010
1000
0000
0001
1000
0000
1000
0001
0000
0110
0000
0000
0000
;

//---------------dance-single - ----------------
#NOTES:
     dance-single:
     :
     Challenge:
     16:
     0.971364,0.986946,0.835650,0.518982,1.231484,773.000000,678.000000,95.000000,59.000000,0.000000,0.000000,0.971364,0.986946,0.835650,0.518982,1.231484,773.000000,678.000000,95.000000,59.000000,0.000000,0.000000:
// measure 0
0000
0000
0000
0000
,  // measure 1
0000
0000
0000
0000
,  // measure 2
0000
0000
0000
0000
,  // measure 3
0000
0000
0000
0000
,  // measure 4
0001
0000
0100
0001
1000
0000
1000
0000
0010
0000
0100
0000
0001
0010
0100
0010
,  // measure 5
0001
0000
0000
0100
0000
0000
1000
0000
0000
0100
0000
0000
0001
0000
0000
0010
0000
0000
0100
0000
0000
1000
0000
0000
0010
0000
0100
0000
0010
0000
0100
0000
0010
0000
0100
0000
0010
0000
0000
0000
0000
0000
0100
0000
0000
0000
0000
0000
,  // measure 6
0001
1000
0100
1000
0001
0100
0010
1000
0001
1000
0100
1000
0001
0100
0010
1000
,  // measure 7
2200
0000
3300
0220
0000
0330
0022
0000
0033
0220
0000
0330
2200
0000
3300
0000
,  // measure 8
1001
0000
0001
0100
0010
0000
0010
0000
0100
0000
0001
0000
1000
0100
0010
0001
,  // measure 9
1000
0000
0000
0010
0000
0000
0001
0000
0000
0010
0000
0000
1000
0000
0000
0100
0000
0000
0010
0000
0000
0001
0000
0000
0100
0000
0010
0000
0100
0000
0010
0000
0100
0000
0010
0000
0100
0000
0000
0000
0000
0000
0010
0000
0000
0000
0000
0000
,  // measure 10
1000
0001
0010
0001
0100
0010
1000
0001
0010
0001
0100
0010
1000
0001
0010
0001
,  // measure 11
0202
0000
0303
0220
0000
0330
2020
0000
3030
0220
0000
0330
0202
0000
0303
0000
,  // measure 12
1001
0000
0010
0100
0001
0000
0001
0000
1000
0001
0010
0100
1000
0000
1010
0000
,  // measure 13
1001
0000
0100
0010
1000
0000
1000
0000
0001
0010
0100
0000
1100
0000
0101
0000
,  // measure 14
1001
0000
0100
0001
0010
0001
0100
0001
1000
0010
0100
0001
0010
0000
0011
0000
,  // measure 15
1001
0000
0010
1000
0100
1000
0010
0100
1001
0000
1001
0000
0000
0000
0000
0000
,  // measure 16
0011
0000
0100
1000
0001
1000
0100
1000
0001
0100
0010
1000
0100
0000
1001
0000
,  // measure 17
1010
0000
0100
0001
0010
0001
0100
0001
1000
0100
0010
0001
0100
0000
1001
0000
,  // measure 18
0101
0000
0010
1000
0100
1000
0010
1000
0001
0010
0100
1000
0010
0000
1001
0000
,  // measure 19
1100
0000
0010
0001
0100
0001
0010
0100
1001
0000
1001
0000
0000
0000
0000
0000
,  // measure 20
0100
0000
0100
1000
0001
0000
0001
1000
0010
1000
0000
0001
0100
0001
1000
0100
,  // measure 21
0010
0000
0000
0001
0000
0000
1000
0000
0010
0000
1000
0000
0010
0000
0100
0000
0001
0000
1000
0000
0000
0000
0000
0000
0001
0000
0000
0010
0000
0000
0001
0000
0000
1000
0000
0000
0001
0000
0000
0010
0000
0000
0001
0000
0000
0000
0000
0000
,  // measure 22
0100
0000
0100
0001
1000
0000
1000
0001
0010
0001
0000
1000
0100
1000
0001
0010
,  // measure 23
0100
0000
0000
1000
0000
0000
0010
0000
0000
0100
0000
0000
0001
0000
1000
0000
0001
0000
1000
0000
0100
0000
0010
0000
0001
0000
0000
0000
0000
0000
0000
0000
0000
1001
0000
0000
0000
0000
0000
0000
0000
0000
0000
0000
0000
0000
0000
0000
,  // measure 24
1001
0100
0010
0001
0000
0001
1000
0100
0010
0001
0000
0001
,  // measure 25
1000
0010
0100
0001
0000
0001
1000
0010
0100
0101
0000
1000
,  // measure 26
1001
0010
0100
1000
0001
0100
0001
0010
0100
1000
0001
0100
,  // measure 27
0001
0010
1000
0010
0001
0100
1000
0100
0001
0011
0000
1000
,  // measure 28
1001
0010
0100
0001
0000
0001
1000
0100
0010
0001
0000
0001
,  // measure 29
1000
0010
0100
0001
0010
1000
0010
0001
1000
1010
0000
0001
,  // measure 30
1001
0100
0010
0001
0000
0001
1000
0010
0100
0001
0000
0001
,  // measure 31
1000
0100
0001
0100
1000
0010
0001
0010
1000
1100
0000
0000
,  // measure 32
0010
0001
1000
0000
1001
0000
1001
0100
0010
0000
0001
0010
0200
0000
0000
1300
,  // measure 33
0010
0100
0010
1000
0000
1000
0001
0010
0100
0000
1000
0100
0020
0000
0000
0031
,  // measure 34
0100
0010
1000
0000
1001
0000
1001
0010
0100
0000
1000
0100
0020
0000
0000
0031
,  // measure 35
0100
0010
0100
0001
0000
0001
1000
0100
1000
0010
0100
0001
2000
0000
0000
3000
,  // measure 36
0010
0100
0001
0000
1001
0000
1001
0100
0010
0000
0001
0010
0200
0000
0000
1300
,  // measure 37
0010
0100
0010
1000
0000
1000
0001
0100
0010
0000
0100
0010
2000
0000
0000
3001
,  // measure 38
0100
0010
0100
0000
1001
0000
1001
0010
0100
0000
1000
0100
0020
0000
0000
0030
,  // measure 39
1001
0000
0000
0000
0010
0000
0000
0000
0100
0000
0000
0000
1010
0000
0000
0000
0100
0000
0000
0000
0010
0000
0000
0000
1001
0000
0000
0000
0000
0000
0000
0000
0000
1001
0000
0000
0000
0000
0000
0000
0000
0000
0000
0000
0000
0000
0000
0000
,  // measure 40
1000
0000
0001
0100
0001
0000
1000
0010
1000
0000
0001
0100
0001
0000
1000
0000
,  // measure 41
1000
0100
0010
0001
1000
0100
0010
0001
,  // measure 42
1000
0000
0001
0010
0001
0000
1000
0100
1000
0000
0001
0010
0001
0000
1000
0000
,  // measure 43
1000
0010
0100
0001
1000
0010
0100
0001
,  // measure 44
2002
0000
3003
0220
0000
0330
0110
0000
2002
0000
0000
3003
1001
0000
0000
0000
,  // measure 45
0101
0000
1000
0100
1000
0001
1000
0100
0001
0100
1000
0100
0020
0000
0000
0000
,  // measure 46
0031
0100
1000
0100
0010
1000
0001
0010
0100
0000
1000
0010
0001
0010
1000
0000
,  // measure 47
0001
0000
1000
0100
0010
0000
0010
0000
0001
0100
1000
0100
0001
0010
0100
1000
,  // measure 48
2020
0000
3030
0202
0000
0303
1001
0000
1100
0000
0010
0000
1001
0000
0000
0000
,  // measure 49
1100
0000
0001
0100
0001
1000
0100
0001
0100
1000
0100
0010
0002
0000
0000
0000
,  // measure 50
1003
0010
0001
0010
0100
0001
1000
0100
0010
0000
0001
0100
1000
0100
0001
0000
,  // measure 51
1000
0000
0100
0010
0001
0000
0001
0000
0100
0010
1000
0100
0001
0100
1000
0100
,  // measure 52
0011
0000
0000
0000
0000
0000
0001
1000
0100
0000
1100
0000
1100
0000
0000
0000
,  // measure 53
1000
0000
0000
0010
0000
0000
0001
0000
0000
0010
0000
0000
1000
0000
0000
0000
0000
0000
1000
0000
0000
0100
0000
0000
0001
0000
0000
0100
0000
0000
1000
0000
0000
0100
0000
0000
0010
0000
0001
0000
0010
0000
0001
0000
0000
0000
0000
0000
,  // measure 54
0100
0000
0100
0000
0010
1000
0100
0010
0001
0000
0001
0000
0100
0001
0010
0100
,  // measure 55
1000
0010
0001
0010
1000
0000
1000
0000
0001
0100
1000
0100
0001
0000
0001
0010
,  // measure 56
2200
0000
3300
0022
0000
0033
1001
0000
1100
0000
0010
0000
0101
0000
0000
0000
,  // measure 57
0001
0000
0000
0100
0000
0000
1000
0000
0000
0100
0000
0000
0001
0000
0000
0000
0000
0000
0001
0000
0000
0010
0000
0000
1000
0000
0000
0010
0000
0000
0001
0000
0000
0100
0000
0000
0010
0000
1000
0000
0010
0000
1000
0000
0000
0000
0000
0000
,  // measure 58
0202
0000
0303
0000
0220
0000
0330
0000
2200
0000
3300
0022
0000
0033
0011
0000
,  // measure 59
1000
0010
0001
0010
1000
0000
1000
0100
0001
0100
1000
0001
0010
0100
0010
0001
,  // measure 60
1001
0000
0000
0000
0000
0000
0100
0010
1000
0000
1010
0000
1010
0000
0000
0000
,  // measure 61
2002
0000
3003
0220
0000
0330
0110
0000
2002
0000
0000
3003
1001
0000
0000
0000
,  // measure 62
1100
0000
0000
0110
0000
0000
0101
0000
0010
0100
0010
0100
0010
0100
0010
0100
,  // measure 63
0001
0000
0011
0000
0110
0000
1100
0000
0010
0100
0010
0100
0010
0000
0110
0000
,  // measure 64
0101
0000
0000
0110
0000
0000
1010
0000
0100
0010
0100
0010
0100
0010
0100
0010
,  // measure 65
1000
0000
0100
0010
0001
0000
0001
0100
0000
1000
0100
0000
2002
0000
0000
0000
,  // measure 66
3003
0000
0000
0000
;

//---------------dance-single - ----------------
#NOTES:
     dance-single:
     :
     Beginner:
     3:
     0.130688,0.173507,0.070371,0.000000,0.000000,104.000000,96.000000,8.000000,0.000000,0.000000,0.000000,0.130688,0.173507,0.070371,0.000000,0.000000,104.000000,96.000000,8.000000,0.000000,0.000000,0.000000:
0000
0000
0000
0000
,
0000
0000
0000
0000
,
0000
0000
0000
0000
,
0000
0000
0000
0000
,
0001
0000
0001
0000
,
0100
0000
0100
0000
,
0010
0000
0010
0000
,
0110
0000
0000
0000
,
0001
0000
0001
0000
,
0010
0000
0010
0000
,
0100
0000
0100
0000
,
0110
0000
0000
0000
,
1000
0000
0100
0000
,
1000
0000
0001
0000
,
1000
0000
0100
0000
,
1000
0000
1001
0000
,
0001
0000
0010
0000
,
0001
0000
1000
0000
,
0001
0000
0010
0000
,
0001
0000
1001
0000
,
1000
0000
0000
0000
,
1000
0000
0000
0000
,
0001
0000
0000
0000
,
0001
0000
0000
0000
,
0010
0000
0000
0000
,
0010
0000
0000
0000
,
0100
0000
0000
0000
,
0100
0000
0000
0000
,
1001
0000
0000
0000
,
1000
0000
0000
0000
,
0001
0000
0000
0000
,
0001
0000
0000
0000
,
0100
0000
0100
0000
,
0100
0000
0000
0000
,
0010
0000
0010
0000
,
0010
0000
0000
0000
,
1000
0000
1000
0000
,
1000
0000
0000
0000
,
0001
0000
0001
0000
,
0001
0000
1001
0000
,
1000
0000
0000
0000
,
0010
0000
0000
0000
,
1000
0000
0000
0000
,
0001
0000
0000
0000
,
1000
0000
0000
0000
,
0001
0000
0001
0000
,
0010
0000
0010
0000
,
0001
0000
0001
0000
,
0100
0000
0000
0000
,
0010
0000
0010
0000
,
1000
0000
1000
0000
,
0100
0000
0100
0000
,
0010
0000
0000
0000
,
0001
0000
0001
0000
,
0100
0000
0100
0000
,
0010
0000
0010
0000
,
0100
0000
0000
0000
,
0001
0000
0001
0000
,
1000
0000
0000
0000
,
1000
0000
0100
0000
,
0010
0000
0000
0000
,
0001
0000
0000
0000
,
1001
0000
1000
0000
,
0100
0000
1000
0000
,
0001
0000
0010
0000
,
0001
0000
0000
1001
;
