#VERSION:0.83;
#TITLE:22DUNK;
#SUBTITLE:(beatmania version);
#ARTIST:SLAKE;
#TITLETRANSLIT:;
#SUBTITLETRANSLIT:;
#ARTISTTRANSLIT:;
#GENRE:;
#ORIGIN:;
#CREDIT:DigiMindAxel;
#BANNER:22DUNK (beatmania version).png;
#BACKGROUND:22DUNK (beatmania version)-bg.png;
#PREVIEWVID:;
#JACKET:22DUNK (beatmania version)-jacket.png;
#CDIMAGE:;
#DISCIMAGE:;
#LYRICSPATH:;
#CDTITLE:beatmania.png;
#MUSIC:22DUNK (beatmania version).ogg;
#OFFSET:-0.426000;
#SAMPLESTART:3.924000;
#SAMPLELENGTH:12.000000;
#SELECTABLE:YES;
#BPMS:0.000=135.000;
#STOPS:;
#DELAYS:;
#WARPS:;
#TIMESIGNATURES:0.000=4=4;
#TICKCOUNTS:0.000=4;
#COMBOS:0.000=1;
#SPEEDS:0.000=1.000=0.000=0;
#SCROLLS:0.000=1.000;
#FAKES:;
#LABELS:0.000=Song Start;
#BGCHANGES:-2.000=22DUNK (beatmania version).avi=1.000=1=0=0=StretchNoLoop==CrossFade==,
99999=-nosongbg-=1.000=0=0=0 // don't automatically add -songbackground-
;
#KEYSOUNDS:;
#ATTACKS:
;

//---------------dance-single - ----------------
#NOTEDATA:;
#CHARTNAME:;
#STEPSTYPE:dance-single;
#DESCRIPTION:;
#CHARTSTYLE:;
#DIFFICULTY:Beginner;
#METER:3;
#RADARVALUES:0.141884,0.251439,0.138292,0.000000,0.000000,79.000000,68.000000,11.000000,0.000000,0.000000,0.000000,0.000000,0.000000,0.000000,0.141884,0.251439,0.138292,0.000000,0.000000,79.000000,68.000000,11.000000,0.000000,0.000000,0.000000,0.000000,0.000000,0.000000;
#CREDIT:;
#NOTES:
0000
0000
0000
0000
,
0000
0000
0000
0000
,
0000
0000
0000
0000
,
0000
0000
0000
0000
,
0000
0000
0000
0000
,
0000
0000
0000
0000
,
0110
0000
0100
0000
,
0010
0000
0100
0000
,
1001
0000
0010
0000
,
1001
0000
1001
0000
,
1000
0000
0000
0000
,
0010
0000
0000
0000
,
0001
0000
0000
0000
,
0100
0000
0000
0000
,
1000
0000
0000
0000
,
0100
0000
0000
0000
,
0001
0000
0000
0000
,
0010
0000
0000
0000
,
1001
0000
0010
0010
,
0110
0000
1000
1000
,
1001
0000
0100
0100
,
0110
0000
0001
0001
,
1001
0010
0100
1000
,
0001
0010
0100
1000
,
0001
0010
0100
1000
,
0001
0000
0000
0000
,
0001
0001
0000
0000
,
1000
1000
0000
0000
,
0001
0001
0000
0000
,
1000
1000
0000
0000
,
0010
0010
0000
0000
,
0100
0100
0000
0000
,
0010
0010
0000
0000
,
1000
0000
0000
0000
,
1001
1000
1000
1000
,
0001
0001
0001
0001
,
0100
0000
0000
0000
,
0100
0000
0000
0000
,
1001
0000
0000
0000
,
0000
0000
0000
0000
,
1000
0000
0000
0000
;

//---------------dance-single - ----------------
#NOTEDATA:;
#CHARTNAME:;
#STEPSTYPE:dance-single;
#DESCRIPTION:;
#CHARTSTYLE:;
#DIFFICULTY:Easy;
#METER:6;
#RADARVALUES:0.296339,0.393660,0.301727,0.025144,0.000000,165.000000,141.000000,24.000000,2.000000,0.000000,0.000000,0.000000,0.000000,0.000000,0.296339,0.393660,0.301727,0.025144,0.000000,165.000000,141.000000,24.000000,2.000000,0.000000,0.000000,0.000000,0.000000,0.000000;
#CREDIT:;
#NOTES:
0000
0000
0000
0000
,
0000
0000
0000
0000
,
0000
0000
0000
0000
,
0000
0000
0000
0000
,
0000
0000
0000
0000
,
0000
0000
0000
0000
,
1001
1000
1000
1000
,
0001
0001
0001
0001
,
0110
0100
0100
0100
,
0110
0110
1001
1001
,
0100
0001
0100
0000
0100
0001
0100
0000
,
0010
0000
0000
0110
0000
0000
0000
0000
,
0010
1000
0010
0000
0010
1000
0010
0000
,
0100
0000
0000
0110
0000
0000
0000
0000
,
0010
0001
0010
0000
0010
0001
0010
0000
,
0100
0000
0000
0110
0000
0000
0000
0000
,
0100
1000
0100
0000
0100
1000
0100
0000
,
0010
0000
0000
0110
0000
0000
0000
0000
,
0010
0001
0010
0000
0001
0000
0000
0000
,
0100
1000
0100
0000
1000
0000
0000
0000
,
0010
0001
0010
0000
0001
0000
0000
0000
,
0100
1000
0100
0000
1000
0000
0000
0000
,
1001
0000
0100
0000
0010
0000
0001
1000
,
0001
0000
0010
0000
0100
0000
1000
0001
,
1000
0000
0100
0000
0010
0000
0001
1000
,
0001
0000
0000
0000
,
0000
1000
0010
0000
0010
0000
0110
0000
,
0000
0001
0100
0000
0100
0000
0110
0000
,
0000
1000
0100
0000
0100
0000
0110
0000
,
0000
0001
0010
0000
0010
0000
0110
0000
,
0000
1000
0010
0000
0100
0000
0110
0000
,
0000
0001
0100
0000
0010
0000
0110
0000
,
0000
1000
0100
0000
1000
0000
1001
0000
,
0000
0001
0010
0000
0001
0000
1001
0000
,
0110
0100
0100
0100
,
1001
0001
0001
0001
,
0110
0100
0100
0100
,
0220
0000
0000
0330
,
1001
0001
0010
1000
,
0010
0001
0100
1000
,
0100
0001
0010
1000
,
0010
0001
0010
0100
;

//---------------dance-single - ----------------
#NOTEDATA:;
#CHARTNAME:;
#STEPSTYPE:dance-single;
#DESCRIPTION:;
#CHARTSTYLE:;
#DIFFICULTY:Medium;
#METER:9;
#RADARVALUES:0.369975,0.446148,0.176008,0.050288,0.213724,206.000000,192.000000,14.000000,4.000000,0.000000,0.000000,0.000000,0.000000,0.000000,0.369975,0.446148,0.176008,0.050288,0.213724,206.000000,192.000000,14.000000,4.000000,0.000000,0.000000,0.000000,0.000000,0.000000;
#CREDIT:;
#NOTES:
0000
0000
0000
0000
,
0000
0000
0000
0000
,
0000
0000
0000
0000
,
0000
0000
0000
0000
,
0000
0000
0000
0000
,
0000
0000
0000
0000
,
1001
0000
0100
0001
0010
0000
0010
0000
,
0001
1000
0100
0000
0100
0000
0100
0000
,
1001
0000
0010
0001
0100
0000
0100
0000
,
0110
0110
1001
1001
,
0000
0100
0000
0000
0001
0000
0000
0000
0020
0000
0000
0001
0000
0000
0000
0000
,
0031
0000
0000
1001
0000
0000
0000
0000
,
0000
0010
0000
0000
1000
0000
0000
0000
0200
0000
0000
1000
0000
0000
0000
0000
,
1300
0000
0000
1001
0000
0000
0000
0000
,
0000
0100
0000
0000
0100
0000
0000
0000
0001
0000
0000
1000
0000
0000
1000
0000
,
0010
0000
0000
0110
0000
0000
0000
0000
,
0000
0010
0000
0000
0010
0000
0000
0000
1000
0000
0000
0001
0000
0000
0001
0000
,
0100
0000
0000
0000
0000
0000
0110
0000
0000
0000
1000
0000
0000
1000
0000
0000
,
0010
0000
1000
0000
0010
0000
0000
0000
1000
0001
0000
0000
1000
0000
0001
0000
,
0100
0000
0001
0000
0100
0000
0000
0000
0001
1000
0000
0000
0001
0000
1000
0000
,
0010
0000
1000
0000
0010
0000
0000
0000
1000
0001
0000
0000
1000
0000
0001
0000
,
0010
0000
0001
0000
0010
0000
0000
0000
0001
1000
0000
0000
0100
0000
0010
0000
,
0001
1000
1000
1000
1000
0100
0010
0001
,
1000
0001
0001
0001
0001
0010
0100
1000
,
0001
1000
1000
1000
1000
0100
0010
0001
,
1000
1000
0000
0001
0002
0000
0000
0003
,
0000
0000
1000
0000
0010
0000
0000
0000
0100
0000
0000
0100
0000
0010
0000
0100
,
0000
0000
0001
0000
0100
0000
0000
0000
0010
0000
0000
0010
0000
0100
0000
0000
,
0000
0000
0001
0000
1000
0000
0000
0000
0100
0000
0000
0100
0000
0010
0000
0100
,
0000
0000
1000
0000
0001
0000
0000
0000
0010
0000
0000
0010
0000
0100
0000
0000
,
0000
0000
1000
0000
0001
0000
0000
0000
0010
0000
0000
0010
0000
0100
0000
0010
,
0000
0000
0001
0000
1000
0000
0000
0000
0100
0000
0000
0100
0000
0010
0000
0000
,
0000
0000
0001
0000
1000
0000
0000
0000
0100
0000
0000
0100
0000
0010
0000
0100
,
0000
0000
1000
0000
0001
0000
0000
0000
0010
0000
0000
0010
0000
0100
0000
1000
,
0010
0100
0010
0100
0010
0100
0001
0000
,
1000
0001
1000
0001
1000
0001
0100
0000
,
0010
0100
0010
0100
0010
0100
0001
0000
,
0000
1000
0000
0001
0002
0000
0000
0003
,
1001
0000
0001
0000
0001
0010
1000
0000
,
1000
0000
1001
0000
1000
0100
0001
0000
,
0001
0000
1001
0000
0001
0010
1000
0000
,
1000
0000
1001
0000
1000
0100
0001
0000
;

//---------------dance-single - ----------------
#NOTEDATA:;
#CHARTNAME:;
#STEPSTYPE:dance-single;
#DESCRIPTION:;
#CHARTSTYLE:;
#DIFFICULTY:Hard;
#METER:12;
#RADARVALUES:0.547779,0.604516,0.314299,0.000000,0.842322,305.000000,280.000000,25.000000,0.000000,0.000000,0.000000,0.000000,0.000000,0.000000,0.547779,0.604516,0.314299,0.000000,0.842322,305.000000,280.000000,25.000000,0.000000,0.000000,0.000000,0.000000,0.000000,0.000000;
#CREDIT:;
#NOTES:
// measure 0
0000
0000
0000
0000
,  // measure 1
0000
0000
0000
0000
,  // measure 2
0000
0000
0000
0000
,  // measure 3
0000
0000
0000
0000
,  // measure 4
0000
0000
0000
0000
,  // measure 5
0000
0000
0000
0000
,  // measure 6
1000
0001
0000
0010
0000
0001
1000
0000
0100
0000
0000
0100
0000
0000
0010
0000
,  // measure 7
0001
1000
0000
0100
0000
1000
0001
0000
0010
0000
0000
0010
0000
0000
0100
0000
,  // measure 8
1000
0001
0000
0100
0000
0001
1000
0000
0010
0000
0000
0010
0000
0000
0100
0000
,  // measure 9
0001
0001
0010
0010
0100
0100
1000
1000
,  // measure 10
0000
1010
0000
0000
1010
0000
0000
0000
0100
0000
0000
0101
0000
0000
0000
0000
,  // measure 11
1001
0000
0000
0000
1000
0000
0100
0000
0010
0000
0000
0000
0000
0000
0000
0001
,  // measure 12
0000
0011
0000
0000
0011
0000
0000
0000
0100
0000
0000
1100
0000
0000
0000
0000
,  // measure 13
1001
0000
0000
0000
0001
0000
0100
0000
0010
0000
0000
0000
0000
0000
0000
1000
,  // measure 14
0000
1010
0000
0000
1010
0000
0000
0000
0100
0000
0000
0101
0000
0000
0000
0000
,  // measure 15
1001
0000
0000
0000
0100
0000
0010
0000
1000
0000
0000
0000
0000
0000
0000
0001
,  // measure 16
0000
0011
0000
0000
0011
0000
0000
0000
0100
0000
0000
1100
0000
0000
0000
0000
,  // measure 17
1001
0000
0000
0000
0100
0000
0010
0000
0001
0000
1000
0000
0000
1000
0000
0000
,  // measure 18
1000
0001
0000
0001
0100
0000
0001
0000
1000
0010
0000
1000
0000
0100
0010
0000
,  // measure 19
0001
1000
0000
1000
0010
0000
1000
0000
0001
0100
0000
0001
0000
0010
0100
0000
,  // measure 20
1000
0001
0000
0001
0010
0000
0001
0000
1000
0010
0000
1000
0000
0010
0100
0000
,  // measure 21
0001
1000
0000
1000
0100
0000
1000
0000
0001
0100
0000
0001
0000
0100
0010
0000
,  // measure 22
1000
0000
0001
1000
0000
0100
0000
0001
0000
0100
0000
1000
0000
0110
0000
0000
,  // measure 23
0000
0000
0001
1000
0000
0010
0000
0001
0000
0010
0000
1000
0000
0110
0000
0000
,  // measure 24
0000
0000
0001
1000
0000
0100
0000
0001
0000
0100
0000
1000
0000
0110
0000
0000
,  // measure 25
0000
0000
1000
0000
0000
0000
1000
0000
0010
0000
0100
0001
0000
0001
0000
1000
,  // measure 26
0000
0000
0001
0000
0100
0001
0000
0001
0010
0000
0001
0010
0000
1000
0000
0010
,  // measure 27
0001
0000
1000
0000
0010
1000
0000
1000
0100
0000
1000
0100
0000
0001
0000
0100
,  // measure 28
1000
0000
0001
0000
0010
0001
0000
0001
0100
0000
0001
0100
0000
1000
0000
0100
,  // measure 29
0001
0000
1000
0000
0100
1000
0000
1000
0010
0000
1000
0010
0000
0001
0000
0010
,  // measure 30
1000
0000
0001
0000
0100
0001
0000
0001
0010
0000
0001
0100
0000
1000
0000
0100
,  // measure 31
0001
0000
1000
0000
0010
1000
0000
1000
0100
0000
1000
0010
0000
0001
0000
0010
,  // measure 32
1000
0000
0001
0000
0010
0001
0000
0100
0010
0000
1000
0100
0000
0001
0000
0100
,  // measure 33
1000
0000
0001
1000
0001
1000
0001
0000
1001
0000
1000
0001
0000
0100
0000
0001
,  // measure 34
1000
0000
0001
1000
0000
0010
0000
0001
0000
0010
0000
1000
0000
0110
0000
0000
,  // measure 35
0000
0000
0001
1000
0000
0100
0000
0001
0000
0100
0000
1000
0000
0110
0000
0000
,  // measure 36
1001
0000
0001
1000
0000
0010
0000
0001
0000
0010
0000
1000
0000
0110
0000
0000
,  // measure 37
0000
0000
1001
0000
0000
0000
0001
0000
0001
0000
0100
0010
0000
1000
0000
1000
,  // measure 38
0001
0000
0100
0000
0001
1000
0000
0000
1000
0000
0010
0000
1000
0001
0000
0000
,  // measure 39
0001
0000
0100
0000
0001
1000
0000
0000
1000
0000
0010
0000
1000
0001
0000
0000
,  // measure 40
0001
0000
0010
0000
0001
1000
0000
0000
1000
0000
0100
0000
1000
0001
0000
0000
,  // measure 41
0001
0000
0010
0000
0001
1000
0000
0000
1000
0000
0100
0000
1000
0001
0000
0000
;

//---------------dance-double - ----------------
#NOTEDATA:;
#CHARTNAME:;
#STEPSTYPE:dance-double;
#DESCRIPTION:;
#CHARTSTYLE:;
#DIFFICULTY:Easy;
#METER:6;
#RADARVALUES:0.294543,0.394053,0.125720,0.000000,0.000000,164.000000,154.000000,10.000000,0.000000,0.000000,0.000000,0.000000,0.000000,0.000000,0.294543,0.394053,0.125720,0.000000,0.000000,164.000000,154.000000,10.000000,0.000000,0.000000,0.000000,0.000000,0.000000,0.000000;
#CREDIT:;
#NOTES:
00000000
00000000
00000000
00000000
,
00000000
00000000
00000000
00000000
,
00000000
00000000
00000000
00000000
,
00000000
00000000
00000000
00000000
,
00100000
10000000
01000000
00010000
,
00001000
00000010
00000001
00000100
,
00001000
00010000
00100000
10000000
,
10000000
01100000
00010000
00001000
,
00000001
00000110
00001000
00010000
,
01000000
01000000
01000000
01000000
,
00100000
10000000
01000000
00010000
,
00001000
00000000
00000000
00000100
00000000
00000000
00000000
00000000
,
00000010
00000001
00000100
00001000
,
00010000
00000000
00000000
01000000
00000000
00000000
00000000
00000000
,
00100000
00000000
00010000
00000000
00100000
00010000
00001000
00000000
,
00000010
00000000
00000000
00000010
00000000
00000000
00000000
00000000
,
00000010
00000000
00001000
00000000
00000010
00001000
00010000
00000000
,
00100000
00000000
00000000
00100000
00000000
00000000
00000000
00000000
,
10000000
10000000
10000000
00000000
01000000
00010000
00001000
00000000
,
00000001
00000001
00000001
00000000
00000100
00001000
00010000
00000000
,
10000000
00010000
10000000
00000000
01000000
00010000
00001000
00000000
,
00000001
00001000
00000001
00000000
00000100
00001000
00010000
00000000
,
10000000
01000000
00010000
00000000
00001000
00000100
00000001
00000000
,
00000001
00000100
00001000
00000000
00010000
01000000
10000000
00000000
,
10000000
01000000
00010000
00000000
00001000
00000100
00000001
00000000
,
00000001
00000010
00000100
00001000
,
00000010
00001000
00010000
01000000
,
00100000
10000000
01010000
00011000
,
00000010
00000001
00001100
00011000
,
00100000
10000000
01010000
00011000
,
00000010
00000001
00001100
00011000
,
00100000
00000000
01000000
00000000
00100000
00010000
00001000
00000000
,
00000010
00000000
00000100
00000000
00000010
00001000
00010000
00000000
,
00100000
10000000
00100000
00010000
,
00100000
01000000
10000000
00010000
10000000
01000000
00010000
00001000
,
00000010
00000100
00000001
00001000
00000001
00000100
00001000
00010000
,
00100000
01000000
00010000
10000000
00010000
01000000
10000000
01000000
;

//---------------dance-double - ----------------
#NOTEDATA:;
#CHARTNAME:;
#STEPSTYPE:dance-double;
#DESCRIPTION:;
#CHARTSTYLE:;
#DIFFICULTY:Medium;
#METER:10;
#RADARVALUES:0.350219,0.400732,0.125720,0.000000,0.370873,195.000000,185.000000,10.000000,0.000000,0.000000,0.000000,0.000000,0.000000,0.000000,0.350219,0.400732,0.125720,0.000000,0.370873,195.000000,185.000000,10.000000,0.000000,0.000000,0.000000,0.000000,0.000000,0.000000;
#CREDIT:;
#NOTES:
00000000
00000000
00000000
00000000
,
00000000
00000000
00000000
00000000
,
00000000
00000000
00000000
00000000
,
00000000
00000000
00000000
00000000
,
00000010
00000001
00000101
00001010
,
00001000
00010000
10100000
01010000
,
00010000
00001000
00001010
00000101
,
00000010
00000001
00000011
00001100
,
00001000
00010000
00110000
11000000
,
01000000
01000000
01000000
01000000
,
00000000
00100000
00000000
00000000
10000000
00000000
00000000
00000000
01000000
00000000
00000000
00100000
00000000
00000000
00000000
00000000
,
00010000
00000000
00000000
00001000
00000000
00000000
00000000
00000000
,
00000000
00000010
00000000
00000000
00000001
00000000
00000000
00000000
00000100
00000000
00000000
00000010
00000000
00000000
00000000
00000000
,
00001000
00000000
00000000
00010000
00000000
00000000
00000000
00000000
,
00000000
00100000
00000000
00000000
00010000
00000000
00000000
00000000
00100000
00000000
00000000
00010000
00000000
00000000
00000000
00000000
,
00001000
00000000
00000000
00000001
00000000
00000000
00000000
00000000
,
00000000
00000010
00000000
00000000
00001000
00000000
00000000
00000000
00000010
00000000
00000000
00001000
00000000
00000000
00000000
00000000
,
00010000
00000000
00000000
10000000
00000000
00000000
00000000
00000000
,
10000000
00000000
01000000
00000000
00010000
00000000
00000000
00000000
00001000
00000000
00000010
00000000
00001000
00000010
00000000
00001000
,
00000001
00000000
00000100
00000000
00001000
00000000
00000000
00000000
00010000
00000000
00100000
00000000
00010000
00100000
00000000
00010000
,
10000000
00000000
01000000
00000000
00010000
00000000
00000000
00000000
00001000
00000000
00000010
00000000
00001000
00000010
00000000
00001000
,
00000001
00000000
00000100
00000000
00001000
00000000
00000000
00000000
00010000
00000000
00100000
00000000
00010000
00100000
00000000
00010000
,
10000000
00000000
01000000
00000000
00010000
00000000
00000000
00000000
00001000
00000000
00000010
00000000
00001000
00000010
00000000
00001000
,
00000001
00000000
00000100
00000000
00001000
00000000
00000000
00000000
00010000
00000000
00100000
00000000
00010000
00100000
00000000
00010000
,
10000000
00000000
01000000
00000000
00010000
00000000
00000000
00000000
00001000
00000000
00000010
00000000
00001000
00000010
00000000
00001000
,
00000000
00000000
00000000
00000000
,
00000000
00100000
00010000
00100000
00010000
00100000
00000000
00000000
00010000
00000000
00000000
00001000
00000000
00000000
00000000
00000000
,
00000000
00000010
00001000
00000010
00001000
00000010
00000000
00000000
00001000
00000000
00000000
00010000
00000000
00000000
00000000
00000000
,
00000000
01000000
00010000
01000000
00010000
01000000
00000000
00000000
00010000
00000000
00000000
00001000
00000000
00000000
00000000
00000000
,
00000000
00000100
00001000
00000100
00001000
00000100
00000000
00000000
00001000
00000000
00000000
00010000
00000000
00000000
00000000
00000000
,
00000000
00100000
00010000
00100000
00010000
00100000
00000000
00000000
00010000
00000000
00000000
00001000
00000000
00000000
00000000
00000000
,
00000000
00000010
00001000
00000010
00001000
00000010
00000000
00000000
00001000
00000000
00000000
00010000
00000000
00000000
00000000
00000000
,
00000000
01000000
00010000
01000000
00010000
01000000
00000000
00000000
00010000
00000000
00000000
00001000
00000000
00000000
00000000
00000000
,
00000000
00000100
00001000
00000100
00001000
00000100
00000000
00000000
00001000
00000000
00000000
00010000
00000000
00000000
00000000
00000000
,
00000000
00000000
01000000
00000000
10000000
00000000
01000000
00000000
10000000
00000000
01000000
00000000
00010000
00001000
00000000
00000000
,
00000000
00000000
00000100
00000000
00000001
00000000
00000100
00000000
00000001
00000000
00000100
00000000
00001000
00010000
00000000
00000000
,
00000000
00000000
01000000
00000000
10000000
00000000
01000000
00000000
10000000
00000000
01000000
00000000
00010000
00001000
00000000
00000000
,
00000000
00000000
00000100
00001000
00000000
00000010
00000000
00000000
00001000
00000000
00000000
00000000
00000000
00000000
00000000
00000000
;

//---------------dance-double - ----------------
#NOTEDATA:;
#CHARTNAME:;
#STEPSTYPE:dance-double;
#DESCRIPTION:;
#CHARTSTYLE:;
#DIFFICULTY:Hard;
#METER:11;
#RADARVALUES:0.504675,0.551124,0.540595,0.000000,0.238868,281.000000,238.000000,43.000000,0.000000,0.000000,0.000000,0.000000,0.000000,0.000000,0.504675,0.551124,0.540595,0.000000,0.238868,281.000000,238.000000,43.000000,0.000000,0.000000,0.000000,0.000000,0.000000,0.000000;
#CREDIT:;
#NOTES:
00000000
00000000
00000000
00000000
,
00000000
00000000
00000000
00000000
,
00000000
00000000
00000000
00000000
,
00000000
00000000
00000000
00000000
,
00000000
00000000
00000000
00000000
,
00000000
00000000
00000000
00000000
,
00010000
00100000
10000000
00100000
00010000
01000000
00001000
00010000
,
00000010
00001000
00000100
00000001
00000100
00010000
00001000
00100000
,
00010000
01000000
10000000
01000000
00001000
00010000
00000100
00001000
,
00000010
00000001
00000010
00000001
00000010
00000001
00000010
00000001
,
00000000
00001000
00000100
00000001
00000001
00000100
00001000
00000010
,
00000100
00000001
00000101
00000000
00010000
00001000
00011000
00000000
,
00000000
00010000
01000000
10000000
10000000
01000000
00010000
00100000
,
01000000
10000000
11000000
00000000
00100000
00010000
00110000
00000000
,
00000000
00001000
00100000
01000000
00010000
00001000
00000100
00000010
,
00001000
00000001
00001001
00000000
00000010
00000100
00000110
00000000
,
00000000
00010000
00000010
00000100
00001000
00010000
01000000
00100000
,
00010000
10000000
10010000
00000000
00100000
01000000
01100000
00000000
,
00010000
01000000
00001000
01000000
00010000
00000000
00100000
00000000
01000000
00000000
10000000
00000000
01000000
00000000
00010000
00000000
,
00001000
00100000
00001000
00010000
00001000
00000000
00000100
00000000
00000001
00000000
00000010
00000000
00001000
00000000
00000010
00000000
,
00000001
00000100
00000010
00000100
00000001
00000000
00000100
00000000
00001000
00000000
00010000
00000000
00001000
00000000
00100000
00000000
,
01000000
00010000
01000000
00100000
01000000
00000000
10000000
00000000
00010000
00000000
01000000
00000000
00100000
00000000
10000000
00000000
,
00010000
01000000
00010000
01000000
00000000
00100000
00000000
10000000
00000000
01000000
00000000
00010000
00000000
00001000
00000000
00010000
,
00000000
00100000
00000000
10000000
00000000
01000000
00000000
00010000
00000000
00001000
00000000
00000100
00000000
00000010
00000000
00000001
,
00000000
00001000
00000000
00000100
00000000
00000010
00000000
00010000
00000000
00001000
00000000
00000010
00000000
00000001
00000000
00001000
,
00000100
00000000
00000010
00000000
00000101
00000000
00000001
00000000
00000100
00000000
00001000
00010000
00000000
00100000
00000000
00000000
,
11000000
00110000
01010000
10100000
,
00011000
00001100
00000011
00000101
,
00001010
00011000
00001100
00000101
,
00010010
00011000
00110000
10100000
,
01001000
00011000
00001010
00000110
,
00010100
00011000
00110000
01100000
,
10100000
01001000
00110000
00001100
,
00011000
00000110
00001001
00000110
,
00000001
00000100
00001000
00010000
00000100
00000010
00000001
00001000
,
00000100
00010000
00100000
01000000
00010000
10000000
00100000
01000000
,
00010000
00100000
10000000
00100000
00010000
00001000
00000100
00000001
,
00000100
00000000
00001000
00000010
00000000
00000110
00000000
00000000
00010000
00000000
00001000
00010000
00000000
00011000
00000000
00000000
,
01000000
10000000
00100000
00010000
,
00000100
00000010
00001000
00000001
,
00000100
00000010
00010000
00001000
,
00100000
01000000
10000000
00100000
;

//---------------dance-single - ----------------
#NOTEDATA:;
#CHARTNAME:;
#STEPSTYPE:dance-single;
#DESCRIPTION:;
#CHARTSTYLE:;
#DIFFICULTY:Challenge;
#METER:14;
#RADARVALUES:0.711215,0.788499,0.590883,0.176008,1.093762,396.000000,349.000000,47.000000,14.000000,0.000000,0.000000,0.000000,0.000000,0.000000,0.711215,0.788499,0.590883,0.176008,1.093762,396.000000,349.000000,47.000000,14.000000,0.000000,0.000000,0.000000,0.000000,0.000000;
#CREDIT:;
#NOTES:
0000
0000
0000
0000
,
0000
0000
0000
0000
,
0000
0000
0000
0000
,
0000
0000
0000
0000
,
0000
0000
0000
0000
,
0000
0000
0000
0000
,
1000
0010
0000
0100
0000
0100
0001
0000
1000
0100
0000
0010
0000
0010
0001
0000
,
1000
0010
0000
0100
0000
0100
0001
0000
1000
0100
0000
0010
0000
0010
0001
0000
,
1000
0010
0000
0100
0000
0100
0001
0000
1000
0100
0000
0010
0000
0010
0001
0000
,
0100
0010
0100
0010
1000
0100
1000
0100
0001
0100
0001
0100
1000
0010
0100
0001
,
0000
1001
0000
0000
1001
0000
0000
0000
0101
0000
0000
2020
0000
0000
3030
0000
,
1001
0000
0000
0000
0010
0000
0022
0000
0000
0000
0000
0000
0033
0000
0000
0100
,
0000
1001
0000
0000
1001
0000
0000
0000
1100
0000
0000
0022
0000
0000
0033
0000
,
1001
0000
0000
0000
0010
0000
2020
0000
0000
0000
0000
0000
3030
0000
0000
0100
,
0000
1001
0000
0000
1001
0000
0000
0000
0011
0000
0000
2200
0000
0000
3300
0000
,
1001
0000
0000
0000
0100
0000
0202
0000
0000
0000
0000
0000
0303
0000
0000
0010
,
0000
1001
0000
0000
1001
0000
0000
0000
0101
0000
0000
2020
0000
0000
3030
0000
,
1001
0000
0000
0000
0100
0000
1100
0000
0000
0000
0010
0000
0000
0010
0000
0010
,
0001
1000
0100
1000
0100
1000
0001
1000
0001
0100
0000
0100
0000
0010
0000
0010
,
1000
0001
0010
0001
0010
0001
1000
0001
1000
0010
0000
0010
0000
0100
0000
0100
,
0001
1000
0010
1000
0010
1000
0010
1000
0001
0010
0000
0010
0000
0100
0000
0100
,
1000
0001
0100
0001
0100
0001
1000
0001
1000
0010
0000
0010
0000
0100
0000
0000
,
0000
0000
0001
0010
0100
0010
0001
0010
0100
0010
0001
0010
0100
1000
0000
0000
,
0000
0000
0010
1000
0100
1000
0010
1000
0100
1000
0010
1000
0100
0010
0000
0000
,
0000
0000
0001
0010
0100
0010
0001
0010
0100
0010
0001
0010
0100
1000
0000
0000
,
0000
0000
1001
0000
0000
0000
0001
0000
0001
0000
0001
0100
0000
0010
0000
0100
,
0000
0000
1001
0000
1100
0000
0000
0000
0011
0000
1000
0010
0000
1000
0100
0010
,
0000
0000
1001
0000
0011
0000
0000
0000
1100
0000
0001
0100
0000
0001
0010
0100
,
0000
0000
1001
0000
0101
0000
0000
0000
1010
0000
0001
0010
0000
0001
1000
0100
,
0000
0000
0101
0000
1001
0000
0000
0000
1010
0000
0001
0010
0000
0001
1000
0100
,
0000
0000
1001
0000
1100
0000
0000
0000
0011
0000
0100
1000
0001
0100
0001
1000
,
0000
0000
1001
0000
0011
0000
0000
0000
1100
0000
0010
0001
1000
0001
0010
0001
,
0000
0000
1010
0000
1001
0000
0000
0000
0101
0000
0010
1000
0100
0010
0100
1000
,
0000
0100
0010
0100
1000
0001
1000
0001
0010
0000
0100
1000
0000
1000
0000
0001
,
1000
0010
0100
0010
1000
0010
0100
0010
1000
0010
0100
0010
1000
0001
0000
0000
,
0010
0100
1000
0100
0010
0100
1000
0100
0010
0100
1000
0100
0010
0001
0000
0000
,
1000
0001
0100
0001
1000
0001
0100
0001
1000
0001
0100
0001
1000
0100
0000
0000
,
0000
0000
1001
0000
0000
0000
0001
0000
0001
0000
0001
0100
0000
0010
0000
0100
,
0001
1000
0100
1000
0001
0100
0000
0100
0001
0010
0100
0010
0001
0100
0000
0100
,
0010
1000
0100
1000
0010
0100
0000
0100
0001
1000
0010
1000
0001
0010
0000
0010
,
0100
0010
0001
0100
0010
0100
0000
0100
0001
1000
0010
0100
0010
1000
0000
1000
,
0001
1000
0100
0010
0100
1000
0000
1000
0010
0100
0001
0010
0001
0100
0000
0000
;

//---------------dance-double - ----------------
#NOTEDATA:;
#CHARTNAME:;
#STEPSTYPE:dance-double;
#DESCRIPTION:;
#CHARTSTYLE:;
#DIFFICULTY:Challenge;
#METER:14;
#RADARVALUES:0.743542,0.841065,0.779462,0.100576,1.093762,414.000000,352.000000,62.000000,8.000000,0.000000,0.000000,0.000000,0.000000,0.000000,0.743542,0.841065,0.779462,0.100576,1.093762,414.000000,352.000000,62.000000,8.000000,0.000000,0.000000,0.000000,0.000000,0.000000;
#CREDIT:;
#NOTES:
00000000
00000000
00000000
00000000
,
00000000
00000000
00000000
00000000
,
00000000
00000000
00000000
00000000
,
00000000
00000000
00000000
00000000
,
00000000
00000000
00000000
00000000
,
00000000
00000000
00000000
00000000
,
10000000
00100000
00000000
01000000
00000000
01000000
00001000
00000000
00010000
00000100
00000000
00000010
00000000
00000010
00000100
00000000
,
00001000
00000010
00000000
00000100
00000000
00000100
00000001
00000000
00000010
00000100
00000000
00010000
00000000
00010000
00001000
00000000
,
00100000
01000000
00000000
10000000
00000000
10000000
00100000
00000000
01000000
00001000
00000000
00010000
00000000
00010000
00000100
00000000
,
00001000
00000010
00001000
00000010
00010000
00000100
00010000
00000100
00001000
00010000
00001000
00010000
00100000
01000000
00100000
01000000
,
00000000
10100000
00000000
00000000
01001000
00000000
00000000
00000000
00011000
00000000
00000000
00000220
00000000
00000000
00000330
00000000
,
00000011
00000000
00000001
00000000
00000000
00000000
00010010
00000000
00010000
00000000
00000000
00000000
00000000
00000000
00000000
00000110
,
00000000
00000011
00000000
00000000
00010100
00000000
00000000
00000000
00011000
00000000
00000000
02200000
00000000
00000000
03300000
00000000
,
11000000
00000000
10000000
00000000
00000000
00000000
01001000
00000000
00001000
00000000
00000000
00000000
00000000
00000000
00000000
01100000
,
00000000
11000000
00000000
00000000
00101000
00000000
00000000
00000000
00011000
00000000
00000000
00000220
00000000
00000000
00000330
00000000
,
00000011
00000000
00000001
00000000
00000000
00000000
00011000
00000000
00010000
00000000
00000000
00000000
00000000
00000000
00000000
00000110
,
00000000
00000101
00000000
00000000
00010010
00000000
00000000
00000000
00011000
00000000
00000000
02200000
00000000
00000000
03300000
00000000
,
11000000
00000000
10000000
00000000
00101000
00000000
00001000
00000000
00000000
00000000
00010000
00000000
00000000
00010000
00000000
00010000
,
00000100
00000010
00000100
00000010
00000001
00000100
00000001
00010000
00000100
00010000
00000000
00011000
00000000
01001000
00000000
01000000
,
00100000
10000000
00100000
10000000
01000000
00100000
01000000
00100000
00001000
00100000
00000000
00101000
00000000
00011000
00000000
00010000
,
00000010
00010000
00000010
00000100
00000001
00000100
00000001
00000010
00000100
00010000
00000000
00010100
00000000
00011000
00000000
00001000
,
00100000
00001000
00100000
01000000
00100000
01000000
10000000
00100000
01000000
00001000
00000000
01001000
00000000
00011000
00000000
00000000
,
00000000
00000000
00000010
00000001
00000100
00000010
00001000
00000100
00010000
00001000
00100000
00010000
01000000
01100000
00000000
00000000
,
00000000
00000000
01000000
10000000
00100000
01000000
00010000
00100000
00001000
00010000
00000100
00001000
00000010
00000110
00000000
00000000
,
00000000
00000000
00000010
00000001
00000100
00000010
00001000
00000100
00010000
00001000
00100000
00010000
01000000
01100000
00000000
00000000
,
00000000
00000000
10010000
00000000
00000000
00000000
01000000
00000000
01000000
00000000
01000000
00010000
00000000
00100000
00000000
00001000
,
00000000
00000000
00011000
00000000
00010010
00000000
00000000
00000000
00000110
00000000
00000001
00000010
00000000
00000001
00000010
00000100
,
00000000
00000000
00011000
00000000
01001000
00000000
00000000
00000000
01100000
00000000
10000000
01000000
00000000
10000000
01000000
00100000
,
00000000
00000000
00011000
00000000
00010100
00000000
00000000
00000000
00000110
00000000
00000001
00000010
00000000
00000001
00000010
00000100
,
00000000
00000000
00011000
00000000
00101000
00000000
00000000
00000000
01100000
00000000
10000000
01000000
00000000
10000000
01000000
00100000
,
00000000
00000000
00011000
00000000
00010010
00000000
00000000
00000000
00000100
00000001
00000010
00000001
00000100
00000010
00001000
00000100
,
00000000
00000000
00011000
00000000
01001000
00000000
00000000
00000000
00100000
10000000
01000000
10000000
00100000
01000000
00010000
00100000
,
00000000
00000000
00011000
00000000
00010100
00000000
00000000
00000000
00000010
00000001
00000100
00000001
00000010
00000100
00001000
00010000
,
00000000
01000000
00001000
01000000
00001000
10000000
00100000
10000000
00010000
00000000
01000000
00001000
00000000
00001000
00000000
00010000
,
00000100
00000000
00000010
00000001
00000100
00000010
00001000
00000100
00010000
00001000
00100000
00010000
01000000
01100000
00000000
00000000
,
00000000
00000000
01000000
10000000
00100000
01000000
00010000
00100000
00001000
00010000
00000100
00001000
00000010
00000110
00000000
00000000
,
00001001
00000000
00000010
00000001
00000100
00000010
00001000
00000100
00010000
00001000
00100000
00010000
01000000
01100000
00000000
00000000
,
00000000
00000000
10010000
00000000
00000000
00000000
01000000
00000000
01000000
00000000
01000000
00010000
00000000
00100000
00000000
00001000
,
00010000
00000100
00010000
00000100
00010000
00000100
00000000
00001000
00000010
00000100
00000010
00000100
00000010
00000100
00000000
00000001
,
00010000
00000100
00010000
00000100
00010000
00000100
00000000
00010000
00001000
01000000
00001000
01000000
00001000
01000000
00000000
00100000
,
10000000
01000000
10000000
01000000
10000000
01000000
00000000
00100000
00001000
00010000
00001000
00010000
00001000
00010000
00000000
00000010
,
00010000
00000100
00010000
00000100
00010000
00000100
00000000
00001000
00000001
00000010
00000001
00000010
00000001
00000010
00000000
00000000
;
