#VERSION:0.83;
#TITLE:100sec. Kitchen Battle!!(tometaro.Kitchen Battle);
#SUBTITLE:;
#ARTIST:とどのすけ とめたろう;
#TITLETRANSLIT:;
#SUBTITLETRANSLIT:;
#ARTISTTRANSLIT:TODONOSUKE TOMETAROU;
#GENRE:;
#ORIGIN:;
#CREDIT:DigiMindAxel;
#BANNER:100sec. Kitchen Battle!!(tometaro.Kitchen Battle).png;
#BACKGROUND:100sec. Kitchen Battle!!(tometaro.Kitchen Battle)-bg.png;
#PREVIEWVID:;
#JACKET:100sec. Kitchen Battle!!(tometaro.Kitchen Battle)-jacket.png;
#CDIMAGE:;
#DISCIMAGE:;
#LYRICSPATH:;
#CDTITLE:Konami original REMIX.png;
#MUSIC:100sec. Kitchen Battle!!(tometaro.Kitchen Battle).ogg;
#OFFSET:-0.213000;
#SAMPLESTART:5.534979;
#SAMPLELENGTH:12.000000;
#SELECTABLE:YES;
#BPMS:0.000=178.000,
144.000=89.000,
176.000=178.000,
244.000=89.000;
#STOPS:;
#DELAYS:;
#WARPS:;
#TIMESIGNATURES:0.000=4=4;
#TICKCOUNTS:0.000=4;
#COMBOS:0.000=1;
#SPEEDS:0.000=1.000=0.000=0;
#SCROLLS:0.000=1.000;
#FAKES:;
#LABELS:0.000=Song Start;
#BGCHANGES:;
#KEYSOUNDS:;
#ATTACKS:
;

//---------------dance-single - ----------------
#NOTEDATA:;
#CHARTNAME:;
#STEPSTYPE:dance-single;
#DESCRIPTION:;
#CHARTSTYLE:;
#DIFFICULTY:Easy;
#METER:6;
#RADARVALUES:0.278174,0.314550,0.229672,0.069900,0.000000,195.000000,172.000000,23.000000,7.000000,0.000000,0.000000,0.000000,0.000000,0.000000,0.278174,0.314550,0.229672,0.069900,0.000000,195.000000,172.000000,23.000000,7.000000,0.000000,0.000000,0.000000,0.000000,0.000000;
#CREDIT:;
#NOTES:
// measure 0
0000
0000
0000
0000
,  // measure 1
0000
0000
0000
0000
,  // measure 2
0000
0000
0000
0000
,  // measure 3
0000
0000
0000
0000
,  // measure 4
1001
0001
1000
0001
,  // measure 5
1001
0000
1001
0000
,  // measure 6
0010
0100
0010
0100
,  // measure 7
0110
0000
0110
0000
,  // measure 8
1000
0001
1000
0001
,  // measure 9
1001
0000
1001
0000
,  // measure 10
0100
0010
0100
0010
,  // measure 11
0110
0000
0110
0000
,  // measure 12
1001
1000
0001
1000
,  // measure 13
0000
1001
0000
0000
,  // measure 14
0010
0100
0010
0100
,  // measure 15
0000
0110
0000
0000
,  // measure 16
1000
0001
1000
0001
,  // measure 17
0000
1001
0000
0000
,  // measure 18
0100
0010
0100
0010
,  // measure 19
0100
0000
0000
0000
,  // measure 20
1001
0000
0001
0010
,  // measure 21
0001
1000
0100
0000
,  // measure 22
1001
0000
1000
0010
,  // measure 23
1000
0001
0100
0000
,  // measure 24
1001
0000
0001
0010
,  // measure 25
0001
1000
0100
0000
,  // measure 26
1001
1001
0000
0000
,  // measure 27
0220
0000
0000
0330
,  // measure 28
1001
0100
0010
0001
,  // measure 29
1000
0100
0010
0001
,  // measure 30
1000
0100
0010
0001
,  // measure 31
1000
0100
0010
0001
,  // measure 32
1000
1000
1000
1000
,  // measure 33
0001
0001
0001
0001
,  // measure 34
0100
0100
0010
0010
,  // measure 35
2002
0000
0000
3003
,  // measure 36
1000
0100
0010
0000
,  // measure 37
0001
0010
0100
0000
,  // measure 38
1000
0010
0100
0000
,  // measure 39
0001
0100
0010
0000
,  // measure 40
1000
1000
0001
0001
,  // measure 41
0100
0100
0010
0010
,  // measure 42
1000
1000
0001
0001
,  // measure 43
0100
0100
0010
0000
,  // measure 44
1000
0001
1000
0000
,  // measure 45
0010
0100
0001
0000
,  // measure 46
1000
0001
1000
0000
,  // measure 47
0100
0010
0001
1000
,  // measure 48
0001
0100
0001
0000
,  // measure 49
0010
0100
1000
0000
,  // measure 50
0010
0100
0010
1000
,  // measure 51
0001
0000
0000
0000
,  // measure 52
1001
0000
0100
0000
,  // measure 53
0010
0000
0001
1000
,  // measure 54
0010
0000
0100
0000
,  // measure 55
0001
0010
0100
1000
,  // measure 56
0001
0000
0100
0000
,  // measure 57
0010
0000
1000
0001
,  // measure 58
1000
0000
0100
0000
,  // measure 59
1000
0000
0001
0000
,  // measure 60
1000
0000
0100
0000
,  // measure 61
1001
0000
0020
0000
,  // measure 62
0230
0000
0320
0000
,  // measure 63
1030
0000
0000
0000
;

//---------------dance-single - ----------------
#NOTEDATA:;
#CHARTNAME:;
#STEPSTYPE:dance-single;
#DESCRIPTION:;
#CHARTSTYLE:;
#DIFFICULTY:Medium;
#METER:11;
#RADARVALUES:0.486447,0.786375,0.689015,0.279600,0.039943,341.000000,272.000000,69.000000,28.000000,0.000000,0.000000,0.000000,0.000000,0.000000,0.486447,0.786375,0.689015,0.279600,0.039943,341.000000,272.000000,69.000000,28.000000,0.000000,0.000000,0.000000,0.000000,0.000000;
#CREDIT:;
#NOTES:
// measure 0
0000
0000
0000
0000
,  // measure 1
0000
0000
0000
0000
,  // measure 2
0000
0000
0000
0000
,  // measure 3
0000
0000
0000
0000
,  // measure 4
1001
0000
0000
1000
0100
0010
0000
0001
,  // measure 5
0100
0010
0100
0000
0100
0010
0100
0000
,  // measure 6
0001
0000
0000
0001
0010
0100
0000
1000
,  // measure 7
0100
0010
0100
0000
0100
0010
0100
0000
,  // measure 8
1001
0000
0000
1000
0010
0100
0000
0001
,  // measure 9
0010
0100
0010
0000
0010
0100
0010
0000
,  // measure 10
0001
0000
0000
0001
0010
0100
0000
1000
,  // measure 11
0000
0100
0000
0010
0000
0001
1000
0000
,  // measure 12
1001
0001
0011
1100
,  // measure 13
0010
0000
1002
0000
0000
1003
0010
0100
,  // measure 14
0001
0101
0100
0110
,  // measure 15
1000
0000
2001
0000
0000
3001
0010
0100
,  // measure 16
1000
1010
0010
0110
,  // measure 17
0001
0000
1002
0000
0000
1003
0100
0010
,  // measure 18
0001
1001
1000
1100
,  // measure 19
0010
0000
0000
0000
,  // measure 20
1001
1001
1100
1100
,  // measure 21
0011
0011
0110
0110
,  // measure 22
1001
1001
0101
0101
,  // measure 23
0110
0000
0110
0000
1000
0100
0010
0000
,  // measure 24
0101
0101
1001
1001
,  // measure 25
1010
0000
1010
0000
0100
0001
0010
0000
,  // measure 26
1001
0000
1001
0000
0010
0100
1000
0000
,  // measure 27
2002
0000
0000
3003
0220
0000
0000
0330
,  // measure 28
1001
0010
0100
0010
,  // measure 29
0001
0010
0100
0010
,  // measure 30
0001
1000
0010
1000
,  // measure 31
0001
1000
0010
1000
,  // measure 32
1001
1001
0110
0110
,  // measure 33
1001
1001
0110
0110
,  // measure 34
1001
1001
0110
0110
,  // measure 35
2002
0000
0000
3003
0220
0000
0000
0330
,  // measure 36
0001
0010
0100
0000
1000
0000
1000
0000
0100
0010
0001
0010
0001
0000
0000
0000
,  // measure 37
0100
0010
1000
0000
0001
0000
0001
0000
1001
0000
1001
0000
0110
0000
0110
0000
,  // measure 38
1000
0100
0010
0000
0001
0000
0001
0000
0010
0100
1000
0100
1000
0000
0000
0000
,  // measure 39
0010
0100
0001
0000
0010
0000
0100
0000
1100
0000
0000
0000
0101
0000
0000
0000
,  // measure 40
0001
0001
1000
1000
0010
0010
1000
1000
,  // measure 41
0001
0001
0010
0010
0001
0010
0100
1000
,  // measure 42
0001
0001
0100
0100
0001
0001
1000
1000
,  // measure 43
0100
0100
1000
1000
0010
0000
0000
0000
,  // measure 44
1000
0100
0010
0001
0100
0000
0100
0000
,  // measure 45
0001
0010
0100
1000
0010
0000
0000
0000
,  // measure 46
1000
0010
0100
0000
0010
0100
0001
0000
,  // measure 47
0101
0101
1010
1010
,  // measure 48
1000
0100
0010
0001
0100
0000
0100
0000
,  // measure 49
0001
0010
0100
1000
0010
0100
0010
0000
,  // measure 50
1000
0010
0100
0000
0010
0100
0001
0000
,  // measure 51
1001
0000
0000
0000
,  // measure 52
1002
0000
0203
0000
,  // measure 53
0301
2000
0000
0200
0000
0000
3300
0000
,  // measure 54
2001
0000
3020
0000
,  // measure 55
1030
0100
0010
0001
,  // measure 56
1002
0000
0203
0000
,  // measure 57
0301
2000
0000
0200
0000
0000
3300
0000
,  // measure 58
2001
0000
3020
0000
,  // measure 59
1030
0100
0010
0001
,  // measure 60
1002
0000
0203
0000
,  // measure 61
0301
0000
2000
0000
,  // measure 62
3200
0000
2300
0000
,  // measure 63
3001
0000
0000
0000
;

//---------------dance-single - ----------------
#NOTEDATA:;
#CHARTNAME:;
#STEPSTYPE:dance-single;
#DESCRIPTION:;
#CHARTSTYLE:;
#DIFFICULTY:Beginner;
#METER:2;
#RADARVALUES:0.109843,0.213195,0.059914,0.000000,0.000000,77.000000,71.000000,6.000000,0.000000,0.000000,0.000000,0.000000,0.000000,0.000000,0.109843,0.213195,0.059914,0.000000,0.000000,77.000000,71.000000,6.000000,0.000000,0.000000,0.000000,0.000000,0.000000,0.000000;
#CREDIT:;
#NOTES:
0000
0000
0000
0000
,
0000
0000
0000
0000
,
0000
0000
0000
0000
,
0000
0000
0000
0000
,
1001
0000
0000
0000
,
1000
0000
1000
0000
,
1001
0000
0000
0000
,
0001
0000
0001
0000
,
1001
0000
0000
0000
,
1000
0000
1000
0000
,
1001
0000
0000
0000
,
0001
0000
0001
0000
,
0100
0000
0000
0000
,
0010
0000
0000
0000
,
0100
0000
0000
0000
,
0010
0000
0000
0000
,
1000
0000
0000
0000
,
0001
0000
0000
0000
,
1000
0000
0000
0000
,
0100
0000
0000
0000
,
1000
0000
0000
0000
,
1000
0000
0000
0000
,
0100
0000
0000
0000
,
0100
0000
0000
0000
,
0010
0000
0000
0000
,
0010
0000
0000
0000
,
0001
0000
0000
0000
,
0001
0000
0000
0000
,
1001
0000
0000
0000
,
0000
0000
0000
0000
,
0000
0000
0000
0000
,
0000
0000
0000
0000
,
0100
0000
0100
0000
,
0100
0000
0000
0000
,
0010
0000
0010
0000
,
0010
0000
0000
0000
,
1001
0000
0000
0000
,
0001
0000
0000
0000
,
0100
0000
0000
0000
,
0010
0000
0000
0000
,
1000
1000
1000
0000
,
0001
0001
0001
0000
,
1000
1000
1000
0000
,
0001
0001
0001
0000
,
0010
0000
0000
0000
,
0001
0000
0000
0000
,
0100
0000
0000
0000
,
0010
0000
0010
0000
,
1000
0000
0000
0000
,
0100
0000
0000
0000
,
0010
0000
0000
0000
,
0001
0000
0000
0000
,
0100
0000
0000
0000
,
0010
0000
0000
0000
,
0100
0000
0000
0000
,
0001
0000
0001
0000
,
0001
0000
0000
0000
,
1000
0000
0000
0000
,
0100
0000
0000
0000
,
1000
0000
0000
0000
,
0010
0000
0000
0000
,
0100
0000
0000
0000
;

//---------------dance-single - ----------------
#NOTEDATA:;
#CHARTNAME:;
#STEPSTYPE:dance-single;
#DESCRIPTION:;
#CHARTSTYLE:;
#DIFFICULTY:Hard;
#METER:13;
#RADARVALUES:0.657631,1.038016,0.459343,0.399429,0.309557,461.000000,415.000000,46.000000,40.000000,0.000000,0.000000,0.000000,0.000000,0.000000,0.657631,1.038016,0.459343,0.399429,0.309557,461.000000,415.000000,46.000000,40.000000,0.000000,0.000000,0.000000,0.000000,0.000000;
#CREDIT:;
#NOTES:
0000
0000
0000
0000
,
0000
0000
0000
0000
,
0000
0000
0000
0000
,
0000
0000
0000
0000
0000
0000
0000
0001
,
0100
0000
1000
0000
0100
0000
0001
1000
0001
0000
0010
0000
0100
0000
0000
0000
,
0010
0010
1001
0000
0010
0010
1001
0000
,
1000
0000
0010
0000
1000
0000
0001
1000
0001
0000
0010
0000
0100
0000
1000
0000
,
0100
0100
1001
0000
0100
0100
1002
0000
,
1003
0000
0100
0000
1000
0000
0001
1000
0001
0000
1000
0000
0010
0000
0100
0000
,
0010
0010
1001
0000
0010
0010
1001
0000
,
1000
0000
0100
0000
1000
0000
0001
1000
0001
0000
0100
0000
1000
0000
0100
0000
,
0001
0001
1000
1000
0001
0010
0100
1000
,
1001
0000
0000
0000
0001
0000
0100
0001
1000
0000
0100
0000
0010
0000
0000
0000
,
0100
0100
1001
1000
0001
0001
0010
1000
,
0010
0000
0001
0000
1000
0000
0010
1000
0001
0000
0010
0000
0100
0000
0000
0000
,
0010
0000
1001
0000
1000
0100
0010
0001
,
1000
0000
0000
0000
0100
0000
0010
0001
1000
0000
0010
0000
0100
0000
0000
0000
,
0110
0000
1001
0000
0001
0100
1000
0100
,
0001
0000
0000
0000
1000
0000
0010
1000
0001
0000
0010
0000
0100
0000
0000
0000
,
0100
0000
0000
0000
,
1001
0010
0100
0000
1000
0100
0001
0100
,
0000
1000
0010
0001
0010
1000
0100
0010
,
1001
0000
0010
0100
0001
0100
1000
0100
,
0101
0000
1001
0000
0010
1000
0001
0000
,
1001
0000
0100
0010
0001
0100
1000
0100
,
0001
0010
1000
0010
0001
1000
1100
0000
,
1001
0000
1001
0000
0001
0010
1000
0010
,
0001
0000
0001
0000
0001
0000
0100
0000
0010
1000
0010
1000
0010
0000
0000
0000
,
1002
0203
2300
3020
,
0032
0203
2300
3020
,
0032
0203
2300
3020
,
0032
0203
2300
3020
,
0031
0001
0100
0100
1000
1000
0010
0010
,
0001
0001
0100
0100
1000
1000
0010
0010
,
0001
0000
0001
0000
0100
0000
0100
0000
0010
0000
0010
0000
1000
0001
1000
0001
,
1000
0000
1010
0000
0110
0000
0101
0000
0110
0000
1100
0000
,
1000
0010
0001
0010
0200
0000
0301
0000
0100
0010
1000
0100
0010
0000
0000
0000
,
0001
0100
1000
0100
0010
1000
0001
0100
0010
1000
0100
0010
0100
0000
0000
0000
,
1000
0100
0001
1000
0200
0000
0310
0000
1000
0001
0010
0100
0010
0000
0000
0001
,
1000
0010
0001
0010
0100
0001
1000
0100
1100
0000
0000
0100
0101
0000
0000
0000
,
0001
1000
0100
1000
0001
1000
0100
1000
0001
1000
0010
1000
0001
1000
0010
1000
,
0001
0010
0100
0010
0001
0010
0100
0010
1001
0000
1010
0000
1001
0000
0101
0000
,
1000
0001
0010
0001
1000
0001
0010
0001
1000
0001
0100
0001
1000
0001
0100
0001
,
1000
0100
0010
0100
1000
0100
0010
0100
1000
0000
0010
0000
0000
0000
0000
0000
,
0100
0001
1000
0100
0002
0000
0103
0000
,
1000
0010
1001
2002
0000
0000
3003
0000
,
0010
0100
0001
0100
1000
0010
0001
1000
,
1100
0110
0011
1001
,
0100
0010
1000
0100
0002
0000
0103
0000
,
1000
0010
1001
1001
0000
0110
0110
0000
,
0100
0010
0001
0100
1000
0100
0001
0010
,
0100
0000
0000
0000
0000
0001
0010
0100
,
2000
0000
0000
0010
3020
0000
0000
0030
,
0100
0002
0000
2003
0000
3001
0010
0100
,
2000
0000
0000
0001
3002
0000
0000
0003
,
1000
0001
0010
1000
0001
0010
0100
0001
,
2000
0000
0000
3010
0020
0000
0000
0030
,
1000
0002
0000
0023
0000
0031
1000
0010
,
0200
0000
0000
0001
0301
0000
1100
0000
,
0101
0000
0010
1000
0001
0010
0001
1000
,
0020
0000
0000
0100
0130
0000
0011
0000
,
1010
0000
2000
3200
,
0301
0100
0000
2001
0000
0000
0000
0000
3002
0000
0000
0000
0023
0000
0000
0000
,
0130
0000
0000
0000
;
