#TITLE:Cinema;
#SUBTITLE:(Skrillex Remix);
#ARTIST:Benny Benassi;
#TITLETRANSLIT:;
#SUBTITLETRANSLIT:;
#ARTISTTRANSLIT:;
#GENRE:;
#CREDIT:;
#MUSIC:Cinema.ogg;
#BANNER:Cinema.png;
#BACKGROUND:Cinema-bg.png;
#CDTITLE:;
#SAMPLESTART:40.588;
#SAMPLELENGTH:12.020;
#SELECTABLE:YES;
#OFFSET:-0.057;
#BPMS:0.000=145.000;
#STOPS:156.000=1.655
,186.000=0.828
,246.000=1.655
,434.000=1.655
,464.000=0.828
,524.000=1.655
;
#BGCHANGES:;
#FGCHANGES:;

//--------------- dance-single - ----------------
#NOTES:
     dance-single:
     :
     Challenge:
     14:
     0.487122,0.610364,0.240314,0.402688,0.107167,852,74,124,0,0,0,0.487122,0.610364,0.240314,0.402688,0.107167,852,74,124,0,0,0:
0000
0000
0000
0000
,
0000
0000
0000
0000
,
0000
0000
0000
0000
,
0000
0000
0000
0000
,
0000
0000
0000
0000
,
0000
0000
0000
0000
,
0000
0000
0000
0000
,
0000
0000
0000
0000
,
0000
0000
0000
0000
0000
1000
0010
0001
,
0000
0001
0100
0010
1000
0000
1200
0000
,
0300
0000
0000
0000
0000
0010
0100
0001
,
0000
0001
1000
0000
1100
0000
0020
0000
,
0000
0000
0000
0000
0030
0000
0100
0100
,
0000
0001
0000
0010
0000
2002
0000
0000
,
0000
0000
3003
0000
0000
0100
0001
0010
,
0000
0010
0100
0000
1000
0000
2020
0000
,
3030
0000
0000
0000
0100
0010
0100
0001
,
0000
1000
0000
0001
0000
0102
0000
0000
,
0000
0000
0000
0000
0003
0000
1000
1000
,
0000
1000
0001
0100
0002
0000
0023
0000
,
0000
0000
0030
0000
0010
0001
0000
0100
,
0000
0001
0000
1000
0000
0010
0000
0000
,
0000
0000
0000
0010
0100
0001
0000
1000
,
0000
0000
1000
0001
0010
0000
0100
0000
,
0110
0000
1000
0002
,
0000
0000
0003
1000
0100
0010
0002
0000
,
0000
0003
0100
0010
1000
0100
1000
0200
,
0000
0310
0001
0000
0100
0000
1000
0000
,
0202
0303
0100
2000
,
0000
0000
0000
3000
0010
0000
0200
0000
,
0000
0000
0301
0100
0001
0100
0010
1000
,
1000
1000
0100
1000
0010
1000
0100
0010
,
0011
0000
1100
0020
,
0000
0000
0030
0100
0001
0100
0020
0000
,
0000
0030
0000
0100
1000
0010
0100
0200
,
0000
0301
0001
0000
1000
0000
1001
0000
,
0110
0000
0020
0200
,
0330
0000
0100
0100
1000
0010
0200
0000
,
0000
0000
0300
1000
0010
1000
0010
0000
,
0002
0003
0000
0000
0000
0000
0000
0000
0000
0000
0000
0000
0000
0000
0000
0000
0000
0000
0000
0000
0000
0000
0000
0000
0000
0000
0000
0000
0000
0000
0000
0000
0000
0000
0000
0000
0100
0000
0000
0000
0000
0000
0000
0000
0000
0000
0000
0000
1000
0000
0000
0000
0000
0000
0000
0000
0000
0000
0000
0000
0000
0000
0000
0000
0000
0000
0000
0000
0000
0000
0000
0000
0000
0000
0000
0000
0000
0000
0000
0000
0000
0000
0000
0000
0000
0000
0000
0000
0000
0000
0000
0000
0000
0000
0000
0000
0010
0000
0000
0000
0000
0000
0000
0000
0000
0000
0000
0000
0000
0000
0000
0000
0000
0000
0000
0000
0000
0000
0000
0000
0100
0000
0000
0000
0000
0000
0000
0000
0000
0000
0000
0000
0000
0000
0000
0000
0000
0000
0000
0000
0000
0000
0000
0000
0101
0000
0000
0000
0000
0000
0000
0000
0000
0000
0000
0000
0000
0000
0000
0000
0000
0000
0000
0000
0000
0000
0000
0000
0000
0000
0000
0000
0000
0000
0000
0000
0000
0000
0000
0000
0000
0000
0000
0000
0000
0000
0000
0000
0000
0000
0000
0000
,
0001
0000
0100
0000
0010
0000
1000
0100
1000
0000
0010
0000
0100
0000
0000
0000
,
0100
0010
0000
0010
1000
0000
0000
0000
1000
0000
0100
0000
0010
0000
0000
0000
,
0010
0000
0100
0000
1000
0000
0010
0100
0001
0000
0001
0000
0010
0000
0000
0000
,
0100
0001
0000
0001
0100
0000
0000
0000
0010
0000
0001
0000
0011
0000
0000
0000
,
0001
0000
0100
0000
0001
0000
1000
0100
0010
0000
0100
0000
1000
0000
0000
0000
,
1000
0010
0000
0010
0100
0000
0000
0000
0100
0000
0001
0000
0101
0000
0000
0000
,
1000
0000
0000
0000
0000
0000
0000
0000
0000
0000
0000
0000
0001
0000
0000
0000
0000
0000
0000
0000
0000
0000
0000
0000
1000
0000
0000
0000
0000
0000
0000
0000
0000
0000
0000
0000
0001
0000
0000
0000
0000
0000
0000
0000
0000
0000
0000
0000
1000
0000
0000
0000
0000
0000
0000
0000
0000
0000
0000
0000
0001
0000
0000
0000
0000
0000
0000
0000
0000
0000
0000
0000
1000
0000
0000
0000
0000
0000
0000
0000
0000
0000
0000
0000
0001
0000
0000
0000
0000
0000
0000
0000
0000
0000
0000
0000
2002
3003
0000
0000
0000
0000
0000
0000
0000
0000
0000
0000
0000
0000
0000
0000
0000
0000
0000
0000
0000
0000
0000
0000
0000
0000
0000
0000
0000
0000
0000
0000
0000
0000
0000
0000
0000
0000
0000
0000
0000
0000
0000
0000
0000
0000
0000
0000
1001
0000
0000
0000
0000
0000
0000
0000
0000
0000
0000
0000
0000
0000
0000
0000
0000
0000
0000
0000
0000
0000
0000
0000
0000
0000
0000
0000
0000
0000
0000
0000
0000
0000
0000
0000
0000
0000
0000
0000
0000
0000
0000
0000
0000
0000
0000
0000
,
0100
0010
0100
0010
1000
0100
0010
0001
,
0200
0300
0100
0010
,
1000
0001
1000
0001
1000
0001
1000
0001
0010
0100
0010
0100
0010
0100
0010
0100
,
0010
0000
0100
1000
0010
0000
0100
0000
,
0100
0001
0010
0100
1000
0010
1000
0001
,
0200
0000
0300
0000
0101
0000
1001
0001
,
1000
0000
0100
0100
0002
0000
2003
0000
,
3020
0230
0301
0001
,
1000
0100
0010
0100
0010
0001
0100
0010
,
0002
0000
0000
0000
0000
0000
0000
0003
0010
0000
0000
0000
0100
0000
0000
0000
,
0010
1000
0010
1000
0010
1000
0010
1000
0001
0100
0001
0100
0001
0100
0001
0100
,
0001
0000
0001
1000
0100
0000
0010
0000
,
0002
0000
0000
0000
0000
0000
0010
0100
,
2003
0000
0000
0000
3010
1000
0100
1000
,
0010
0000
0000
0000
0000
0000
0000
0000
0000
0000
0000
0000
0000
0000
0000
0000
0000
0000
0000
0000
0000
0000
0000
0000
0010
0000
0000
0000
0000
0000
0000
0000
0000
0000
0000
0000
0000
0000
0000
0000
0000
0000
0000
0000
0000
0000
0000
0000
1000
0000
0000
0000
0000
0000
0000
0000
0000
0000
0000
0000
0000
0000
0000
0000
0000
0000
0000
0000
0000
0000
0000
0000
0100
0000
0000
0000
0000
0000
0000
0000
0000
0000
0000
0000
0000
0000
0000
0000
0000
0000
0000
0000
0000
0000
0000
0000
0002
0003
0000
0000
0000
0000
0000
0000
0000
0000
0000
0000
0000
0000
0000
0000
0000
0000
0000
0000
0000
0000
0000
0000
0000
0000
0000
0000
0000
0000
0000
0000
0000
0000
0000
0000
0000
0000
0000
0000
0000
0000
0000
0000
0000
0000
0000
0000
0110
0000
0000
0000
0000
0000
0000
0000
0000
0000
0000
0000
0000
0000
0000
0000
0000
0000
0000
0000
0000
0000
0000
0000
0000
0000
0000
0000
0000
0000
0000
0000
0000
0000
0000
0000
0000
0000
0000
0000
0000
0000
0000
0000
0000
0000
0000
0000
,
0001
0100
0010
0100
0001
0010
0100
1000
,
0020
0000
0030
0000
0010
1000
0100
0010
,
0001
0100
0000
0000
0010
0001
0000
0000
0100
0001
0000
0000
0010
0001
0010
0001
,
0200
0000
1300
0100
,
0010
0100
0001
0010
0001
0100
0010
1000
,
0200
0000
0000
0000
0310
0000
0100
1000
,
0010
0000
0100
0001
0020
0000
0032
0000
,
0203
0320
1030
0100
,
0010
0100
0100
0010
0001
0010
0100
1000
,
1020
0000
0000
0000
1030
0001
0001
1000
,
0100
0010
0000
0000
0010
0000
0100
0000
1000
0000
0010
0000
1000
0001
1000
0001
,
2000
0000
3000
0000
2200
3300
0202
0303
,
0100
0001
0010
0010
0001
0100
0001
0010
,
0200
0000
0300
0000
0200
0000
0310
0010
,
0002
0000
0103
0100
0010
0100
0001
0100
,
0010
0000
0000
0000
0000
0000
1000
0000
0000
0001
0000
0000
1000
0000
0000
0000
0100
0000
0000
0000
0010
0000
0000
0000
0002
0000
0000
0000
0000
0000
0000
0000
0000
0000
0000
0000
0000
0000
0000
0000
0000
0000
1003
0000
0000
0001
0000
0000
,
1000
0000
1000
0020
0000
0030
0010
0100
,
0001
0002
0000
0000
,
0003
0100
1000
0100
0110
0000
0100
0001
,
0002
0023
0000
0000
,
0030
0000
1000
0010
0000
0010
0000
0100
,
0000
0002
0000
0000
0003
0000
0000
0000
,
1000
0000
0100
0010
0100
0000
0010
0001
,
0100
0000
0000
0000
0100
0000
0000
0000
1001
0000
0000
0110
0000
0000
1000
0000
,
1100
0100
0000
0100
0000
0100
0000
0010
,
0000
0000
0001
0000
0100
0000
0000
0000
0110
0000
0000
0101
0000
0000
0010
0000
,
0110
0000
0000
1000
1000
0010
1000
0100
,
1100
0000
0101
0000
0011
0000
1010
0000
0000
0000
0000
0000
,
0100
0010
0000
0010
0000
1000
0000
0100
,
0000
0002
0000
0000
0000
0000
0000
0000
,
1003
0100
0000
0001
0000
0100
0010
1000
,
0001
0100
1000
0000
0110
0000
0000
0000
,
1000
0000
0002
0000
0000
0000
0000
0103
,
0010
1000
0200
0000
0000
0000
0310
0001
,
0100
0010
1000
0200
0000
0310
0020
0000
,
0230
0302
0203
0300
,
0100
2020
0000
3030
,
0101
0000
0020
0000
0030
0000
0001
0010
,
0100
1000
0010
0100
0100
0100
0100
0010
,
1000
0100
0010
0001
0101
0000
0000
0000
,
0001
0000
2000
0000
0000
0000
3000
0010
,
0100
1000
2000
0000
0000
0000
3000
0100
,
0010
0100
0001
0020
0000
0130
1000
0000
,
1000
0100
0010
0000
,
0101
0000
1100
0000
0000
0000
0010
0100
,
0001
0010
0001
0000
0000
0000
0000
1000
,
0100
0000
0000
0000
0000
0000
0000
0000
0000
0000
0000
0000
0000
0000
0000
0000
0000
0000
0000
0000
0000
0000
0000
0000
0100
0000
0000
0000
0000
0000
0000
0000
0000
0000
0000
0000
0000
0000
0000
0000
0000
0000
0000
0000
0000
0000
0000
0000
1000
0000
0000
0000
0000
0000
0000
0000
0000
0000
0000
0000
0000
0000
0000
0000
0000
0000
0000
0000
0000
0000
0000
0000
0000
0000
0000
0000
0000
0000
0000
0000
0000
0000
0000
0000
0000
0000
0000
0000
0000
0000
0000
0000
0000
0000
0000
0000
0202
0303
0000
0000
0000
0000
0000
0000
0000
0000
0000
0000
0000
0000
0000
0000
0000
0000
0000
0000
0000
0000
0000
0000
0000
0000
0000
0000
0000
0000
0000
0000
0000
0000
0000
0000
0010
0000
0000
0000
0000
0000
0000
0000
0000
0000
0000
0000
0001
0000
0000
0000
0000
0000
0000
0000
0000
0000
0000
0000
0000
0000
0000
0000
0000
0000
0000
0000
0000
0000
0000
0000
0000
0000
0000
0000
0000
0000
0000
0000
0000
0000
0000
0000
0000
0000
0000
0000
0000
0000
0000
0000
0000
0000
0000
0000
,
0100
0000
0010
0000
1010
0000
0000
0000
1000
0000
0010
0000
0100
0000
0001
0010
,
0001
0000
0100
0000
0010
0000
0000
0000
0010
0100
0000
0100
0001
0000
0000
0000
,
0001
0000
0010
0000
0100
0000
0000
0000
0100
0000
0010
0000
0001
0000
0100
0010
,
1000
0000
1000
0000
0100
0000
0000
0000
0010
1000
0000
1000
0010
0000
0000
0000
,
0100
0000
1000
0000
1100
0000
0000
0000
1000
0000
0010
0000
1000
0000
0001
0010
,
0100
0000
0010
0000
0001
0000
0000
0000
0001
0100
0000
0100
0010
0000
0000
0000
,
0010
0000
1000
0000
1010
0000
0000
0000
0001
1000
0001
1000
0001
1000
0001
1000
,
2002
3003
0000
0000
0000
0000
0000
0000
0000
0000
0000
0000
0000
0000
0000
0000
0000
0000
0000
0000
0000
0000
0000
0000
0000
0000
0000
0000
0000
0000
0000
0000
0000
0000
0000
0000
0000
0000
0000
0000
0000
0000
0000
0000
0000
0000
0000
0000
0110
0000
0000
0000
0000
0000
0000
0000
0000
0000
0000
0000
0000
0000
0000
0000
0000
0000
0000
0000
0000
0000
0000
0000
0000
0000
0000
0000
0000
0000
0000
0000
0000
0000
0000
0000
0000
0000
0000
0000
0000
0000
0000
0000
0000
0000
0000
0000
1000
0000
0000
0000
0000
0000
0000
0000
0000
0000
0000
0000
0000
0000
0000
0000
0000
0000
0000
0000
0000
0000
0000
0000
0001
0000
0000
0000
0000
0000
0000
0000
0000
0000
0000
0000
0000
0000
0000
0000
0000
0000
0000
0000
0000
0000
0000
0000
1000
0000
0000
0000
0000
0000
0000
0000
0000
0000
0000
0000
0000
0000
0000
0000
0000
0000
0000
0000
0000
0000
0000
0000
0001
0000
0000
0000
0000
0000
0000
0000
0000
0000
0000
0000
0000
0000
0000
0000
0000
0000
0000
0000
0000
0000
0000
0000
,
0010
1000
0001
0100
2000
0000
3000
0000
,
1000
0000
0000
0000
0010
0000
0000
0000
0010
0100
0010
0100
0010
0100
0010
0100
,
0001
1000
0001
1000
0001
1000
0001
1000
0001
0000
0000
0000
1000
0000
0010
0000
,
0001
0000
0001
0000
1000
0100
0001
1000
,
0010
0001
0010
0100
2000
0000
3000
0000
,
1100
0000
0110
0100
0010
0000
1000
1000
,
0200
0320
0032
2003
,
3100
0000
1000
0000
0010
1000
0001
1000
,
0001
0000
0010
0000
1000
0000
0001
0000
0200
0000
0000
0000
0000
0000
0000
0300
,
1000
0000
0000
0000
1000
0000
0000
0000
0001
0010
0001
0010
0001
0010
0001
0010
,
0100
1000
0100
1000
0100
1000
0100
1000
0100
0000
0000
0000
0100
0000
0010
0000
,
0001
0001
0210
0000
,
0000
0000
0001
1000
0320
0000
0000
0000
,
0031
0010
1000
0010
0001
0001
0100
0100
,
0020
0030
0000
0000
0000
0000
0000
0000
0000
0000
0000
0000
0000
0000
0000
0000
0000
0000
0000
0000
0000
0000
0000
0000
0000
0000
0000
0000
0000
0000
0000
0000
0000
0000
0000
0000
0000
0000
0000
0000
0000
0000
0000
0000
0000
0000
0000
0000
1001
0000
0000
0000
0000
0000
0000
0000
0000
0000
0000
0000
0000
0000
0000
0000
0000
0000
0000
0000
0000
0000
0000
0000
0000
0000
0000
0000
0000
0000
0000
0000
0000
0000
0000
0000
0000
0000
0000
0000
0000
0000
0000
0000
0000
0000
0000
0000
0100
0000
0000
0000
0000
0000
0000
0000
0000
0000
0000
0000
0000
0000
0000
0000
0000
0000
0000
0000
0000
0000
0000
0000
0001
0000
0000
0000
0000
0000
0000
0000
0000
0000
0000
0000
0000
0000
0000
0000
0000
0000
0000
0000
0000
0000
0000
0000
1000
0000
0000
0000
0000
0000
0000
0000
0000
0000
0000
0000
0000
0000
0000
0000
0000
0000
0000
0000
0000
0000
0000
0000
0001
0000
0000
0000
0000
0000
0000
0000
0000
0000
0000
0000
0000
0000
0000
0000
0000
0000
0000
0000
0000
0000
0000
0000
,
0010
1000
0001
0100
2000
0000
3000
0000
,
1000
0000
0100
0000
1000
0000
0010
0000
0100
0001
0000
0000
1000
0010
0000
0000
,
0001
0010
0000
0000
0100
0010
0100
0010
0002
0000
0000
0000
0000
0000
0000
0000
,
0013
0000
1000
0000
1000
0001
0010
1000
,
0010
0001
1000
0100
0002
0000
0000
0000
,
0103
0000
0001
0100
1000
0000
0001
0010
,
2000
3020
0032
2003
,
3100
0000
0001
0000
1000
0001
0001
1000
,
0010
1000
0001
0100
2100
0000
0000
0000
,
3100
0000
0000
0000
0010
0000
0100
0000
0001
1000
0000
0000
1000
0000
0001
0000
,
0011
0000
0000
0000
0100
0001
0010
0001
0200
0000
0000
0000
0300
0000
0000
0000
,
0202
0303
0022
0033
0001
0100
1000
1000
,
0100
0001
0010
1000
0002
0000
0003
0000
,
0002
0000
1003
1000
0020
0000
0031
0001
,
0010
0000
0000
0000
0000
0000
0001
0000
0000
0000
0000
0000
0100
0000
0000
0000
0000
0000
0100
0000
0000
0001
0000
0000
0100
0000
0000
0001
0000
0000
0100
0000
0000
0000
0000
0000
0001
0000
0000
0000
0100
0000
0000
0000
0010
0000
0000
0000
,
0200
0300
0010
0200
,
0000
0000
0300
0010
1000
0100
0020
0000
,
0000
0030
0010
0100
1000
0010
0100
0002
,
0000
0013
1000
0000
0010
0000
0001
0000
,
0110
0000
1001
0202
,
0000
0303
1100
0220
,
0330
0000
0100
0010
0001
0100
0010
0001
,
0001
0001
0001
0000
0100
0001
0010
0100
,
1100
0000
0110
2200
,
3300
0000
0000
1000
0100
0010
0200
0000
,
0000
0000
0300
0010
0001
0100
0001
0020
,
0000
1030
0010
0000
1000
0000
1010
0000
,
0110
0000
0011
0202
,
0303
0000
1000
0100
0001
0100
0202
0000
,
0303
0000
0000
1000
0010
0100
0001
0000
,
0101
0000
0000
1000
0100
0010
0001
0000
,
0101
0000
0000
1000
0010
0100
0001
0000
,
0000
0000
0000
0010
0100
1000
0010
0000
,
0000
0000
0000
0010
0001
0100
0001
0000
,
0000
0000
0000
1000
0100
0010
0001
0000
,
0000
0000
0000
0001
0010
0100
1000
0000
,
0000
0000
0000
1000
0010
0100
0100
0000
,
0000
0000
0000
1000
0010
0100
1000
0000
,
0000
0000
0000
1000
0100
0010
0100
0000
,
0000
0000
0000
0001
1000
0000
1001
0000
,
0000
0000
0000
0010
0100
0000
0110
0000
,
0000
0000
0000
1000
0001
0000
1001
0000
,
0000
0000
0000
0010
0001
0000
1100
0000
,
0000
0000
0000
0000
0010
0001
0100
0001
,
0001
0000
0000
0000
1000
0001
1000
0001
,
1000
0000
0000
0000
0001
0100
1000
0100
,
1000
0000
0000
0000
;

//--------------- dance-double - ----------------
#NOTES:
     dance-double:
     :
     Challenge:
     14:
     0,0,0,0,0:
00000000
00000000
00000000
00000000
,
00000000
00000000
00000000
00000000
,
00000000
00000000
00000000
00000000
,
00000000
00000000
00000000
00000000
,
00000000
00000000
00000000
00000000
,
00000000
00000000
00000000
00000000
,
00000000
00000000
00000000
00000000
,
00000000
00000000
00000000
00000000
,
00000000
00000000
00000000
00000000
00000000
01000000
00100000
00010000
,
00000000
00010000
00001000
00000100
00000010
00000000
00000002
00000000
,
00000000
00000000
00000000
00000000
00000003
00000001
00000010
00000001
,
00000000
00000001
00000010
00000000
00001100
00000000
00002000
00000000
,
00000000
00000000
00003000
00000000
00000000
00000000
00000100
00000100
,
00000000
00001100
00000000
00010000
00000000
00022000
00000000
00000000
,
00000000
00000000
00000000
00000000
00033000
00100000
00010000
00010000
,
00000000
00100000
00010000
00000000
01000000
00000000
02200000
00000000
,
03300000
00000000
00000000
00000000
10000000
00010000
01000000
00100000
,
00000000
00010000
00000000
00010100
00000000
00002200
00000000
00000000
,
00000000
00000000
00003300
00000000
00000000
00000000
00000100
00001000
,
00000000
00001000
00000010
00000100
00000001
00000000
00001002
00000000
,
00000000
00000000
00000003
00000000
00000010
00000001
00000000
00000011
,
00000000
00000101
00000000
00001010
00000000
00020200
00000000
00000000
,
00000000
00000000
00030300
00001000
00010000
00001000
00000000
00001000
,
00000000
00000000
00010000
00001000
00100000
00010000
01000000
00010000
,
00100000
00000000
00100000
00200000
,
00000000
00000000
00300000
00100000
00010000
10000000
00200000
00000000
,
00300000
00000000
01000000
00100000
01000000
00100000
10000000
20000000
,
00000000
00010000
30010000
00000000
10000000
00000000
00010000
00000000
,
00200000
00300000
01000000
02200000
,
00000000
03300000
00011000
00002000
,
00003000
00000000
00001000
00000100
00000010
00001000
00000100
00000010
,
00000010
00000010
00000010
00001000
00000010
00000001
00000100
00000001
,
00000100
00000000
00000001
00002001
,
00003000
00000000
00000000
00000010
00000100
00001000
00000200
00000000
,
00000300
00000000
00000000
00001000
00010000
00001000
01000000
00200000
,
00000000
01300000
00100000
00000000
00100000
00000000
01100000
00000000
,
00220000
00330000
00010000
00002000
,
00003000
00000000
00001000
00000100
00000010
00001000
00000020
00000000
,
00000000
00000000
00000030
00000100
00000010
00000100
00000010
00000000
,
00000110
00000000
00000000
00000100
00000001
00000000
00000000
00000000
00001000
00000000
00001000
00000000
00001100
00000000
00000000
00000000
,
00010000
00000000
00001000
00000000
00010000
00000000
00100000
00010000
00100000
00000000
01000000
00000000
01100000
00000000
00000000
00000000
,
10000000
01000000
00000000
01000000
00100000
00000000
00000000
00000000
00010000
00000000
00010000
00000000
00110000
00000000
00000000
00000000
,
00100000
00000000
00010000
00000000
00001000
00000000
00000100
00001000
00000010
00000000
00000100
00000000
00000110
00000000
00000000
00000000
,
00000001
00001000
00000000
00001000
00000100
00000000
00000000
00000000
00001000
00000000
00001000
00000000
00001100
00000000
00000000
00000000
,
00010000
00000000
00001000
00000000
00100000
00000000
00010000
01000000
00010000
00000000
00100000
00000000
01010000
00000000
00000000
00000000
,
10000000
00010000
00000000
00010000
10000000
00000000
00000000
00000000
01000000
00000000
01000000
00000000
01000000
00000000
00000000
00000000
,
00010000
10000000
00010000
10000000
00010000
10000000
00010000
10000000
00020000
00000000
00000000
00000000
10030000
00000000
00000000
00000000
,
10000000
01000000
00100000
00010000
00001000
00000100
00000010
00000001
,
00002000
00003000
00000100
00000110
,
00000001
00001000
00000001
00001000
00000001
00001000
00000001
00001000
00000010
00000100
00000010
00000100
00000010
00000100
00000010
00000100
,
00000020
00000030
00000100
00000100
00000100
00000000
00000110
00000000
,
00000001
00000010
00000100
00001000
00010000
00100000
01000000
10000000
,
00020000
00000000
00030000
00000000
20000000
00000000
30010000
00010000
,
20000000
00000000
31000000
01000000
00200000
00000000
00320000
00000000
,
00032000
00023000
01030000
01100000
,
10000000
00100000
01000000
00010000
00001000
00000010
00000100
00000001
,
00002000
00003000
00000010
00000110
,
00000001
00001000
00000001
00001000
00000001
00001000
00000001
00001000
00000100
00000010
00000100
00000010
00000100
00000010
00000100
00000010
,
00000200
00000300
00000010
00000010
00000010
00000000
00000110
00000000
,
00000002
00000000
00000000
00000000
00000000
00000000
00000010
00000013
,
00000002
00000000
00000000
00000000
00001003
00000100
00010000
00010000
,
01000000
10000000
00100000
00100000
01100000
00000000
00000110
00000000
,
00000001
00000100
00000010
00001000
00010000
01000000
00100000
10000000
,
00020000
00000000
00030000
00000000
01000000
00100000
01000000
00100000
,
10000000
00100000
00000000
00000000
01000000
00010000
00000000
00000000
00010000
00001000
00000000
00000000
00000100
00001000
00000100
00001000
,
00000200
00000000
00000310
00000110
,
00000001
00000100
00001000
00010000
01000000
10000000
00100000
00001000
,
00000020
00000000
00000000
00000000
00000130
00001000
00100000
00001000
,
00100000
00000000
00010000
00100000
00020000
00000000
00230000
00000000
,
00320000
02030000
03010000
00110000
,
10000000
00100000
00010000
00001000
00000010
00000001
00000100
00010000
,
02000000
00000000
00000000
00000000
03010000
00001000
00000100
00001000
,
00010000
00001000
00000000
00000000
00000010
00000000
00000010
00000000
00000100
00000000
00000001
00000000
00001000
00000010
00001000
00000010
,
00002000
00000000
00003000
00000000
00000220
00000330
00002020
00003030
,
00001000
00000001
00000100
00000010
00010000
01000000
10000000
00100000
,
20000000
00000000
00000000
00000000
30020000
00000000
00130000
00100000
,
00020000
00000000
10030000
10000000
01000000
01000000
00100000
00100000
,
00001000
00000000
00000000
00000000
00000000
00000000
00001000
00000000
00000000
00010000
00000000
00000000
00001000
00000000
00000000
00000000
00010000
00000000
00000000
00000000
00000100
00000000
00000000
00000000
00002000
00000000
00000000
00000000
00000000
00000000
00000000
00000000
00000000
00000000
00000000
00000000
00000000
00000000
00000000
00000000
00000000
00000000
00003010
00000000
00000000
00000100
00000000
00000000
,
00001000
00000000
00000000
00010000
00100000
00000000
00010000
00100000
,
00100000
00002000
00000000
00000000
,
00003000
00001000
00010000
00001000
00100000
00000000
00001000
00010000
,
00010000
00011000
00000000
00000000
,
00000000
00000000
00000100
00000100
00000000
00001100
00000000
00010100
,
00000000
00022000
00000000
00000000
00000000
00000000
00000000
00000000
,
00033000
00000000
00100000
00001000
00100000
00000000
00100000
00010000
,
01000000
00000000
00000000
00000000
01000000
00000000
00000000
00000000
00110000
00000000
00000000
01100000
00000000
00000000
00100000
00010000
,
00100000
00010000
00000000
00100000
00000000
00001000
00000000
00001100
,
00000000
00000000
00000110
00000000
00001000
00000000
00000100
00000000
00000110
00000000
00000000
00001001
00000000
00000000
00000010
00000000
,
00000110
00000000
00000000
00000100
00000010
00000010
00001000
00000100
,
00001000
00000000
00000110
00000000
00000011
00000000
00001001
00000000
00000000
00000000
00000000
00000000
,
00010000
00100000
00000000
00002000
00000000
00023000
00000000
00030200
,
00000000
00002300
00000000
00000000
00000000
00000000
00003000
00000100
,
00000010
00000001
00000000
00000010
00000000
00000100
00001000
00001000
,
00000100
00001000
00000010
00000100
00000020
00000000
00000000
00000000
,
00001030
00000000
00000200
00000000
00000000
00000000
00000300
00000100
,
00001000
00000001
00000200
00000000
00000300
00000000
00000010
00000100
,
00000010
00000100
00000001
00000002
00000000
00001000
00001003
00000000
,
00000001
00001000
00000200
00000300
,
00000010
00000220
00000000
00000330
,
00011000
00000000
00020000
00000000
00030000
00000000
00010000
00100000
,
01000000
00010000
00100000
01000000
01000000
01000000
01000000
00010000
,
01000000
10000000
00100000
10000000
00100000
00000000
00000000
00000000
,
10000000
00000000
10020000
00000000
00030000
00000000
00000000
01000000
,
00100000
00010000
00200000
00000000
00300000
00000000
00000000
00010000
,
00001000
00010000
00000010
00000200
00000000
00000310
00000100
00000000
,
00000100
00000110
00002200
00003300
,
00001000
00000000
00020000
00000000
00030000
00000000
00010000
00100000
,
01000000
00010000
02000000
00000000
00000000
00000000
03000000
00100000
,
01000000
00000000
00100000
00000000
01000000
00000000
00000000
00000000
01100000
00000000
00000000
00100000
10000000
00000000
00000000
00000000
,
00010000
00000000
00010000
00000000
00110000
00000000
00000000
00000000
00001000
00000000
00010000
00000000
00001000
00000000
00000100
00001000
,
00000100
00000000
00000010
00000000
00000110
00000000
00000000
00000000
00000001
00000010
00000000
00000010
00000100
00000000
00000000
00000000
,
00001000
00000000
00001000
00000000
00001100
00000000
00000000
00000000
00000100
00000000
00001000
00000000
00010000
00000000
00100000
00010000
,
01000000
00000000
00100000
00000000
01100000
00000000
00000000
00000000
10000000
00010000
00000000
00010000
00100000
00000000
00000000
00000000
,
00010000
00000000
00010000
00000000
00110000
00000000
00000000
00000000
00001000
00000000
00010000
00000000
00000100
00000000
00001000
00000010
,
00001000
00000000
00000100
00000000
00001010
00000000
00000000
00000000
00000001
00001000
00000000
00001000
00000001
00000000
00000000
00000000
,
00000010
00000000
00000010
00000000
00000010
00000000
00000000
00000000
00001000
00000001
00001000
00000001
00001000
00000001
00001000
00000001
,
00002000
00000000
00003001
00000000
00000001
00000010
00000100
00001000
,
00010000
00100000
01000000
10000000
00020000
00000000
00030000
00000000
,
00100000
00000000
00000000
00000000
01100000
00000000
00000000
00000000
10000000
00010000
10000000
00010000
10000000
00010000
10000000
00010000
,
01000000
00100000
01000000
00100000
01000000
00100000
01000000
00100000
02000000
00000000
03000000
00000000
00100000
00000000
00100000
00000000
,
00100000
00000000
01100000
00000000
10000000
01000000
00100000
00010000
,
00001000
00000100
00000010
00000001
00002000
00000000
00003000
00000000
,
00000002
00000000
00001003
00001000
00000002
00000000
00000013
00000010
,
00000200
00002300
00023000
00032000
,
00003010
00000000
00000110
00000000
00000001
00000100
00000010
00001000
,
00010000
01000000
00100000
10000000
00020000
00000000
00030000
00000000
,
01000000
00000000
00000000
00000000
01100000
00000000
00000000
00000000
10000000
00010000
10000000
00010000
10000000
00010000
10000000
00010000
,
00100000
01000000
00100000
01000000
00100000
01000000
00100000
01000000
00200000
00000000
00300000
00000000
01000000
00000000
01000000
00000000
,
01000000
01100000
20000000
00000000
,
00000000
00000000
01000000
31000000
20000000
00000000
00000000
00000000
,
30010000
00100000
00001000
00001000
00000010
00000001
00000100
00000100
,
00000110
00000000
01100000
00000000
10000000
00100000
01000000
00010000
,
00001000
00000010
00000100
00000001
00002000
00000000
00003000
00000000
,
00000010
00000000
00000100
00000000
00000010
00000000
00000100
00000000
00000001
00000100
00000000
00000000
00000010
00001000
00000000
00000000
,
00001000
00010000
00000000
00000000
00100000
00010000
00100000
00010000
00200000
00000000
00000000
00000000
00000000
00000000
00000000
00000000
,
01300000
00000000
01100000
00000000
10000000
00100000
00010000
00001000
,
00000010
00000001
00000100
00010000
02000000
00000000
00000000
00000000
,
03100000
00010000
00000100
00010000
00000100
00000000
00001000
00000100
,
00002000
00003200
00002300
00003020
,
00001030
00000000
00001100
00000000
00000001
00000100
00001000
00010000
,
01000000
10000000
00100000
00001000
00000020
00000000
00000000
00000000
,
00001030
00000000
00010000
00000000
00100000
00000000
00010000
00000000
00001000
00010000
00000000
00000000
01000000
00000000
01000000
00000000
,
00100000
00000000
10000000
00000000
00010000
01000000
00010000
01000000
00020000
00000000
00000000
00000000
00030000
00000000
00000000
00000000
,
02200000
03300000
02020000
03030000
00010000
10000000
00100000
01000000
,
00001000
00000010
00000001
00000100
00000002
00000000
00000000
00000000
,
00002003
00000000
00003100
00000100
00002000
00000000
00003001
00000001
,
00000010
00000000
00000000
00000000
00000000
00000000
00000010
00000000
00000000
00000000
00000000
00000000
00000100
00000000
00000000
00000000
00000000
00000000
00001000
00000000
00000000
00000001
00000000
00000000
00001000
00000000
00000000
00000001
00000000
00000000
00001000
00000000
00000000
00000000
00000000
00000000
00000100
00000000
00000000
00000000
00000010
00000000
00000000
00000000
00000100
00000000
00000000
00000000
,
00000010
00000000
00000010
00000020
,
00000000
00000000
00000030
00000010
00001000
00000001
00000020
00000000
,
00000030
00000000
00000100
00000010
00000100
00000010
00000001
00000002
,
00000000
00001000
00001003
00000000
00000001
00000000
00001000
00000000
,
00000020
00000030
00000100
00000220
,
00000000
00000330
00011000
00020000
,
00030000
00000000
00010000
01000000
00100000
00010000
01000000
00100000
,
00100000
00100000
00100000
00010000
00100000
10000000
01000000
10000000
,
01000000
00000000
10000000
10020000
,
00030000
00000000
00000000
00100000
01000000
00010000
02000000
00000000
,
03000000
00000000
00000000
00010000
00001000
00010000
00000100
00000020
,
00000000
00000130
00000010
00000000
00000010
00000000
00000110
00000000
,
00002020
00003030
00001000
00020000
,
00030000
00000000
00010000
01000000
00100000
00010000
00200000
00000000
,
00000000
00000000
00300000
01000000
00100000
01000000
00100000
00000000
,
00000000
00000000
00000000
00010000
01000000
00001000
00010000
00000000
,
00000000
00000000
00000000
00001000
00100000
00001000
00000100
00000000
,
00000000
00000000
00000000
00000001
00010000
00001000
00000100
00000000
,
00000000
00000000
00000000
00000010
00100000
00010000
01000000
00000000
,
00000000
00000000
00000000
01000000
00000100
00100000
00001000
00000000
,
00000000
00000000
00000000
00100000
01000000
00010000
00000100
00000000
,
00000000
00000000
00000000
00000001
00010000
00001000
00000100
00000000
,
00000000
00000000
00000000
00000010
00100000
00001000
00010000
00000000
,
00000000
00000000
00000000
00001000
10000000
00100000
10000000
00000000
,
00000000
00000000
00000000
00010000
00000100
00010000
00000010
00010000
,
00000000
00000000
00000000
00000010
00001000
00000100
00000010
00000001
,
00000000
00000000
00000000
00010000
00001000
00000100
00000010
00001000
,
00000000
00000000
00000000
00000010
00001000
00000100
00010000
00001000
,
00000000
00000000
00000000
00000000
00010000
00001000
00010000
00000000
,
00001100
00000000
00000000
00000000
00001000
00010000
00001000
00000000
,
00110000
00000000
00000000
00000000
00000100
00001000
00000100
00000000
,
00001100
00000000
00000000
00000000
;
