#VERSION:0.83;
#TITLE:station CRUX;
#SUBTITLE:;
#ARTIST:m@sumi;
#TITLETRANSLIT:;
#SUBTITLETRANSLIT:;
#ARTISTTRANSLIT:;
#GENRE:;
#ORIGIN:;
#TAGS:;
#CREDIT:;
#BANNER:station CRUX.png;
#BACKGROUND:station CRUX-bg.png;
#PREVIEWVID:;
#JACKET:station CRUX-jacket.png;
#CDIMAGE:;
#DISCIMAGE:;
#LYRICSPATH:;
#CDTITLE:cdtitle.png;
#MUSIC:station CRUX.ogg;
#OFFSET:0.412000;
#SAMPLESTART:54.855000;
#SAMPLELENGTH:15.000000;
#SELECTABLE:YES;
#BPMS:0.000000=152.000000;
#STOPS:;
#DELAYS:;
#WARPS:;
#TIMESIGNATURES:0.000000=4=4;
#TICKCOUNTS:0.000000=4;
#COMBOS:0.000000=1;
#SPEEDS:0.000000=1.000000=0.000000=0;
#SCROLLS:0.000000=1.000000;
#FAKES:;
#LABELS:0.000000=Song Start;
#BGCHANGES:;
#KEYSOUNDS:;
#ATTACKS:
;

//---------------dance-single - ----------------
#NOTEDATA:;
#CHARTNAME:;
#STEPSTYPE:dance-single;
#BANNER:;
#DESCRIPTION:;
#CHARTSTYLE:;
#DIFFICULTY:Beginner;
#METER:1;
#METERF:0.000000;
#RADARVALUES:0.070858,0.178563,0.022893,0.144987,0.000000,65.000000,62.000000,3.000000,19.000000,0.000000,0.000000,0.000000,0.000000,0.000000,0.070858,0.178563,0.022893,0.144987,0.000000,65.000000,62.000000,3.000000,19.000000,0.000000,0.000000,0.000000,0.000000,0.000000;
#CREDIT:Supra the Hedgehog;
#NOTES:
0000
0000
0000
0000
,
0000
0000
0000
0000
,
0000
0000
0000
0000
,
0000
0000
0000
0000
,
1000
0000
0000
0000
,
0000
0000
0000
1000
,
0000
0000
0000
0000
,
0000
0000
0001
0000
,
0000
0000
0000
0000
,
0000
0100
0000
0000
,
0000
0000
0000
0010
,
0000
0000
0000
0000
,
0000
0000
0010
0000
,
0000
0000
0000
0000
,
0000
0100
0000
0000
,
0000
0000
0000
0000
,
0001
0000
0000
0000
,
0000
0000
0000
0000
,
2000
0000
3000
0000
,
2000
0000
3000
0000
,
2000
0000
0000
0000
,
3000
0000
0000
0000
,
0002
0000
0003
0000
,
0002
0000
0003
0000
,
0002
0000
0000
0000
,
0003
0000
0000
0000
,
0200
0000
0300
0000
,
0200
0000
0300
0000
,
0200
0000
0000
0000
,
0300
0000
0000
0000
,
0020
0000
0030
0000
,
0020
0000
0030
0000
,
1000
0000
0001
0000
,
1000
0000
0001
0000
,
0000
0000
0000
0000
,
1000
0000
0000
0000
,
0000
0000
0000
0001
,
0000
0000
0000
0000
,
0000
0000
0100
0000
,
0000
0000
0000
0000
,
0000
0010
0000
0000
,
0000
0000
0000
0000
,
2002
0000
0000
0000
,
0000
0000
0000
3003
,
0000
0000
0000
0000
,
0000
0000
1000
0000
,
0000
0000
0000
0000
,
0010
0000
0000
0000
,
0000
0000
0100
0000
,
0000
0000
0000
0000
,
0001
0000
0000
0000
,
0000
0000
1000
0000
,
0000
0000
1000
0000
,
0100
0000
0000
0000
,
0100
0000
0010
0000
,
0000
0000
0010
0000
,
0001
0000
0000
0000
,
0001
0000
2000
0000
,
0000
0000
3000
0000
,
0000
0000
0002
0000
,
0000
0000
0003
0000
,
0000
0000
0200
0000
,
0000
0000
0300
0000
,
0000
0000
0020
0000
,
0000
0000
0030
0000
,
0000
0000
1000
0000
,
1000
0000
0001
0000
,
0001
0000
0020
0000
,
0030
0000
0200
0000
,
0300
0000
0001
0000
,
0001
0000
1000
0000
,
1000
0000
1001
0000
,
0000
0000
0000
0000
,
0000
1001
0000
0000
,
0000
0000
0000
0000
,
1000
0000
0100
0000
,
0010
0000
0001
0000
,
1000
0000
0000
0000
,
0001
0000
0000
0000
;

//---------------dance-single - ----------------
#NOTEDATA:;
#CHARTNAME:;
#STEPSTYPE:dance-single;
#BANNER:;
#DESCRIPTION:;
#CHARTSTYLE:;
#DIFFICULTY:Easy;
#METER:4;
#METERF:0.000000;
#RADARVALUES:0.154798,0.299513,0.038155,0.183142,0.000000,142.000000,137.000000,5.000000,24.000000,0.000000,0.000000,0.000000,0.000000,0.000000,0.154798,0.299513,0.038155,0.183142,0.000000,142.000000,137.000000,5.000000,24.000000,0.000000,0.000000,0.000000,0.000000,0.000000;
#CREDIT:Supra the Hedgehog;
#NOTES:
0000
0000
0000
0000
,
0000
0000
0000
0000
,
0000
0000
0000
0000
,
0000
0000
0000
0000
,
1001
0000
0000
0000
,
0000
0000
1000
1000
,
0000
0000
0000
1000
,
0000
1000
0001
0000
,
0000
0000
0001
0000
,
0001
0100
0000
0000
,
0000
0010
0100
0010
,
0000
0000
0000
0000
,
0000
0010
0010
0000
,
0000
0000
0010
0000
,
0010
0100
0000
0000
,
0000
0100
0000
0100
,
0001
0000
0000
0001
,
0000
0000
0000
0000
,
1000
0000
1000
0000
,
0001
0000
0001
0000
,
0020
0000
0030
0000
,
0200
0000
0300
0000
,
0001
0000
0001
0000
,
1000
0000
1000
0000
,
0200
0000
0300
0000
,
0020
0000
0030
0000
,
0100
0000
0100
0000
,
0010
0000
0010
0000
,
2000
0000
3000
0000
,
0002
0000
0003
0000
,
0010
0000
0010
0000
,
0100
0000
0100
0000
,
0001
0000
1000
0000
,
0001
0000
0000
0001
0000
0000
0001
0000
,
0000
0000
0000
0000
,
1001
0000
0000
0000
,
0000
0000
1000
0100
,
0000
0000
1000
0001
,
0100
0001
0010
0000
,
0000
0000
0000
0000
,
0010
0001
0000
0000
,
1000
0000
0000
0001
,
2002
0000
0000
0000
,
0000
0000
3003
0020
,
0000
0000
0000
0000
,
0000
0030
1000
0000
,
1000
0000
1000
0000
,
0100
0000
0100
0000
,
0100
0000
0010
0000
,
0010
0000
0010
0000
,
0001
0000
0001
0000
,
0001
0000
1000
0100
,
1000
0100
1000
0010
,
1000
0001
2000
0000
,
3002
0000
0003
1000
,
0010
1000
0100
0010
,
0001
0100
0002
0000
,
2003
0000
3002
0000
,
0000
0000
0203
0000
,
0000
0000
0320
0000
,
0000
0000
2030
0000
,
0000
0000
3200
0000
,
0000
0000
0320
0000
,
0000
0000
0032
0000
,
0000
0000
1003
0000
,
0000
0000
0001
0001
,
1000
1000
0100
0100
,
0010
0010
0200
0000
,
2300
0000
3002
0000
,
0023
0000
0031
0001
,
0100
0100
0010
0010
,
1000
1000
1001
0000
,
0000
0000
0000
0000
,
0001
1001
0000
0000
,
0000
0000
0000
1000
,
0001
0010
0100
1000
,
0001
0010
0100
1000
,
0001
0000
1000
0000
,
0001
0000
1000
0000
;

//---------------dance-single - ----------------
#NOTEDATA:;
#CHARTNAME:;
#STEPSTYPE:dance-single;
#BANNER:;
#DESCRIPTION:;
#CHARTSTYLE:;
#DIFFICULTY:Medium;
#METER:10;
#METERF:0.000000;
#RADARVALUES:0.398987,0.421322,0.129725,0.465485,0.000000,366.000000,349.000000,17.000000,61.000000,0.000000,0.000000,0.000000,0.000000,0.000000,0.398987,0.421322,0.129725,0.465485,0.000000,366.000000,349.000000,17.000000,61.000000,0.000000,0.000000,0.000000,0.000000,0.000000;
#CREDIT:Supra the Hedgehog;
#NOTES:
// measure 0
0000
0000
0000
0000
,  // measure 1
0000
0000
0000
0000
,  // measure 2
0000
0000
0000
0000
,  // measure 3
0000
0000
0000
0000
,  // measure 4
1001
1000
0010
0100
,  // measure 5
0001
0010
0001
0000
0110
0000
1001
0000
,  // measure 6
0001
0000
0010
0000
0100
0000
1000
0010
,  // measure 7
1000
1001
0110
0100
,  // measure 8
0001
0000
0010
0000
0100
1000
0100
0000
,  // measure 9
1000
0010
1000
0000
0001
0000
0010
0000
,  // measure 10
0100
1000
0010
0100
0001
0000
1001
0000
,  // measure 11
0001
0000
0100
0000
0010
0000
1000
0100
,  // measure 12
1000
0110
1001
1000
,  // measure 13
0100
0000
0010
0000
0001
0100
0001
0000
,  // measure 14
1001
0110
0010
1000
,  // measure 15
0100
0000
0010
0001
0010
0000
0001
0100
,  // measure 16
0001
0000
1000
0000
0100
0000
0010
0001
,  // measure 17
0100
0010
1000
0001
,  // measure 18
2000
0100
3002
0100
,  // measure 19
0023
0100
0032
1000
,  // measure 20
0203
0000
0010
0310
2000
0000
3100
0010
,  // measure 21
0002
0000
0100
0103
0020
0000
2030
0000
,  // measure 22
3200
0000
0010
0000
1000
0000
0310
0001
,  // measure 23
0200
0001
0320
0100
,  // measure 24
2030
0000
0001
0000
0100
0000
0001
3001
,  // measure 25
0020
0000
0100
0000
0031
0100
0010
1000
,  // measure 26
0002
0010
2003
0010
,  // measure 27
3200
0010
2300
0001
,  // measure 28
3020
0000
0100
0130
0002
0000
0013
0100
,  // measure 29
2000
0100
3002
0203
,  // measure 30
0320
0100
2030
3200
,  // measure 31
0320
0001
0230
0010
,  // measure 32
1300
0100
0000
1000
0010
1000
0000
0001
,  // measure 33
0100
0001
0000
0011
0000
1100
0000
1001
,  // measure 34
0000
0000
0000
0000
0000
0000
0010
0010
,  // measure 35
0010
0001
1000
0010
,  // measure 36
0001
0010
1000
0000
0100
0100
0100
0000
,  // measure 37
1000
0000
0001
0000
0100
0000
1000
0100
,  // measure 38
0001
0000
1000
1000
1000
0000
0010
0000
,  // measure 39
0100
0000
0001
0000
0010
0100
1000
0000
,  // measure 40
0001
1000
0010
0000
0100
0000
0001
0000
,  // measure 41
1000
0100
0001
0000
0010
0000
0100
0000
,  // measure 42
2001
0010
0001
0010
,  // measure 43
0001
0010
0001
3020
,  // measure 44
1000
0100
1000
0100
,  // measure 45
1000
0000
0100
0000
1030
0100
0010
0000
,  // measure 46
0001
0000
0100
0000
0010
1000
0010
0000
,  // measure 47
0100
0001
0010
0000
0100
0000
1000
0000
,  // measure 48
0010
0100
0010
0000
1000
0000
0100
0000
,  // measure 49
1000
0000
0000
0001
0100
0001
0010
0100
,  // measure 50
0100
0010
0001
1000
,  // measure 51
0010
0100
0001
1000
0001
0000
0010
0000
,  // measure 52
0100
0000
1000
0001
0100
0001
1000
0010
,  // measure 53
1000
0000
0001
0000
0200
0000
0000
0310
,  // measure 54
2000
0000
0000
3100
,  // measure 55
0010
0000
0100
0000
1000
0010
0100
0001
,  // measure 56
0010
0000
0100
0000
0020
0000
0000
0031
,  // measure 57
0200
0000
0302
0000
,  // measure 58
2003
0000
3020
0000
,  // measure 59
0230
0000
0000
0000
0302
0000
0000
0013
,  // measure 60
0200
0000
0000
0000
,  // measure 61
0000
0320
0032
0000
,  // measure 62
0000
0000
1003
0010
0200
0000
0000
0000
,  // measure 63
0320
0000
2030
0000
,  // measure 64
0000
0000
0000
3001
1001
0000
0000
0000
,  // measure 65
1000
0100
0010
0001
2000
0000
0001
0001
,  // measure 66
3002
0000
0100
0100
0203
0000
0010
0010
,  // measure 67
0320
0000
1000
1000
2030
0000
0100
3100
,  // measure 68
0020
0000
0001
0001
0001
0000
0100
0100
,  // measure 69
0100
0000
0032
0000
2003
0000
0010
0010
,  // measure 70
3020
0000
0230
0000
0302
0000
1000
1000
,  // measure 71
2003
0000
0001
3001
1001
0000
2000
0000
,  // measure 72
3020
0000
0130
0000
0001
0010
0100
1000
,  // measure 73
0001
1001
0002
0023
,  // measure 74
0130
0000
1000
0010
0100
0001
1000
0000
,  // measure 75
0001
0010
0100
0000
1000
0010
0100
0000
,  // measure 76
0010
1000
0100
0000
0010
0001
0100
0010
,  // measure 77
1000
0100
0000
1000
0010
1000
0000
0001
,  // measure 78
0100
0001
0000
0010
0001
0010
0000
0100
;

//---------------dance-single - ----------------
#NOTEDATA:;
#CHARTNAME:;
#STEPSTYPE:dance-single;
#BANNER:;
#DESCRIPTION:;
#CHARTSTYLE:;
#DIFFICULTY:Hard;
#METER:13;
#METERF:0.000000;
#RADARVALUES:0.591940,0.692171,0.389176,0.702044,0.175511,543.000000,492.000000,51.000000,92.000000,0.000000,0.000000,0.000000,0.000000,0.000000,0.591940,0.692171,0.389176,0.702044,0.175511,543.000000,492.000000,51.000000,92.000000,0.000000,0.000000,0.000000,0.000000,0.000000;
#CREDIT:Supra the Hedgehog;
#NOTES:
// measure 0
0000
0000
0000
0000
,  // measure 1
0000
0000
0000
0000
,  // measure 2
0000
0000
0000
0000
,  // measure 3
0000
0000
0000
0000
,  // measure 4
1001
0000
2000
0000
3020
0000
0031
1000
,  // measure 5
0100
0001
0010
0100
1100
1000
1001
0000
,  // measure 6
0002
0000
0023
0000
1030
0001
0100
1000
,  // measure 7
0001
0100
0110
0010
1010
0000
2000
0000
,  // measure 8
3002
0000
0103
1000
0100
0010
1000
0001
,  // measure 9
0011
0010
0110
0000
1100
0000
1001
0000
,  // measure 10
0001
0000
0100
0000
0010
1000
0010
0000
1000
0000
0001
0000
1001
0000
0000
0000
,  // measure 11
0002
0000
0203
0000
1300
0001
0010
1000
,  // measure 12
0001
0010
0011
0001
1001
0000
2000
0000
,  // measure 13
3200
0000
0301
1000
0010
0001
1000
0010
,  // measure 14
0110
0100
0101
0000
0002
0000
2003
0000
,  // measure 15
3010
0001
0010
0100
0001
1000
1100
0100
,  // measure 16
0110
0000
0000
0000
0011
0000
0000
0000
1001
0000
0000
0000
1000
0000
0010
0100
,  // measure 17
0010
1010
0101
1001
,  // measure 18
2000
0100
0000
0100
3002
0100
0000
0100
,  // measure 19
0023
0100
0000
0100
0032
1000
0000
1000
,  // measure 20
0203
0000
0010
0000
0000
0000
0310
1000
0020
0000
1000
0000
1030
0100
0010
0001
,  // measure 21
2000
0000
0000
0000
0000
0000
0001
0000
0000
0000
0000
0000
0000
0000
0000
0000
0000
0000
3001
0000
0000
0010
0000
0000
0100
0000
0000
0000
1000
0000
0000
0000
0100
0000
0000
0000
1000
0000
0000
0000
0100
0000
0000
0000
1000
0000
0000
0000
,  // measure 22
0002
0100
0000
0100
0023
0100
0031
1000
,  // measure 23
0200
0010
0000
0010
2300
0001
0000
0001
,  // measure 24
3020
0000
0100
0000
0000
0000
0100
0000
1000
0000
1000
0000
0000
0000
0130
0010
,  // measure 25
0200
0010
0000
0010
0301
0010
0100
1000
,  // measure 26
0002
0010
0000
0010
2003
0010
0000
0010
,  // measure 27
3200
0010
0000
0010
2300
0001
0000
0001
,  // measure 28
3020
0000
0100
0000
0000
0000
0130
0001
0200
0000
0001
0000
0301
0010
0100
1000
,  // measure 29
0001
0100
0001
0100
0001
0100
0010
1000
0010
1000
0010
1000
,  // measure 30
0200
1000
0000
1000
0320
0100
0032
0100
,  // measure 31
2003
0010
0000
0010
3200
0010
0000
0010
,  // measure 32
1300
1100
0000
1100
1010
1010
0000
1010
,  // measure 33
0101
0101
0000
0011
0000
1100
0000
1001
,  // measure 34
0000
0000
0000
0000
0000
0000
0000
0000
0000
0000
0000
0000
0100
0010
0100
0010
,  // measure 35
0100
0000
0002
0000
2003
0000
3100
0001
,  // measure 36
0100
0000
0010
0000
0001
0000
1000
0000
0010
0100
0010
0100
0010
0000
0000
0000
,  // measure 37
2000
0000
3002
0003
0011
0010
0110
0100
,  // measure 38
1100
0000
1000
0000
0010
0100
0010
0100
0010
0000
0000
0000
2000
0000
0000
0000
,  // measure 39
3200
0000
0310
1000
0010
0100
1000
0001
,  // measure 40
0100
0010
0100
0010
0200
0000
0000
0000
0320
0000
0000
0000
2030
0000
0000
0000
,  // measure 41
3100
0001
2000
0000
3020
0000
0032
0000
,  // measure 42
1003
0100
0010
0100
1000
0100
0010
0100
,  // measure 43
1000
0100
0010
0100
1000
0010
0100
0001
,  // measure 44
0010
0001
0100
0001
0010
0001
0100
0001
,  // measure 45
0010
0001
0100
0010
1000
0100
0110
0000
,  // measure 46
0001
0000
0100
0000
1000
0000
0100
0000
0010
1000
0100
0000
0010
0000
0001
0000
,  // measure 47
0100
0010
1010
0000
0001
0010
1000
0010
,  // measure 48
0100
1000
0001
0000
0100
0000
0010
0000
1000
0000
0100
0000
0010
0000
0000
0000
,  // measure 49
0011
0000
0001
0000
0000
0000
1000
0100
1000
0000
0010
0000
0001
0000
0010
0000
,  // measure 50
0010
1000
0100
0000
1100
1000
0010
0100
,  // measure 51
0001
0010
0100
0000
0010
0000
0001
0000
2000
0000
0000
0000
3020
0000
0000
0000
,  // measure 52
0032
0000
0000
0000
1003
0000
0100
0000
0001
1000
0100
0000
0001
0000
0100
0000
,  // measure 53
0020
0000
0000
0000
0230
0000
0000
0000
2300
0000
0000
0000
0000
0000
3001
0010
,  // measure 54
0002
0100
1000
0203
,  // measure 55
2300
0000
0000
0000
3002
0000
0000
0000
0013
0100
0001
0000
0010
0000
1000
0000
,  // measure 56
0020
0000
0000
0000
0032
0000
0000
0000
0203
0000
0000
0000
0000
0000
0310
1000
,  // measure 57
0020
0001
2030
0000
,  // measure 58
3002
0000
0023
0000
,  // measure 59
0230
0000
0000
0000
0000
0000
0000
0000
2300
0000
0000
0000
0000
0000
3001
0100
,  // measure 60
0020
0000
0001
0000
,  // measure 61
1000
0230
0302
0000
,  // measure 62
0010
0000
1003
0100
0020
0000
0000
0000
,  // measure 63
0032
0000
2003
0000
,  // measure 64
0010
0000
0000
0000
0000
0000
3100
0010
0001
0000
0000
0000
0000
0000
0000
0000
,  // measure 65
1000
0000
0010
0000
0100
0010
0100
0000
0002
0000
0010
0000
0010
0000
0010
0000
,  // measure 66
2003
0010
0010
0010
3200
0010
0010
0010
,  // measure 67
2300
0000
0001
0000
0001
0000
0001
0000
3020
0000
0100
0000
0100
0000
0130
0001
,  // measure 68
0100
0001
0010
0100
1000
0001
0100
0010
,  // measure 69
1000
0001
0020
0100
0032
1000
1000
1000
,  // measure 70
0203
0001
0320
0001
2030
0100
0100
0100
,  // measure 71
3002
0100
0100
0103
1001
0000
2200
3300
,  // measure 72
0022
0033
1000
0010
0001
0010
1000
0100
,  // measure 73
1100
1000
1001
0000
0202
0303
2020
3030
,  // measure 74
0001
0010
1000
0010
0001
0100
0101
0001
,  // measure 75
1001
1000
0001
0010
0100
1000
0010
0100
,  // measure 76
0001
0000
0100
0000
0010
0000
1000
0000
0001
0010
0100
1000
0001
0010
0100
1000
,  // measure 77
0001
0001
0000
1000
1100
0100
0000
0010
,  // measure 78
0011
0001
0000
0100
0110
0010
0000
1001
;
