#VERSION:0.83;
#TITLE:drop pop candy;
#SUBTITLE:;
#ARTIST:ギガP & れをる;
#TITLETRANSLIT:;
#SUBTITLETRANSLIT:;
#ARTISTTRANSLIT:Giga-P & Reol;
#GENRE:;
#ORIGIN:;
#TAGS:;
#CREDIT:;
#BANNER:drop pop candy.png;
#BACKGROUND:drop pop candy-bg.png;
#PREVIEWVID:;
#JACKET:drop pop candy-jacket.png;
#CDIMAGE:;
#DISCIMAGE:;
#LYRICSPATH:;
#CDTITLE:cdtitle.png;
#MUSIC:drop pop candy.ogg;
#OFFSET:-0.075000;
#SAMPLESTART:53.612999;
#SAMPLELENGTH:15.000000;
#SELECTABLE:YES;
#BPMS:0.000000=130.000000
;
#STOPS:;
#DELAYS:;
#WARPS:;
#TIMESIGNATURES:0.000000=4=4
;
#TICKCOUNTS:0.000000=4
;
#COMBOS:0.000000=1
;
#SPEEDS:0.000000=1.000000=0.000000=0
;
#SCROLLS:0.000000=1.000000
;
#FAKES:;
#LABELS:0.000000=Song Start
;
#BGCHANGES:;
#KEYSOUNDS:;
#ATTACKS:
;

//---------------dance-single - ----------------
#NOTEDATA:;
#CHARTNAME:;
#CHARTHASH:1677267516;
#STEPSTYPE:dance-single;
#BANNER:;
#DESCRIPTION:;
#CHARTSTYLE:;
#DIFFICULTY:Beginner;
#METER:2;
#METERF:2.000000;
#LASTSECONDHINT:104.382683;
#RADARVALUES:0.116006,0.184577,0.018668,0.028002,0.000000,87.000000,85.000000,2.000000,3.000000,0.000000,0.000000,0.000000,0.000000,0.000000,0.116006,0.184577,0.018668,0.028002,0.000000,87.000000,85.000000,2.000000,3.000000,0.000000,0.000000,0.000000,0.000000,0.000000;
#CREDIT:Supra the Hedgehog;
#NOTES:
0000
0000
0000
0000
,
0000
0000
0000
0000
,
0000
0000
0000
0000
,
0000
0000
0000
0000
,
0000
0000
0000
0000
,
1000
0000
1000
0000
,
0001
0000
0000
0000
,
0001
0000
0001
0000
,
1000
0000
0000
0000
,
1000
0000
0000
0000
,
0001
0000
0000
0000
,
0100
0000
0000
0000
,
0010
0000
0000
0000
,
0001
0000
0000
0000
,
1000
0000
0000
0000
,
0010
0000
0010
0000
,
0100
0000
0100
0000
,
1000
0000
0000
0000
,
0001
0000
1000
0000
,
0001
0000
0000
0000
,
1000
0000
0001
0000
,
0100
0000
0000
0000
,
0010
0000
0100
0000
,
0010
0000
0000
0000
,
0100
0000
0010
0000
,
1000
0000
1000
0000
,
0001
0000
0001
0000
,
0100
0000
0100
0000
,
0010
0000
0000
0000
,
1000
0001
1000
0000
,
0001
0000
1000
0000
,
0100
0000
0000
0000
,
0010
0000
0010
0000
,
0001
1000
0001
0000
,
1000
0000
0001
0000
,
0010
0000
0000
0000
,
0100
0000
0100
0000
,
1000
0000
0010
0000
,
0100
0000
0001
0000
,
0010
0000
0100
0000
,
1000
1000
0000
0001
,
0001
0000
1000
0000
,
1001
0000
0100
0000
,
1001
0000
0010
0000
,
0001
0000
0100
0000
,
0020
0000
0000
0000
,
0030
0000
1000
0000
,
0200
0000
0000
0000
,
0300
0000
0020
0030
,
0001
0000
0001
0000
,
1000
0000
0000
0000
,
1000
0000
1000
0000
,
0001
0000
0000
0000
,
0100
0000
0100
0000
,
0010
0000
0000
0000
,
0010
0000
0010
0000
,
0100
0000
0100
0000
;

//---------------dance-single - ----------------
#NOTEDATA:;
#CHARTNAME:;
#CHARTHASH:2147483647;
#STEPSTYPE:dance-single;
#BANNER:;
#DESCRIPTION:;
#CHARTSTYLE:;
#DIFFICULTY:Easy;
#METER:7;
#METERF:7.000000;
#LASTSECONDHINT:105.074989;
#RADARVALUES:0.284016,0.371604,0.158675,0.140008,0.000000,213.000000,196.000000,17.000000,15.000000,0.000000,0.000000,0.000000,0.000000,0.000000,0.284016,0.371604,0.158675,0.140008,0.000000,213.000000,196.000000,17.000000,15.000000,0.000000,0.000000,0.000000,0.000000,0.000000;
#CREDIT:Supra the Hedgehog;
#NOTES:
// measure 0
0000
0000
0000
0000
,  // measure 1
0000
0000
0000
0000
,  // measure 2
0000
0000
0000
0000
,  // measure 3
0000
0000
0000
0000
,  // measure 4
0000
0000
0000
0000
,  // measure 5
1000
1001
0001
1001
,  // measure 6
0100
0000
0000
0010
0000
0100
0000
0000
,  // measure 7
0001
1001
1000
1001
,  // measure 8
0010
0000
0000
0100
0000
0010
0000
0000
,  // measure 9
1000
0100
1000
0000
,  // measure 10
0010
0000
0100
0001
,  // measure 11
1000
0100
0010
0001
,  // measure 12
1000
0001
0000
0100
0000
0001
1000
0000
,  // measure 13
0001
0010
0001
0000
,  // measure 14
0100
0000
0010
1000
,  // measure 15
0001
0000
0010
0000
0100
0100
0000
0010
,  // measure 16
0000
0001
0000
1000
0020
0000
0230
0000
,  // measure 17
0301
0010
0100
1000
,  // measure 18
0010
0000
1000
0001
0000
1000
0001
0000
,  // measure 19
1000
0100
0010
0001
,  // measure 20
0100
0000
0001
1000
0000
0001
1000
0000
,  // measure 21
0010
0100
0001
1000
,  // measure 22
0001
0000
0010
0100
0000
0010
0100
0000
,  // measure 23
1000
0001
0100
0010
,  // measure 24
1000
0000
0010
0100
0000
0010
0200
0000
,  // measure 25
0301
0002
1003
2000
,  // measure 26
3100
0200
0310
0020
,  // measure 27
0031
0002
0103
0200
,  // measure 28
0310
0000
0000
0000
,  // measure 29
1000
0000
0100
0000
0010
0001
0010
0000
,  // measure 30
0001
0100
0010
1000
,  // measure 31
0001
0000
0010
0000
0100
0100
0000
0000
,  // measure 32
2000
3000
0001
0110
,  // measure 33
0001
0000
0100
0000
0010
1000
0010
0000
,  // measure 34
1000
0100
0010
0001
,  // measure 35
1000
0000
0010
0000
0100
0100
0000
0000
,  // measure 36
0002
0003
1000
0110
,  // measure 37
1001
0001
0100
0010
,  // measure 38
1001
1000
0100
0010
,  // measure 39
0110
0100
1000
0001
,  // measure 40
1001
0110
0000
0110
,  // measure 41
1001
0000
1000
0000
0010
0100
0010
0000
,  // measure 42
1001
0000
0001
0000
0010
0100
0010
0000
,  // measure 43
0110
0000
0100
0000
1000
0001
1000
0000
,  // measure 44
0010
0100
0001
1000
,  // measure 45
0200
0000
0000
0000
,  // measure 46
0300
1000
0001
0100
,  // measure 47
0020
0000
0000
0030
,  // measure 48
1000
0001
2002
3003
,  // measure 49
1000
1000
0001
0001
,  // measure 50
0100
0000
0000
0010
0000
0100
0000
0000
,  // measure 51
0001
0001
1000
1000
,  // measure 52
0100
0000
0000
0010
0000
0100
0000
0000
,  // measure 53
1000
1001
0010
0010
,  // measure 54
0100
0000
0000
0001
0000
1000
0000
0000
,  // measure 55
0001
0001
0010
0010
,  // measure 56
0100
0000
0000
1000
0000
0001
0000
1000
;

//---------------dance-single - ----------------
#NOTEDATA:;
#CHARTNAME:;
#CHARTHASH:2147483647;
#STEPSTYPE:dance-single;
#BANNER:;
#DESCRIPTION:;
#CHARTSTYLE:;
#DIFFICULTY:Medium;
#METER:10;
#METERF:10.000000;
#LASTSECONDHINT:105.074989;
#RADARVALUES:0.410689,0.477776,0.084005,0.280015,0.028002,308.000000,299.000000,9.000000,30.000000,0.000000,0.000000,0.000000,0.000000,0.000000,0.410689,0.477776,0.084005,0.280015,0.028002,308.000000,299.000000,9.000000,30.000000,0.000000,0.000000,0.000000,0.000000,0.000000;
#CREDIT:Supra the Hedgehog;
#NOTES:
0000
0000
0000
0000
,
0000
0000
0000
0000
,
0000
0000
0000
0000
,
0000
0000
0000
0000
,
0000
0000
0000
0000
,
1000
0010
1000
0000
0001
0100
0001
0000
,
0010
0100
0010
0001
0000
0001
1000
0000
,
0001
0010
0001
0000
1000
0100
1000
0000
,
0010
0100
0010
1000
0000
1000
0001
0000
,
1000
0000
0100
0010
0200
0000
1300
0002
,
0000
0103
0010
0100
0010
2000
0000
3001
,
0000
0010
0100
1000
0020
0000
0130
0001
,
0010
0001
0000
2000
0000
3100
1000
0000
,
0001
0000
0010
0100
0020
0000
0031
2000
,
0000
3010
0100
0010
0100
0002
0000
1003
,
0100
0000
0010
0001
0010
0010
0000
0100
,
0000
1000
0000
0001
0200
0000
0320
0000
,
2030
0000
3001
0010
1000
0010
0001
0000
,
1000
0010
0100
0020
0000
1030
0001
0010
,
0002
0000
1003
0100
0001
0100
1000
0000
,
0001
0100
0010
0200
0000
0301
1000
0100
,
0020
0000
0130
0001
0100
1000
0010
0000
,
0100
0001
0010
0002
0000
1003
0100
0010
,
0200
0000
1300
0000
0001
0100
0001
0000
,
1000
0010
1000
0200
0000
0310
0001
0100
,
0002
0000
1003
0010
2000
0000
3100
0010
,
0002
0000
0013
0100
2000
0000
3010
1000
,
0020
0000
0130
0001
0200
0000
0310
1000
,
0100
0100
0100
1001
,
1000
0010
0100
0001
0100
0010
0000
0010
,
0100
0001
1000
0100
1000
0001
0010
0001
,
1000
0000
0010
0100
0010
0010
0000
1000
,
0200
0000
0300
1000
0001
0001
1000
0000
,
0001
0010
0100
1000
0100
0010
0000
0010
,
0100
1000
0001
0100
0001
1000
0010
1000
,
0001
0000
0010
0100
0010
0010
0000
0001
,
0200
0000
0300
0001
1000
0100
0010
0001
,
0000
0000
1000
0000
1000
0000
0010
0000
0100
0000
0000
0001
0000
0000
0100
0000
,
0000
0000
0001
0000
0001
0000
1000
0000
0010
0000
0000
0100
0000
0000
0010
0000
,
0000
0000
0100
0000
0100
0000
0001
0000
1000
0000
0000
0100
0000
0000
1000
0000
,
0000
0100
0010
0001
0000
0100
0010
1000
,
0000
0000
0001
0000
0001
0000
0010
0000
0100
0000
0000
1100
0000
0000
1001
0000
,
0000
0000
1000
0000
1000
0000
0010
0000
0100
0000
0000
0101
0000
0000
1001
0000
,
0000
0000
0010
0000
0010
0000
1000
0000
0100
0000
0000
0110
0000
0000
0011
0000
,
0000
0001
0100
0010
1000
0100
0010
0001
,
0000
0002
1000
0000
0000
0000
1000
0000
,
0003
1000
0010
0100
0001
0010
0100
1000
,
0000
0001
2000
0000
0000
0000
3000
0100
,
0010
0001
1000
0000
2002
0000
3003
0000
,
0001
0100
0000
0000
0100
0010
0000
0000
,
0010
1000
0000
0100
0000
1000
0001
0000
,
1000
0010
0000
0000
0010
0100
0000
0000
,
0100
0001
0000
0010
0000
0001
1000
0000
,
0001
0001
1001
0000
1000
1000
0000
0000
,
0010
0010
0000
0100
0000
0001
0001
0000
,
1000
1000
0000
0000
0100
0100
0000
0000
,
0010
0010
0000
0001
0000
1000
1000
0001
;

//---------------dance-single - ----------------
#NOTEDATA:;
#CHARTNAME:;
#CHARTHASH:906863694;
#STEPSTYPE:dance-single;
#BANNER:;
#DESCRIPTION:;
#CHARTSTYLE:;
#DIFFICULTY:Hard;
#METER:13;
#METERF:13.000000;
#LASTSECONDHINT:105.074989;
#RADARVALUES:0.568031,0.637035,0.476026,0.289349,0.102672,426.000000,375.000000,51.000000,31.000000,0.000000,0.000000,0.000000,0.000000,0.000000,0.568031,0.637035,0.476026,0.289349,0.102672,426.000000,375.000000,51.000000,31.000000,0.000000,0.000000,0.000000,0.000000,0.000000;
#CREDIT:Supra the Hedgehog;
#NOTES:
0000
0000
0000
0000
,
0000
0000
0000
0000
,
0000
0000
0000
0000
,
0000
0000
0000
0000
,
0000
0000
0000
0000
,
1000
1000
1010
0001
0100
0100
0101
0010
,
1000
1000
1001
0100
0010
0100
0110
1000
,
0001
0001
0011
1000
0100
0100
1100
0010
,
0001
0000
0001
0000
1001
0000
1000
0010
1000
0000
0010
0100
0010
0000
1000
0000
,
0001
0001
1000
0100
0020
0000
0031
2000
,
0000
3100
0100
1000
0010
0200
0000
0301
,
0000
1000
0100
0010
0021
0000
0130
1000
,
0010
1010
0000
0102
0000
1003
1001
0001
,
1000
1000
0001
0010
0200
0000
1300
0002
,
0000
0013
0010
0001
0100
0020
0000
1030
,
0001
0000
0000
0000
0010
0000
0100
0000
1000
0001
1000
0000
0000
0000
0010
0000
,
0000
1000
0000
0001
0200
0010
0320
1000
,
2030
0000
3100
0100
0001
0100
0100
1000
,
0001
0010
0001
0200
0000
0310
1000
0001
,
0102
0000
0013
0010
1000
0010
0010
0001
,
1000
0100
1000
0020
0000
1030
0001
0100
,
0210
0000
0301
0001
0010
0001
0001
0100
,
1000
0100
0010
2000
0000
3001
0001
0100
,
0020
0000
0000
0000
0130
0000
0000
0000
0001
0000
0010
0100
0010
0000
0010
0000
,
0001
1000
0100
0020
0000
0130
2000
0001
,
3001
0100
0002
1000
1003
0010
2000
0100
,
3100
0010
0002
0100
0103
0010
0200
0001
,
0301
0100
0020
1000
1030
0100
0010
0001
,
0011
1100
0110
1001
,
1000
0000
0010
0000
0100
0000
0001
0000
1000
0100
1000
0000
0010
0000
1000
0000
,
0100
0010
0100
0001
0100
0010
1000
0010
,
0001
0000
0000
0000
0011
0000
0100
0000
1010
0000
1010
0000
0000
0000
1000
0100
,
2000
0000
0000
0000
3000
0000
0001
0100
0001
0000
0001
0000
0010
0000
0000
0000
,
0001
0000
0100
0000
0010
0000
1000
0000
0001
0010
0001
0000
0100
0000
0001
0000
,
0010
0100
0010
1000
0010
0100
0001
0100
,
1000
0000
0000
0000
1100
0000
0010
0000
0101
0000
0101
0000
0000
0000
0001
0010
,
0002
0000
0000
0000
0003
0000
1000
0010
1000
0000
0100
0000
0010
0100
1000
0000
,
0011
0000
0001
0000
1000
0000
0100
0000
1000
0000
0010
0100
0000
0000
0001
0000
,
1010
0000
1000
0000
0010
0000
0100
0000
0010
0000
1000
0001
0000
0000
0010
0000
,
1100
0000
0100
0000
0010
0000
0001
0000
0010
0000
0100
1000
0000
0000
0010
0000
,
0101
0100
0110
1010
0000
1000
1100
0011
,
1001
0000
1000
0000
0010
0000
0100
0000
0010
0000
1000
0100
0000
0010
0001
0000
,
1100
0000
0100
0000
0010
0000
0001
0000
0010
0000
0100
1000
0000
0001
0100
0000
,
1010
0000
1000
0000
0001
0000
0010
0000
0001
0000
0100
0010
0000
1000
0001
0000
,
0100
0001
0001
1000
0100
0010
0010
0001
,
2000
0100
0100
0000
0001
0001
0001
0000
,
3100
1000
1000
0010
0100
0001
0001
0020
,
0000
0000
0031
0100
0002
0000
0000
0000
1000
0000
1000
0000
1003
0000
0100
0010
,
0100
1000
0001
0000
2002
0000
3003
0000
,
1000
0010
1010
0000
0001
0100
0101
0000
,
0010
0001
0011
0100
0000
0100
1100
1000
,
0001
0010
0011
0000
1000
0100
1100
0000
,
0010
1000
1010
0100
0000
0100
0101
0001
,
1000
1000
1010
0000
0001
0001
0101
0000
,
0010
0010
0011
0100
0000
0100
1100
1000
,
0001
0001
0011
0000
0100
0100
0101
0000
,
0010
0010
1010
1000
0000
1000
1001
0001
;
