#VERSION:0.83;
#TITLE:Wuv U;
#SUBTITLE:(Edit);
#ARTIST:kors k;
#TITLETRANSLIT:;
#SUBTITLETRANSLIT:;
#ARTISTTRANSLIT:;
#GENRE:;
#ORIGIN:;
#CREDIT:Credits for banner, jacket and music go to DigiMindAxel;
#BANNER:Wuv U (Edit).png;
#BACKGROUND:Wuv U (Edit)-bg.png;
#PREVIEWVID:;
#JACKET:Wuv U (Edit)-jacket.png;
#CDIMAGE:;
#DISCIMAGE:;
#LYRICSPATH:;
#CDTITLE:cdtitle.png;
#MUSIC:Wuv U (Edit).ogg;
#OFFSET:-1.293000;
#SAMPLESTART:13.778000;
#SAMPLELENGTH:15.000000;
#SELECTABLE:YES;
#BPMS:0.000=173.000,
127.000=86.500,
159.000=173.000;
#STOPS:32.000=1.040,
113.500=0.173,
114.500=0.174,
115.500=0.173,
116.500=0.174;
#DELAYS:;
#WARPS:;
#TIMESIGNATURES:0.000=4=4;
#TICKCOUNTS:0.000=4;
#COMBOS:0.000=1;
#SPEEDS:0.000=1.000=0.000=0;
#SCROLLS:0.000=1.000;
#FAKES:;
#LABELS:0.000=Song Start;
#BGCHANGES:-4.000=Wuv U (Edit).AVI=1.000=1=0=0=StretchNoLoop==CrossFade==,
99999=-nosongbg-=1.000=0=0=0 // don't automatically add -songbackground-
;
#KEYSOUNDS:;
#ATTACKS:
;

//---------------dance-single - ----------------
#NOTEDATA:;
#CHARTNAME:;
#STEPSTYPE:dance-single;
#DESCRIPTION:;
#CHARTSTYLE:;
#DIFFICULTY:Medium;
#METER:8;
#RADARVALUES:0.387692,0.467834,0.293662,0.182273,0.015189,268.000000,239.000000,29.000000,18.000000,0.000000,0.000000,0.000000,0.000000,0.000000,0.387692,0.467834,0.293662,0.182273,0.015189,268.000000,239.000000,29.000000,18.000000,0.000000,0.000000,0.000000,0.000000,0.000000;
#CREDIT:;
#NOTES:
0000
0000
0000
0000
,
0000
0000
0000
0000
,
0000
0000
0000
0000
,
0000
0000
0000
0000
,
0000
0000
0000
0000
,
0010
0010
1000
1000
,
0100
0100
0001
0001
,
0010
0001
1000
0100
,
0110
0000
1001
0000
1000
0001
1000
0000
,
0000
0001
0000
0001
0000
0001
1000
0000
,
0000
0010
1000
0001
,
0100
0010
0000
0100
0010
0000
0200
0000
,
0300
0000
1000
0000
0001
1000
0001
0000
,
0000
1000
0000
1000
0000
1000
0001
0000
,
0000
0100
0001
1000
,
0100
0020
0100
0100
,
0030
0000
0001
0000
1001
0000
0100
1000
,
0100
0000
1000
0001
1000
0001
1000
0000
,
1001
0000
0010
0000
0011
0000
0001
0010
,
0001
0100
0110
0010
,
1010
0000
1000
0000
1001
0000
0010
0001
,
0010
0000
0001
1000
0001
1000
0001
0000
,
1001
0000
0100
0000
1100
0000
1000
0100
,
1000
0020
1000
0100
,
0031
0000
0100
0000
0110
0000
0001
0100
,
0001
0000
1000
0010
1000
0010
1000
0000
,
0000
0001
0001
0000
1001
0000
1000
0001
,
1000
0000
0100
0010
0100
0010
0100
0000
,
0000
1000
0100
0010
,
0001
0100
0110
1000
,
1000
0000
0001
0000
0001
0000
0100
0010
,
0100
0010
1000
0001
1000
0000
1002
0000
,
0000
2003
0000
3200
,
0000
0000
0320
0000
0000
0000
0031
1000
,
0000
0001
0000
0000
0010
0000
0001
0000
0000
0010
0000
0000
0100
0000
0010
0000
,
0000
0100
0000
0000
0010
0000
1000
0000
0010
0000
0010
0000
0100
0000
0010
0000
,
0200
0000
0301
1000
0002
0000
0013
0100
,
1000
0001
1000
0001
0200
0000
0310
1000
,
0002
0000
0103
0001
2000
0000
3001
0001
,
1000
1000
2002
0000
0000
3003
0110
0000
,
0001
0100
0001
0000
1000
0100
0000
0100
,
0000
0100
0001
0000
0000
0000
0100
0000
,
1000
0000
0010
0000
0100
0001
0000
0100
,
0001
0020
0030
0110
,
1000
0010
1000
0000
0001
0010
0000
0010
,
0000
0010
1000
0000
0000
0000
0010
0001
,
0010
0000
0100
1000
0100
0000
0020
0000
,
0000
0000
0031
1000
0001
1000
0001
0100
,
0001
0000
0101
0000
0000
0000
1000
0010
,
1000
0000
1010
0000
0000
0000
0100
0010
,
0100
0000
0001
1000
0001
0000
0110
0000
,
1001
0000
0110
0000
1001
0000
0001
0010
,
0001
0010
0001
0000
0011
0000
1000
0100
,
1000
0100
1000
0000
1100
0000
1001
0000
,
0000
1010
0000
0000
0101
0000
0000
0100
,
0010
0100
0001
0000
1000
0000
2002
0000
,
0000
0000
0000
0000
,
0000
0000
0000
3003
;

//---------------dance-single - ----------------
#NOTEDATA:;
#CHARTNAME:;
#STEPSTYPE:dance-single;
#DESCRIPTION:;
#CHARTSTYLE:;
#DIFFICULTY:Easy;
#METER:6;
#RADARVALUES:0.250264,0.380115,0.050631,0.131642,0.000000,173.000000,168.000000,5.000000,13.000000,0.000000,0.000000,0.000000,0.000000,0.000000,0.250264,0.380115,0.050631,0.131642,0.000000,173.000000,168.000000,5.000000,13.000000,0.000000,0.000000,0.000000,0.000000,0.000000;
#CREDIT:;
#NOTES:
0000
0000
0000
0000
,
0000
0000
0000
0000
,
0000
0000
0000
0000
,
0000
0000
0000
0000
,
0000
0000
0000
0000
,
2000
0000
0000
0000
,
3002
0000
0000
0000
,
0203
0000
0000
0000
,
0310
0001
0100
0001
,
0000
1000
0010
1000
,
0000
0010
0100
0001
,
0100
0010
1000
0001
,
0000
1000
0100
1000
,
0000
0001
0010
0001
,
0000
0100
0010
1000
,
0010
0100
0100
0100
,
0000
1000
0010
1000
,
0010
1000
1000
0001
,
0001
0100
0010
1000
,
0100
0010
0010
0010
,
0000
0001
0100
0001
,
0100
0001
0001
1000
,
1000
0010
0100
0001
,
0010
0200
0000
0000
,
0300
1000
1001
0001
,
1000
0010
0100
0010
,
0000
0100
0100
0001
,
0001
0010
0010
0010
,
0000
0100
0000
0010
,
0000
0001
1001
1000
,
1000
0001
0001
0010
,
0100
0010
0100
2000
,
0000
3002
0000
0203
,
0000
0320
0000
0130
,
0100
0001
0001
1000
,
1000
0000
0010
0000
0010
0000
1000
0100
,
1000
0000
0001
0010
0001
0000
0100
0010
,
0100
0000
0001
1000
0001
0000
1000
0000
,
1001
0001
1001
2000
,
3002
1003
0000
0010
,
0001
0010
0000
0100
,
1000
0100
0000
1000
,
0010
0100
0001
0100
,
0010
0100
0000
0010
,
1000
0010
0000
0100
,
0001
0100
0000
0001
,
0010
0100
1000
0200
,
0000
0010
0310
0001
,
1000
0001
0000
1000
,
0001
1000
0000
0010
,
0100
0001
1000
0010
,
0010
0010
0010
0100
,
0001
0010
0000
0100
,
1000
0010
0000
0100
,
0000
0010
0000
0000
1000
0000
0000
0001
,
0000
0100
0010
0220
,
0000
0000
0000
0000
,
0000
0000
0000
0330
;

//---------------dance-single - ----------------
#NOTEDATA:;
#CHARTNAME:;
#STEPSTYPE:dance-single;
#DESCRIPTION:;
#CHARTSTYLE:;
#DIFFICULTY:Hard;
#METER:12;
#RADARVALUES:0.520780,0.701751,0.465809,0.273409,0.141768,360.000000,314.000000,46.000000,27.000000,0.000000,0.000000,0.000000,0.000000,0.000000,0.520780,0.701751,0.465809,0.273409,0.141768,360.000000,314.000000,46.000000,27.000000,0.000000,0.000000,0.000000,0.000000,0.000000;
#CREDIT:;
#NOTES:
0000
0000
0000
0000
,
0000
0000
0000
0000
,
0000
0000
0000
0000
,
0000
0000
0000
0000
,
0000
0000
0000
0000
,
0100
0000
1100
0000
1000
0010
0000
0010
,
0100
0000
0110
0000
0010
1000
0000
1000
,
0001
0000
0011
0000
0010
0100
0000
0100
,
0010
0000
1001
0000
0001
1000
0100
0000
,
0000
1000
0000
1000
0100
0010
0200
0000
,
0300
0000
0010
0001
1000
0001
0100
0000
,
0010
1000
0000
0010
0100
0001
0020
0000
,
0030
0000
1001
0000
1000
0001
0010
0000
,
0000
0001
0000
0001
0010
0100
0020
0000
,
0030
0000
0001
1000
0010
1000
0100
1000
,
0001
0010
0000
0010
0000
0010
0020
0000
,
0130
0000
0011
0000
1001
0000
0001
0010
,
0001
0010
0001
0001
1000
1000
0001
0100
,
0101
0000
0010
0010
1010
0000
0100
0001
,
0100
0000
0020
0000
2030
0000
3100
0010
,
0110
0000
1010
0000
1001
0000
1000
0010
,
1000
0010
1000
1000
0001
0001
1000
0100
,
1100
0000
0010
0010
0011
0000
0100
1000
,
0100
0000
0020
0000
0032
0000
1003
0001
,
1001
0000
0110
0000
1001
0000
0010
1000
,
0010
1000
0010
0100
0001
0100
0010
0000
,
0000
0000
1000
0001
1000
0000
1000
0000
1001
0000
0000
0000
0100
0000
0001
0000
,
0100
0001
0001
0010
1000
0010
0001
0000
,
0000
0011
1100
1010
,
0101
0000
0010
0100
1001
0000
1100
0000
,
1100
0000
0011
0000
0011
0000
0100
0010
,
1000
0000
0001
0000
1000
0000
0100
0010
0200
0000
0000
0000
2300
0000
0000
0000
,
0000
3020
0000
0230
,
0000
0000
0000
0000
0302
0000
0000
0000
0000
0000
0000
0000
1003
0000
0001
0200
,
0000
0001
0000
0301
0010
0000
0001
0020
0000
0130
1000
0100
1000
0000
0001
2000
,
0000
0001
0000
3001
1000
0000
1000
0100
0010
0100
1000
0100
0010
0000
0001
0010
,
0200
0000
0000
0310
0000
0001
0010
0100
2000
0000
0000
0000
3010
0100
0001
0100
,
0010
0000
0100
0001
0000
0010
0100
1000
0200
0000
0300
0000
1001
0000
0010
1000
,
2200
0000
3300
0000
1001
0000
0100
0001
0022
0000
0033
0000
1000
0001
0100
0000
,
0001
1000
0100
0010
0002
0000
2000
0000
0000
0000
3003
0000
0110
0000
0000
0000
,
0010
1000
0100
0000
1000
0001
0000
0010
,
0100
1000
0001
0000
1001
0000
0010
0100
,
0001
0100
0010
0000
1000
0100
0000
1000
,
0010
0100
0001
0000
1001
0000
0110
0000
,
0100
0001
0010
0000
0001
1000
0000
0100
,
0010
0001
1000
0000
1001
0000
1000
0100
,
0001
0100
1000
0010
0001
0010
2000
0000
,
0000
0100
3100
0010
0100
0010
0001
0010
,
1000
0010
0001
0000
0101
0000
1000
0100
,
0001
0100
1000
0000
1010
0000
0001
0010
,
0100
1000
0001
0010
0100
0010
0011
0000
,
1010
0000
0101
0000
1100
0000
1000
0010
,
0100
0001
0010
0100
0010
0001
0100
0010
,
1000
0100
0010
0001
1001
0000
0110
0100
,
0000
0101
0001
0000
1010
1000
0000
0001
,
1000
0001
0100
0010
1000
0100
0020
0000
,
0000
0000
0000
0000
,
0000
0000
0000
0030
;

//---------------dance-single - ----------------
#NOTEDATA:;
#CHARTNAME:;
#STEPSTYPE:dance-single;
#DESCRIPTION:;
#CHARTSTYLE:;
#DIFFICULTY:Beginner;
#METER:2;
#RADARVALUES:0.111389,0.197589,0.050631,0.000000,0.000000,77.000000,72.000000,5.000000,0.000000,0.000000,0.000000,0.000000,0.000000,0.000000,0.111389,0.197589,0.050631,0.000000,0.000000,77.000000,72.000000,5.000000,0.000000,0.000000,0.000000,0.000000,0.000000,0.000000;
#CREDIT:;
#NOTES:
0000
0000
0000
0000
,
0000
0000
0000
0000
,
0000
0000
0000
0000
,
0000
0000
0000
0000
,
0000
0000
0000
0000
,
1000
0000
0000
0000
,
0000
0000
0000
0000
,
0001
0000
0000
0000
,
0000
0010
0000
0000
,
0000
1000
0000
0000
,
0000
0001
0000
0000
,
0000
0100
0000
0000
,
0000
0001
0000
0000
,
0000
0010
0000
0000
,
0000
0100
0000
0100
,
0000
0100
0000
0000
,
0000
1000
0000
1000
,
0000
0010
0000
0010
,
0000
0100
0000
0100
,
0000
0001
0000
1000
,
0000
0001
0000
0001
,
0000
0010
0000
0010
,
0000
0100
0000
0100
,
0000
1000
0000
0000
,
0000
0001
0000
0010
,
0000
0001
0000
0100
,
0000
0010
0000
1000
,
0000
0100
0000
0000
,
0000
1001
0000
0000
,
0000
0000
0000
0001
,
0000
1000
0000
0010
,
0000
0100
0000
1001
,
0000
0000
0000
0010
,
0000
0100
0000
1000
,
0000
0000
0000
0001
,
0000
1000
0000
0010
,
0010
0010
0000
0100
,
0100
0100
0000
1000
,
0000
0001
0000
1000
,
1000
1000
0000
1001
,
0000
0000
0000
0001
,
0000
0000
0000
0100
,
0000
0000
0000
0010
,
0000
0000
0000
1000
,
0000
0000
0000
0001
,
0000
0000
0000
0100
,
0000
0000
0000
0010
,
0000
0000
0000
1001
,
0000
0000
0000
0001
,
0000
0000
0000
0010
,
0000
0000
0000
0100
,
0000
0100
0000
0100
,
0000
0000
0000
0001
,
0000
0000
0000
1000
,
0000
0000
0000
0000
,
0000
0000
0000
1001
;

//---------------dance-single - ----------------
#NOTEDATA:;
#CHARTNAME:;
#STEPSTYPE:dance-single;
#DESCRIPTION:;
#CHARTSTYLE:;
#DIFFICULTY:Challenge;
#METER:14;
#RADARVALUES:0.691480,1.023387,0.617703,0.212652,0.506314,478.000000,417.000000,61.000000,21.000000,0.000000,0.000000,0.000000,0.000000,0.000000,0.691480,1.023387,0.617703,0.212652,0.506314,478.000000,417.000000,61.000000,21.000000,0.000000,0.000000,0.000000,0.000000,0.000000;
#CREDIT:;
#NOTES:
// measure 0
0000
0000
0000
0000
,  // measure 1
0000
0000
0000
0000
,  // measure 2
0000
0000
0000
0000
,  // measure 3
0000
0000
0000
0000
,  // measure 4
0000
0000
0000
0000
,  // measure 5
0001
0000
1000
0002
0000
1000
0000
1003
,  // measure 6
0010
0100
0001
0010
0010
0001
0010
0100
,  // measure 7
1000
0000
0001
2000
0000
0001
0000
3001
,  // measure 8
0100
0000
1001
0000
0100
1000
0001
0000
,  // measure 9
0100
0000
0010
0000
0000
0000
1000
0100
1000
0000
0001
0000
0100
0000
0000
0000
,  // measure 10
1001
0000
0000
0000
1000
0000
0001
1000
0001
0000
1000
0000
0100
0000
0000
0000
,  // measure 11
1000
0000
0010
0000
0000
0000
0100
0001
0100
0000
0010
0000
1000
0000
0000
0000
,  // measure 12
1001
0000
0101
0000
0010
0001
1000
0000
,  // measure 13
0010
0000
0100
0000
0000
0000
0001
0010
0001
0000
1000
0000
0010
0000
0000
0000
,  // measure 14
1001
0000
0000
0000
1000
0000
0000
0000
1100
0000
0100
1000
0001
0000
0000
0000
,  // measure 15
0011
0000
0000
0000
0001
1000
0001
1000
0001
1000
0001
1000
0001
1000
0001
1000
,  // measure 16
0001
0000
0110
0000
1001
0000
0010
1000
,  // measure 17
0010
0000
1000
0000
0001
0000
0100
0001
0100
0000
0001
0100
0001
0000
0010
0000
,  // measure 18
0002
0000
1003
0000
0100
0000
0100
0000
1100
0000
0100
0000
0010
0000
0001
0010
,  // measure 19
0001
0100
0020
0000
2030
0000
3010
0100
,  // measure 20
0101
0000
0110
0000
1001
0000
0010
0001
,  // measure 21
0010
0000
0001
0000
1000
0000
0100
1000
0100
0000
1000
0100
1000
0000
0010
0000
,  // measure 22
2000
0000
3001
0000
0100
0000
0100
0000
0101
0000
0100
0000
0010
0000
1000
0010
,  // measure 23
1000
0100
0020
0000
0032
0000
2003
0100
,  // measure 24
0001
3000
0110
0000
1001
0000
0100
0001
,  // measure 25
0010
0000
0001
0000
0100
0000
0010
1000
0010
0000
0100
0001
0100
0000
0010
0000
,  // measure 26
0000
0000
1000
0001
1000
0000
1000
0000
1010
0000
1000
0000
0100
0000
0010
0100
,  // measure 27
0010
0100
0010
0010
0010
0010
0020
0000
,  // measure 28
0000
0030
0011
0001
1010
0010
0101
0100
,  // measure 29
1100
0000
1000
0000
0001
0010
0100
1000
0100
0000
0010
0000
0001
0000
0001
0000
,  // measure 30
0101
0001
1000
1000
1001
1000
0010
0101
,  // measure 31
0010
0000
0000
0000
1100
0000
0000
0000
0010
0000
0000
0000
0100
0000
0010
0000
0200
0000
0000
0000
0000
0000
0000
0000
0301
0000
0000
0000
1000
0000
0000
0100
,  // measure 32
0000
1000
0000
0000
0010
0000
0100
0000
0001
0000
0000
0000
0010
0000
0000
0001
0000
0010
0000
0000
0100
0000
1000
0000
0010
0000
0000
0000
0100
0000
0000
0001
,  // measure 33
0000
0100
0000
0000
0010
0000
1000
0000
0100
0000
0000
0000
1000
0000
0000
0010
0000
1000
0000
0000
0100
0000
0010
0000
0001
0000
0000
0000
1000
0000
0000
0100
,  // measure 34
1000
0100
1000
0000
0100
0000
0010
0000
0001
0000
0000
0000
0010
0000
0000
0100
0010
0100
0010
0000
0100
0000
1000
0000
0010
0000
0000
0000
0100
0000
0000
0001
,  // measure 35
0010
0001
0010
0000
0001
0000
0010
0000
0100
0000
0000
0000
0100
0000
0010
0100
0010
0000
0100
0000
1000
0000
0100
0000
0010
0000
0011
0000
0000
0000
0011
0000
,  // measure 36
0000
0101
0000
0101
0000
1100
0000
1100
0000
1010
0000
1010
0000
1100
0000
0101
,  // measure 37
0000
0011
0000
1010
0000
0011
0000
0101
0000
1100
0000
1010
0010
1000
0010
1000
,  // measure 38
0020
0000
0000
0000
0000
0000
1030
0100
0010
0000
0001
0000
0010
0000
0001
0000
0020
0000
0000
0000
0000
0000
0031
0010
0100
0000
0100
0000
2000
0000
0000
0000
,  // measure 39
3001
0010
0001
0010
0001
0000
0100
0010
0100
0000
0000
0000
0000
0000
0010
1000
0010
0000
0100
0000
0001
0000
1000
0000
1001
0000
0000
0000
0000
0000
0000
0000
,  // measure 40
0001
0000
1000
0000
0100
0000
0000
0000
1001
0000
1000
0000
0000
0000
0001
0100
,  // measure 41
0001
0000
0010
0000
0100
0000
0000
0000
1001
0000
0000
0000
0001
0000
0100
0010
,  // measure 42
0100
0000
0010
0000
1000
0000
0000
0000
1001
0000
0002
0000
0000
0000
1003
0100
,  // measure 43
1000
0100
0110
0000
1001
0000
0100
0000
,  // measure 44
1000
0000
0001
0000
0010
0000
0000
0000
1001
0000
0001
0000
0000
0000
1000
0010
,  // measure 45
1000
0100
0010
0000
1001
0000
0010
0001
,  // measure 46
1000
0100
0010
0100
1000
0010
0200
0000
,  // measure 47
0000
0000
0310
0100
0001
1000
0001
1000
0001
0000
1001
0000
0010
0000
0100
0000
,  // measure 48
1000
0000
0100
0000
0010
0000
0000
0000
1001
0000
0001
0000
0000
0000
1000
0100
,  // measure 49
1000
0000
0100
0000
0010
0000
0000
0000
2001
0000
0000
0000
3001
0000
0100
0001
,  // measure 50
0100
0000
0010
1000
0010
0000
0100
0000
0001
0000
0010
0000
0100
0010
0100
0010
,  // measure 51
0100
0000
0010
0000
0200
0000
0000
0000
0310
0000
0000
0000
0001
0000
1000
0100
,  // measure 52
1000
0000
0010
0000
0100
0000
0001
0000
0010
0000
0100
0000
0010
0000
0001
0010
,  // measure 53
0001
1000
0100
1000
1001
0000
1010
0010
,  // measure 54
0010
0011
0010
0010
1100
0100
0000
1010
,  // measure 55
0101
1100
0021
0000
0130
0000
2002
0000
,  // measure 56
0000
0000
0000
0000
,  // measure 57
0000
0000
0000
3003
;
