#TITLE:Virtual Beanity;
#SUBTITLE:;
#ARTIST:Jukio Kallio & Daniel Hagstrom;
#TITLETRANSLIT:;
#SUBTITLETRANSLIT:;
#ARTISTTRANSLIT:;
#GENRE:;
#CREDIT:;
#BANNER:Virtual Beanity.png;
#BACKGROUND:Virtual Beanity-bg.png;
#LYRICSPATH:;
#CDTITLE:cdtitle.png;
#MUSIC:Virtual Beanity.ogg;
#OFFSET:-0.048000;
#SAMPLESTART:103.832001;
#SAMPLELENGTH:15.000000;
#SELECTABLE:YES;
#BPMS:0.000000=185.000000
;
#STOPS:
;
#BGCHANGES:;
#KEYSOUNDS:;
#ATTACKS:;

//---------------dance-single - ----------------
#NOTES:
     dance-single:
     :
     Beginner:
     5:
     0.225182,0.298908,0.064219,0.023352,0.000000,270.000000,259.000000,11.000000,4.000000,0.000000,0.000000,0.225182,0.298908,0.064219,0.023352,0.000000,270.000000,259.000000,11.000000,4.000000,0.000000,0.000000:
0000
0000
0000
0000
,
0000
0000
0000
0000
,
0000
0000
0000
0000
,
0000
0000
0000
0000
,
1000
0000
0000
0000
,
0000
0000
0000
0000
,
0001
0000
0000
0000
,
0000
0000
0000
0000
,
1000
0000
0000
0000
,
0001
0000
0000
0000
,
0010
0000
0000
0000
,
0100
0000
0000
0000
,
1000
0000
0000
0000
,
0001
0000
0000
0000
,
0100
0000
0000
0000
,
0020
0000
0000
0030
,
1000
0100
1000
0000
,
0001
0000
0001
0000
,
1000
0100
1000
0000
,
0001
0000
0001
0000
,
0100
0001
0100
0000
,
0010
0000
0010
0000
,
0100
0001
0100
0000
,
0010
0000
0010
0000
,
0001
0100
0001
0000
,
1000
0000
1000
0000
,
0001
0100
0001
0000
,
1000
0000
1000
0000
,
0100
1000
0100
0000
,
0010
0000
0010
0000
,
0100
1000
0100
0000
,
0010
0000
0010
0000
,
1000
0000
0000
0000
,
0001
0000
0000
0000
,
1000
0000
0000
0000
,
0001
0000
0000
0000
,
0100
0000
0000
0000
,
0010
0000
0000
0000
,
0100
0000
0000
0000
,
0010
0000
0000
0000
,
1000
0000
0000
1000
,
0000
0000
1000
0000
,
0001
0000
0000
0001
,
0000
0000
0001
0000
,
0100
0000
0000
0100
,
0000
0000
0100
0000
,
0010
0000
0000
0010
,
0000
0000
0010
0000
,
1000
1000
0000
1000
,
1000
0000
1000
0000
,
0001
0001
0000
0001
,
0001
0000
0001
0000
,
0100
0100
0000
0100
,
0100
0000
0100
0000
,
0010
0010
0000
0010
,
0010
0000
0010
0000
,
1000
0100
0000
1000
,
0100
0000
1000
0000
,
0001
0010
0000
0001
,
0010
0000
0001
0000
,
0100
0001
0000
0100
,
0001
0000
0100
0000
,
0010
1000
0000
0010
,
1000
0000
0010
0000
,
1001
0000
0000
1001
,
0000
0000
0000
0000
,
0110
0000
0000
0110
,
0000
0000
0000
0000
,
1001
0000
0000
1001
,
0000
0000
0000
0000
,
0110
0000
0000
0110
,
0000
0000
0000
0000
,
0000
1000
0000
1000
,
0000
1000
0000
1000
,
0000
0001
0000
0001
,
0000
0001
0000
0001
,
0000
1000
0000
1000
,
0000
0001
0000
0001
,
1001
0000
1001
0000
,
2002
0000
3003
0000
,
0001
0010
0001
0000
,
1000
0000
1000
0000
,
0001
0010
0001
0000
,
1000
0000
1000
0000
,
0010
1000
0010
0000
,
0100
0000
0100
0000
,
0010
1000
0010
0000
,
0100
0000
0100
0000
,
1000
0010
1000
0000
,
0001
0000
0001
0000
,
1000
0010
1000
0000
,
0001
0000
0001
0000
,
0010
0001
0010
0000
,
0100
0000
0100
0000
,
0010
0001
0010
0000
,
0100
0000
0100
0000
,
0001
0010
0001
0000
,
0001
0100
0001
0000
,
1000
0010
1000
0000
,
1000
0100
1000
0000
,
0010
1000
0010
0000
,
0010
0100
0010
0000
,
0100
0001
0100
0000
,
0100
0010
0100
0000
,
0001
0010
0001
0000
,
0001
0010
0100
0000
,
1000
0010
1000
0000
,
1000
0010
0100
0000
,
0001
0000
0001
0000
,
1000
0000
1000
0000
,
0010
0010
0100
0100
,
0020
0000
0000
0030
,
1000
1000
0000
0100
,
1000
0000
1000
0000
,
0001
0001
0000
0010
,
0001
0000
0001
0000
,
0100
0100
0000
0001
,
0100
0000
0100
0000
,
0010
0010
0000
1000
,
0010
0000
0010
0000
,
1000
0100
0000
0010
,
0100
0000
1000
0000
,
0001
0010
0000
0100
,
0010
0000
0001
0000
,
0100
0001
0000
0010
,
0001
0000
0100
0000
,
0010
1000
0000
0100
,
1000
0000
0010
0000
,
1000
0000
0000
0000
;

//---------------dance-single - ----------------
#NOTES:
     dance-single:
     :
     Easy:
     8:
     0.399490,0.485726,0.075895,0.116761,0.000000,479.000000,466.000000,13.000000,20.000000,0.000000,0.000000,0.399490,0.485726,0.075895,0.116761,0.000000,479.000000,466.000000,13.000000,20.000000,0.000000,0.000000:
0000
0000
0000
0000
,
0000
0000
0000
0000
,
0000
0000
0000
0000
,
0000
0000
0000
0000
,
1000
0000
0000
0000
,
0001
0000
0000
0000
,
0100
0000
0000
0000
,
0010
0000
0000
0000
,
2000
0000
0001
0000
,
3002
0000
0010
0000
,
0023
0000
0100
0000
,
0100
0000
0230
0000
,
2300
0000
0001
0000
,
0010
0000
0001
0000
,
3002
0000
1000
0000
,
0203
0000
0000
0000
,
0301
0010
0000
0010
0001
0000
0100
0000
,
0010
1000
0100
0010
,
0100
1000
0000
1000
0100
0000
1000
0000
,
0010
0100
0001
0010
,
0010
0100
0000
0100
0010
0000
0001
0000
,
0100
0010
1000
0100
,
0010
0001
0000
0001
0010
0000
0100
0000
,
1000
0001
0100
0020
,
1030
0100
0000
0100
0010
0000
0100
0000
,
1000
0001
0100
0010
,
1000
0001
0000
0001
0010
0000
0100
0000
,
0010
0001
0100
0010
,
0010
1000
0000
1000
0100
0000
0010
0000
,
0001
1000
0010
1000
,
0001
0010
0000
0010
0100
0000
0010
0000
,
0001
0100
0020
0000
,
1030
1000
1000
0000
,
0001
0000
1000
0000
,
0001
0001
0001
0000
,
1000
0000
0001
0000
,
0100
0100
0100
0000
,
0010
0000
0100
0000
,
0010
0010
0010
0000
,
0100
0000
0010
0000
,
1000
0100
0000
1000
,
0100
0000
1000
0100
,
0010
0001
0000
0010
,
0001
0000
0010
0010
,
0100
1000
0000
0100
,
1000
0000
0100
1000
,
0001
0100
0000
0001
,
0100
0000
0001
1001
,
1000
0100
0100
0010
,
0100
0100
1000
0010
,
0100
0001
0001
0010
,
0001
0001
0100
0100
,
0010
1000
1000
0100
,
1000
1000
0010
0100
,
0001
0010
0010
0100
,
0010
0010
0001
0002
,
1003
0000
0100
0010
0100
0000
0001
0000
,
0100
0010
0100
0000
1000
0000
0010
0000
,
0100
0000
0001
0010
0001
0000
1000
0000
,
0001
0010
0001
0000
0100
0000
0100
0000
,
0010
0000
1000
0100
1000
0000
0001
0000
,
1000
0100
1000
0000
0010
0000
0100
0000
,
0001
0000
0010
0100
0010
0000
1000
0000
,
0010
0100
0010
0000
0002
0000
0000
0000
,
1003
0000
0000
1000
0000
0000
1010
0000
,
0000
0100
0010
1000
,
0001
0000
0000
0001
0000
0000
0101
0000
,
0000
0010
1000
0100
,
0010
0000
0000
0010
0000
0000
0011
0000
,
0000
1000
0001
0010
,
0100
0000
0000
0100
0000
0000
1100
0000
,
0000
0001
0010
0100
,
1000
0001
0000
0001
,
0000
1000
0000
1000
,
0000
0010
0000
0010
,
0000
0100
0000
0100
,
0001
0010
0000
0010
,
0000
0100
0000
0100
,
1000
1000
0001
0001
,
2002
0000
3003
0000
,
1000
0100
0000
0100
1000
0000
0010
0000
,
0100
0001
0010
0100
,
0010
0001
0000
0001
0010
0000
0001
0000
,
0100
0010
1000
0100
,
0100
0010
0000
0010
0100
0000
1000
0000
,
0010
0100
0001
0010
,
0100
1000
0000
1000
0100
0000
0010
0000
,
0001
1000
0010
0200
,
0301
0010
0000
0010
0100
0000
0010
0000
,
0001
1000
0010
0100
,
0001
1000
0000
1000
0100
0000
0010
0000
,
0100
1000
0010
0100
,
0100
0001
0000
0001
0010
0000
0100
0000
,
1000
0001
0100
0001
,
1000
0100
0000
0100
0010
0000
0100
0000
,
1000
0010
0200
0000
,
0301
0010
0000
0010
0100
0000
0010
0000
,
0001
0100
0001
0000
1000
0100
1000
0000
,
0010
0100
0000
0100
0001
0000
0010
0000
,
0100
1000
0100
0000
0010
0001
0010
0000
,
0010
0100
0000
0100
1000
0000
0010
0000
,
0100
0001
0100
0000
0010
1000
0010
0000
,
0100
0001
0000
0001
0010
0000
0100
0000
,
1000
0010
1000
0000
0001
0010
0002
0000
,
1003
0010
0000
0010
0100
0000
0001
0000
,
0010
0100
1000
0000
0010
0100
0001
0000
,
0100
0010
0000
0010
1000
0000
0100
0000
,
0010
0001
0100
0000
0010
1000
0100
0000
,
1100
0000
1010
0000
,
0011
0000
0101
0000
,
1001
0010
1001
0100
,
2002
0000
0000
3003
,
0001
0010
0010
0001
,
0100
0100
0010
1000
,
0100
0010
0010
0100
,
1000
1000
0001
0001
,
0010
0100
0100
0010
,
0001
0001
0100
0010
,
1000
0100
0100
1000
,
0010
0010
0100
0200
,
0301
0000
0010
0100
1000
0000
0010
0000
,
1000
0100
0010
0000
0100
0000
1000
0000
,
0010
0000
0100
0001
0010
0000
0100
0000
,
0010
0001
0100
0000
0010
0000
0010
0000
,
1000
0000
0100
0010
0001
0000
0100
0000
,
0001
0010
0100
0000
0010
0000
0001
0000
,
0100
0000
0010
1000
0100
0000
0010
0000
,
0100
1000
0010
0000
0200
0000
0000
0000
,
0301
0000
0000
0000
;

//---------------dance-single - ----------------
#NOTES:
     dance-single:
     :
     Medium:
     11:
     0.562955,0.635180,0.198494,0.198494,0.011676,675.000000,641.000000,34.000000,34.000000,0.000000,0.000000,0.562955,0.635180,0.198494,0.198494,0.011676,675.000000,641.000000,34.000000,34.000000,0.000000,0.000000:
0000
0000
0000
0000
,
0000
0000
0000
0000
,
0000
0000
0000
0000
,
0000
0000
0000
0000
,
1000
0000
1000
0000
,
0000
0000
0001
0001
,
0100
0000
0100
0000
,
0000
0000
0010
0010
,
1000
0100
0000
0100
2000
0000
0010
0000
,
0010
0100
0100
0001
,
3001
0100
0000
0100
0002
0000
0010
0000
,
0010
0100
0100
1000
,
1003
0010
0000
0010
0200
0000
0001
0000
,
0001
1000
1000
0010
,
0310
1000
0000
1000
0020
0000
0100
0000
,
0230
0000
0001
0000
0002
0000
0000
0300
,
1003
0100
0000
0100
1000
0000
0010
0000
,
0100
0001
0100
0000
0001
0010
0001
0000
,
0100
0010
0000
0010
0100
0000
0001
0000
,
1000
0100
1000
0000
0010
1000
0010
0000
,
0010
0100
0000
0100
0010
0000
1000
0000
,
0100
1000
0100
0000
0010
0001
0010
0000
,
0001
0100
0000
0100
0001
0000
1000
0000
,
0100
0010
0100
0000
1000
0001
2000
0000
,
3001
0010
0000
0010
0100
0000
1000
0000
,
0001
0100
0001
0100
0010
0100
0010
0000
,
1000
0100
0000
0100
0010
0000
0001
0000
,
0100
0010
0100
0010
1000
0010
1000
0000
,
1000
0001
0000
0001
0010
0000
0100
0000
,
1000
0010
1000
0010
0100
0001
0100
0000
,
0010
1000
0000
1000
0100
0000
0010
0000
,
0001
1000
0001
1000
0020
0000
0000
0000
,
1030
0000
0000
0000
0100
0000
0000
0000
0010
0000
0000
0010
0000
0000
0010
0000
,
0000
0001
0100
0000
0010
1000
0010
0000
,
0100
0000
0000
0000
0001
0000
0000
0000
1000
0000
0000
1000
0000
0000
1000
0000
,
0000
0100
0010
0000
0001
0010
0100
1000
,
0010
0000
0000
0000
0100
0000
0000
0000
0001
0000
0000
0001
0000
0000
0001
0000
,
0000
1000
0100
0000
0010
0001
0100
0000
,
0010
0000
0000
0000
1000
0000
0000
0000
0100
0000
0000
0100
0000
0000
0100
0000
,
0000
1000
0001
0000
0100
0010
1000
0000
,
0001
0010
0001
0000
0100
0000
0001
0010
,
0001
0000
0100
0000
0010
1000
0010
0000
,
0100
0001
0100
0000
0010
0000
0100
0001
,
0100
0000
0010
0000
1000
0100
0010
0001
,
1000
0010
1000
0000
0100
0000
1000
0010
,
1000
0000
0100
0000
0010
0001
0100
0000
,
0010
1000
0010
0000
0100
0000
0010
1000
,
0010
0000
0100
0000
0001
1000
1001
0000
,
0001
0010
0001
0010
0100
0000
1000
0010
,
1000
0010
0100
0000
0001
0010
0001
0000
,
0100
0001
0100
0001
0010
0000
0100
1000
,
0100
1000
0010
0000
0100
0001
0100
0000
,
0010
1000
0010
1000
0001
0000
0100
0001
,
0100
0001
1000
0000
0100
0010
0001
0000
,
0100
0010
0100
0010
1000
0000
0100
0010
,
0100
0010
0001
0000
0100
0010
2000
0000
,
3001
0010
0100
0010
0001
0000
1000
0010
,
0100
0010
1000
0000
0100
0010
0100
0000
,
0010
0001
0100
0001
0010
0000
0100
1000
,
0010
1000
0100
0000
1000
0010
1000
0000
,
0100
0010
0001
0010
0100
0000
0010
0100
,
1000
0100
0010
0000
0001
0100
0010
0000
,
1000
0100
0001
0100
1000
0000
0001
0100
,
1000
0100
0001
0000
0020
0000
0000
0000
,
0031
0000
0000
0011
0000
0000
0011
0000
,
0000
0000
1000
0000
0010
0100
0010
0000
,
1010
0000
0000
1010
0000
0000
1010
0000
,
0000
0000
0100
0000
0001
0010
0001
0000
,
1100
0000
0000
1100
0000
0000
1100
0000
,
0000
0000
0001
0000
0100
0010
1000
0000
,
0101
0000
0000
0101
0000
0000
0101
0000
,
0000
0000
0010
0000
1000
0100
0010
0000
,
0001
0101
0000
0101
,
0000
1010
0000
1010
,
0000
1100
0000
1100
,
0000
0011
0000
0011
,
0100
1100
0000
1010
,
0000
0101
0000
0011
,
1000
1100
0001
0101
,
0100
0010
0100
0010
0200
0000
0000
0000
,
0301
0010
0000
0010
0001
0000
0100
0000
,
0010
1000
0010
0000
1000
0100
1000
0000
,
0010
0100
0000
0100
0010
0000
1000
0000
,
0001
0010
0001
0000
0100
0001
0100
0000
,
0100
0010
0000
0010
0100
0000
0001
0000
,
0010
0001
0010
0000
0100
1000
0100
0000
,
1000
0010
0000
0010
1000
0000
0001
0000
,
0010
0100
0010
0000
0001
1000
0002
0000
,
1003
0100
0000
0100
0010
0000
0001
0000
,
1000
0010
1000
0010
0100
0010
0100
0000
,
0001
0010
0000
0010
0100
0000
1000
0000
,
0010
0100
0010
0100
0001
0100
0001
0000
,
0001
1000
0000
1000
0100
0000
0010
0000
,
0001
0100
0001
0100
0010
1000
0010
0000
,
0100
0001
0000
0001
0010
0000
0100
0000
,
1000
0001
1000
0001
0200
0000
0000
0000
,
0301
0010
0000
0010
0100
0000
1000
0010
,
0100
0001
0100
0001
0010
0001
0010
0000
,
0100
1000
0000
1000
0010
0000
0100
0001
,
0010
0100
0010
0100
1000
0100
1000
0000
,
1000
0001
0000
0001
0100
0000
0010
1000
,
0100
0010
0100
0010
0001
0100
0001
0000
,
1000
0100
0000
0100
0010
0000
0001
0100
,
0010
1000
0010
1000
0001
0100
0002
0000
,
1003
0100
0000
0010
0001
0000
0100
0010
,
1000
0100
0010
0100
1000
0100
0010
0000
,
0001
0100
0000
0010
1000
0000
0100
0010
,
0001
0100
0010
0100
0001
0100
0010
0000
,
1010
1010
1100
1100
,
0101
0101
0011
0011
,
0001
0001
1000
1000
,
0020
0000
0000
0000
0200
0000
0000
0330
,
0002
0000
0013
0001
0010
0000
0200
0000
,
1300
0100
1000
0000
0001
0100
0001
0000
,
0020
0000
0130
0010
0100
0000
2000
0000
,
3010
1000
0010
0000
1000
0100
1000
0000
,
0020
0000
0130
0001
0100
0000
0002
0000
,
1003
0010
1000
0000
0100
0010
0001
0000
,
0200
0000
0301
0010
0001
0000
2000
0000
,
3010
0100
0010
0000
1000
0100
0020
0000
,
0032
0000
1003
0010
0100
0000
0020
0000
,
1030
0100
0010
0000
0001
0100
0001
0000
,
2000
0000
3100
0010
0001
0000
0200
0000
,
0310
0100
0001
0000
0010
0100
0010
0000
,
0002
0000
0103
0010
1000
0000
0200
0000
,
0310
0001
1000
0000
0010
0100
0001
0000
,
2000
0000
3100
0010
0001
0000
0200
0000
,
0310
1000
0100
0000
2000
0000
0000
0000
,
3001
0000
0000
0000
;

//---------------dance-single - ----------------
#NOTES:
     dance-single:
     :
     Hard:
     14:
     0.726421,0.821998,0.210170,0.402826,0.180980,871.000000,835.000000,36.000000,69.000000,0.000000,0.000000,0.726421,0.821998,0.210170,0.402826,0.180980,871.000000,835.000000,36.000000,69.000000,0.000000,0.000000:
0000
0000
0000
0000
,
0000
0000
0000
0000
,
0000
0000
0000
0000
,
0000
0000
0000
0000
,
1000
0000
0000
0010
0010
0000
0000
0000
,
0000
0000
0000
0000
0000
0000
0000
0000
0100
0000
0000
0001
0010
0001
0000
0000
,
0100
0000
0000
0001
0001
0000
0000
0000
,
0000
0000
0000
0000
0000
0000
0000
0000
1000
0000
0000
0100
0010
0000
0000
0100
,
1000
0010
0000
0010
2000
0000
0100
0000
,
0001
0001
0001
0000
0010
0010
0010
0000
,
3001
0010
0000
0010
0002
0000
0100
0000
,
1000
1000
1000
0000
0010
0010
0010
0000
,
0103
0001
0000
0001
0200
0000
1000
0000
,
0010
0010
0010
0000
0001
0001
0001
0000
,
0310
1000
0000
1000
0020
0000
0001
0000
,
0130
0100
0100
0100
0020
0000
0000
0000
,
1030
0200
0300
0100
2000
3000
0001
0000
,
0100
0010
1000
0100
0010
0100
1000
0000
,
0001
0200
0300
0100
0002
0003
1000
0000
,
0100
0010
0100
1000
0001
0100
0010
0000
,
0010
2000
3000
1000
0020
0030
0100
0000
,
0001
0010
0100
0010
0001
1000
0010
0000
,
0100
0002
0003
0001
0200
0300
0010
0000
,
1000
0100
0010
0100
1000
0010
0200
0000
,
0301
0020
0030
0010
0200
0300
1000
0010
,
0001
0010
1000
0100
0010
0001
0010
0100
,
1000
0020
0030
0010
0200
0300
0001
0010
,
0100
1000
0100
0010
0001
0100
1000
0100
,
0100
0002
0003
0001
2000
3000
0100
0010
,
0001
0100
0010
0001
0010
1000
0001
0010
,
0100
2000
3000
1000
0002
0003
0100
1000
,
0100
0010
1000
0100
0020
0000
0000
0000
,
0031
0000
0100
0000
0010
0000
1000
0000
0100
0000
0000
0010
0000
0000
0010
0000
,
0000
0100
1000
0010
0100
0001
0010
1000
,
0010
0000
0100
0000
1000
0000
0001
0000
0100
0000
0000
0010
0000
0000
0010
0000
,
0000
1000
0100
0010
0002
0203
0320
2030
,
3001
0000
0010
0000
0100
0000
0010
0000
0001
0000
0000
1000
0000
0000
1000
0000
,
0000
0010
0100
0001
1000
0100
0001
0100
,
0010
0000
0001
0000
0100
0000
0010
0000
1000
0000
0000
0001
0000
0000
0001
0000
,
0000
0010
0100
1000
0010
0001
0010
0100
,
0001
0001
0010
0100
1000
0000
0010
0010
,
0100
0001
1000
0000
0100
0100
0010
0001
,
1000
1000
0010
0100
0001
0000
0010
0010
,
0100
1000
0001
0000
0200
0320
2030
3002
,
0013
0010
1000
0001
0100
0000
1000
1000
,
0001
0100
0010
0000
0100
0100
0001
0010
,
0100
0100
0001
1000
0010
0000
0001
0001
,
1000
0010
0100
0000
0010
0010
1001
0000
,
1000
0100
1000
0000
0010
0000
0100
0000
0001
0000
0000
0000
0010
0100
0010
0000
,
0001
0000
1000
0000
0010
0000
0000
0000
0100
0001
0100
0000
0010
0000
1000
0000
,
0001
0010
0001
0000
1000
0000
0100
0000
0010
0000
0000
0000
0100
1000
0100
0000
,
1000
0000
0001
0000
0100
0000
0000
0000
0010
1000
0010
0000
0100
0000
0001
0000
,
0001
0010
0001
0000
0100
0000
0010
0000
1000
0000
0000
0000
0100
0010
0100
0000
,
1000
0000
0001
0000
0100
0000
0000
0000
0010
1000
0010
0000
0100
0000
0001
0000
,
1000
0100
1000
0000
0001
0000
0010
0000
0100
0000
0000
0000
0010
0001
0010
0000
,
0001
0000
1000
0000
0010
0000
0000
0000
0100
0001
0100
0000
0020
0000
0000
0000
,
1030
0100
0010
0000
0001
0000
0100
0000
1000
0000
0000
0000
0100
0001
0010
0000
,
0100
0000
1000
0000
0001
0000
0000
0000
0100
0010
1000
0000
0100
0000
0010
0000
,
0001
0100
0010
0000
1000
0000
0100
0000
0001
0000
0000
0000
0100
1000
0010
0000
,
0100
0000
0001
0000
1000
0000
0000
0000
0100
0010
0001
0000
0100
0000
0010
0000
,
0010
1000
0001
0000
0100
0000
1000
0000
0100
0000
0000
0000
0010
1000
0100
0000
,
0010
0000
0001
0000
0100
0000
0000
0000
0010
0100
0001
0000
1000
0000
0100
0000
,
0010
0001
1000
0000
0100
0000
0001
0000
0100
0000
0000
0000
0010
0001
0100
0000
,
0010
1000
0100
0000
0020
0000
0000
0000
,
0031
0000
0000
1010
0000
0000
0101
0100
,
0010
1000
0001
0010
0100
0010
0001
1000
,
1010
0000
0000
0011
0000
0000
1100
1000
,
0010
0100
0010
1000
0100
0010
0001
0100
,
0101
0000
0000
0011
0000
0000
1100
0100
,
1000
0010
0100
1000
0100
0001
0010
0100
,
1100
0000
0000
1010
0000
0000
0101
0001
,
1000
0010
0001
0010
0100
0001
0010
0100
,
1000
1010
0001
0101
,
0010
0011
0100
1100
,
0010
0110
0001
1001
,
0100
0101
0010
1010
,
0100
0011
0001
1100
,
1000
1010
0010
0101
,
1100
0011
1010
0101
,
1000
0100
1000
0100
0010
0001
0010
0001
0200
0000
0000
0000
0000
0000
0000
0000
,
0301
0020
0030
0010
0002
0003
1000
0000
,
0010
0100
0001
0010
0100
0010
0001
0000
,
1000
0020
0030
0010
2000
3000
0001
0000
,
0010
0100
0010
0001
1000
0010
0100
0000
,
0100
0002
0003
0001
0200
0300
0010
0000
,
1000
0100
0010
0100
1000
0001
0100
0000
,
0010
2000
3000
1000
0020
0030
0100
0000
,
0001
0010
0100
0010
0001
0100
0020
0000
,
1030
0200
0300
0100
0020
0030
0001
0100
,
1000
0100
0001
0010
0100
1000
0100
0010
,
0001
0200
0300
0100
0020
0030
1000
0100
,
0010
0001
0010
0100
1000
0010
0001
0010
,
0010
2000
3000
1000
0002
0003
0010
0100
,
1000
0010
0100
1000
0100
0001
1000
0100
,
0010
0002
0003
0001
2000
3000
0010
0001
,
0010
0100
0001
0010
0200
0000
0000
0000
,
1300
0002
0103
0001
2000
3100
1000
0010
,
0001
0010
1000
0100
0001
0100
1000
0010
,
0100
0020
1030
0010
0200
0301
0100
0010
,
1000
0100
0001
0100
1000
0010
0001
0010
,
0010
0200
0301
0100
0020
1030
0010
0100
,
0001
0010
1000
0010
0001
0100
1000
0100
,
0001
2000
3010
1000
0002
0013
0001
0100
,
1000
0100
0001
0010
1000
0010
0200
0000
,
1300
0020
0130
0010
2000
3100
1000
0010
,
0001
0010
1000
0001
0010
1000
0010
0001
,
0100
0002
0013
0001
0200
0310
0100
0001
,
0010
1000
0010
0001
1000
0010
0001
0010
,
1010
1000
1100
0000
0011
0001
0101
0000
,
0110
0000
0010
0000
1010
0000
0000
0000
1100
0000
1000
0000
0011
0000
0000
0001
,
0100
0000
0000
0001
0010
0000
0000
0100
1000
0000
0000
0010
0100
0000
0000
0001
,
0020
0000
0000
0000
0200
0000
0000
0330
,
1000
0000
0010
0000
0100
0001
0100
0000
0010
0000
0000
0000
1000
0000
0100
0000
,
0010
0001
0010
0000
0001
0000
0000
0000
0100
0000
0010
0000
1000
0100
1000
0000
,
0010
0000
0100
0000
0001
0100
0001
0000
0010
0000
0000
0000
0100
0000
1000
0000
,
0010
0100
0010
0000
1000
0000
0000
0000
0100
0000
0010
0000
0001
0010
0001
0000
,
0001
0000
0100
0000
0010
1000
0010
0000
0100
0000
0000
0000
0001
0000
0010
0000
,
0100
1000
0100
0000
1000
0000
0000
0000
0010
0000
0100
0000
0001
0010
0001
0000
,
0100
0000
0010
0000
1000
0010
1000
0000
0100
0000
0000
0000
0010
0000
0001
0000
,
0100
0010
0100
0000
0001
0000
0000
0000
0010
0000
0100
0000
2000
0000
0000
0000
,
3001
0000
0100
0000
0010
1000
0100
0000
0001
0000
0000
0000
0100
0000
1000
0000
,
0010
0100
0001
0000
0010
0000
0000
0000
0100
0000
1000
0000
0001
0100
0010
0000
,
1000
0000
0100
0000
0010
0001
0100
0000
1000
0000
0000
0000
0100
0000
0001
0000
,
0010
0100
1000
0000
0010
0000
0000
0000
0100
0000
0001
0000
1000
0100
0010
0000
,
0010
0000
0001
0000
0100
0010
1000
0000
0100
0000
0000
0000
0001
0000
0100
0000
,
0010
0001
1000
0000
0010
0000
0000
0000
0100
0000
0001
0000
0010
0100
1000
0000
,
0010
0000
1000
0000
0100
0010
0001
0000
0100
0000
0000
0000
1000
0000
0100
0000
,
0010
1000
0001
0000
0010
0000
0000
0000
0002
0000
0000
0000
0000
0000
0000
0000
,
1003
0000
0000
0000
;

//---------------dance-single - ----------------
#NOTES:
     dance-single:
     :
     Challenge:
     18:
     1.058356,1.120906,0.402826,0.420340,0.916574,1269.000000,1200.000000,69.000000,72.000000,36.000000,0.000000,1.058356,1.120906,0.402826,0.420340,0.916574,1269.000000,1200.000000,69.000000,72.000000,36.000000,0.000000:
// measure 0
0000
0000
0000
0000
,  // measure 1
0000
0000
0000
0000
,  // measure 2
0000
0000
0000
0000
,  // measure 3
0000
0000
0000
0000
,  // measure 4
1000
0000
0000
0000
0000
0000
0001
0010
0001
0000
0000
0000
0000
0000
0000
0000
,  // measure 5
0000
0000
0000
0000
0000
0000
0000
0000
0100
0000
0000
0010
1000
0100
1000
0000
,  // measure 6
0001
0000
0000
0000
0000
0000
0010
0100
0010
0000
0000
0000
0000
0000
0000
0000
,  // measure 7
0000
0000
0000
0000
0000
0000
0000
0000
0001
0000
0000
0100
0010
0000
0000
0100
,  // measure 8
0001
1001
0000
1001
0002
0000
0100
0100
,  // measure 9
1000
1000
0010
0010
1000
1000
0100
0100
,  // measure 10
1003
1001
0000
1001
2000
0000
0100
0100
,  // measure 11
0001
0001
0010
0010
0001
0001
0100
0100
,  // measure 12
3010
0110
0000
0110
0020
0000
1000
1000
,  // measure 13
0100
0100
0001
0001
0100
0100
1000
1000
,  // measure 14
0130
0110
0000
0110
0200
0000
0001
0001
,  // measure 15
0310
0000
0010
0000
0010
0000
0010
0000
1000
0001
1000
0001
1000
0001
1000
0001
,  // measure 16
1000
0200
0300
0200
1300
0000
0001
0010
,  // measure 17
0001
1000
0010
1000
0100
0001
0100
0010
,  // measure 18
0001
0200
0300
0200
0301
0000
1000
0010
,  // measure 19
1000
0000
0001
0000
0010
0000
0001
0000
0100
0000
1000
0000
0100
0000
0010
0100
,  // measure 20
0010
2000
3000
2000
3010
0000
0100
0001
,  // measure 21
0100
1000
0100
0010
0001
0010
1000
0100
,  // measure 22
0010
0002
0003
0002
0013
0000
0100
1000
,  // measure 23
0100
0000
0001
0000
0100
0000
0010
0000
1000
0000
0010
0000
0001
1000
0001
1000
,  // measure 24
0001
0020
0130
0020
0031
0001
1000
0100
,  // measure 25
1000
0001
0100
0001
0010
1000
0010
0100
,  // measure 26
1000
0020
0130
0020
1030
1000
0001
0100
,  // measure 27
0001
0000
1000
0000
0100
0000
1000
0000
0010
0000
0001
0000
0010
0000
0100
0010
,  // measure 28
0100
0002
1003
0002
0103
0100
0010
1000
,  // measure 29
0010
0001
0010
0100
1000
0100
0010
1000
,  // measure 30
0100
2000
3001
2000
3100
0100
0010
0001
,  // measure 31
0010
0000
1000
0000
0010
0000
0100
0000
1000
0001
1000
0001
1000
0001
1000
0001
,  // measure 32
1000
0100
1000
0000
0010
0000
0100
0000
0001
0000
0000
0010
0000
0100
0010
0000
,  // measure 33
0000
0000
0001
1000
0001
0000
0100
0000
1000
0000
1000
0000
0100
0000
0001
0000
,  // measure 34
0010
0100
0010
0000
0001
0000
1000
0000
0010
0000
0000
0100
0000
0001
0100
0000
,  // measure 35
0000
0000
0010
1000
0010
0000
0100
0000
0020
0000
0032
0000
2003
0000
3200
0000
,  // measure 36
0301
0010
0100
0000
1000
0000
0010
0000
0100
0000
0000
0001
0000
1000
0001
0000
,  // measure 37
0000
0000
0010
0100
1000
0000
0010
0000
0001
0000
0001
0000
0010
0000
1000
0000
,  // measure 38
0100
0010
0001
0000
0100
0000
0010
0000
1000
0000
0000
0100
0000
0010
0100
0000
,  // measure 39
0000
0000
1000
0001
0100
0000
0010
0000
0001
0000
1000
0000
0001
0000
0010
0000
,  // measure 40
1000
0100
1000
0100
0010
0001
0010
0001
1000
0000
0000
0000
0010
1000
0010
1000
,  // measure 41
0001
0100
0001
0100
0010
0000
0000
0000
1000
0010
1000
0010
0001
0010
0001
0010
,  // measure 42
0100
0001
0100
0001
1000
0010
1000
0010
0100
0000
0000
0000
0001
0010
0001
0010
,  // measure 43
0100
1000
0100
1000
0001
0000
0000
0000
0200
0000
2300
0000
3002
0000
0023
0000
,  // measure 44
1030
0100
1000
0100
0010
0001
0100
0010
1000
0000
0000
0000
0001
0010
0001
0010
,  // measure 45
0100
1000
0010
0100
0001
0000
0000
0000
1000
0001
1000
0001
0100
0010
0100
0010
,  // measure 46
0100
0001
0100
0001
1000
0100
0010
0001
0100
0000
0000
0000
0010
1000
0010
1000
,  // measure 47
0001
0010
0100
1000
0010
0000
0000
0000
0100
0010
0100
0010
MMMM
0000
0000
0000
,  // measure 48
1000
0100
1000
0100
0010
0001
0010
0001
2000
0000
0010
0000
3010
1000
0010
1000
,  // measure 49
0001
0100
0001
0100
0020
0000
1000
0000
1030
0010
1000
0010
0100
0001
1000
0010
,  // measure 50
0100
0001
0100
0001
1000
0010
1000
0010
0200
0000
0001
0000
0301
0010
0001
0010
,  // measure 51
0100
1000
0100
1000
0002
0000
0100
0000
0103
0010
0100
0010
1000
0100
0010
0001
,  // measure 52
1000
0100
1000
0100
0010
0001
0100
0010
2000
0000
0001
0000
3001
0010
0001
0010
,  // measure 53
0100
1000
0010
0100
0002
0000
1000
0000
1003
0100
0010
0001
0010
0100
1000
0010
,  // measure 54
0100
0001
0100
0001
1000
0100
0010
0001
0200
0000
0010
0000
0310
1000
0010
1000
,  // measure 55
0001
0010
0100
1000
0020
0000
0100
0000
0130
0001
0010
0100
1000
0001
1000
0001
,  // measure 56
1000
0100
1000
0100
1000
0010
0100
0001
2000
0000
0001
0000
3001
0100
0001
0100
,  // measure 57
0001
0010
0100
1000
0002
0000
1000
0000
1003
0010
0100
0001
0010
0100
1000
0100
,  // measure 58
0010
0001
0010
0001
0010
0100
1000
0010
0200
0000
0010
0000
0310
1000
0010
1000
,  // measure 59
0010
0100
0001
0010
0200
0000
0010
0000
0310
0100
1000
0010
0100
0001
1000
0010
,  // measure 60
0100
0001
0010
0001
0100
0010
1000
0100
0020
0000
0100
0000
0130
1000
0010
1000
,  // measure 61
0100
0010
0001
0100
0020
0000
0100
0000
0130
0010
0001
0010
0100
0001
0100
0010
,  // measure 62
1000
0100
1000
0010
1000
0001
0010
0100
2000
0000
0001
0000
3001
0100
0001
0010
,  // measure 63
0001
1000
0010
0100
0002
0000
1000
0000
1003
0001
1000
0001
1000
0001
1000
0001
,  // measure 64
1000
MMMM
0000
1100
MMMM
0000
0011
1000
,  // measure 65
0100
0000
0001
0000
1000
0000
0010
0000
0001
1000
0001
1000
0001
1000
0001
1000
,  // measure 66
0001
MMMM
0000
0101
MMMM
0000
1010
0001
,  // measure 67
0100
0000
1000
0000
0100
0000
0001
1000
0001
1000
0001
1000
0001
1000
0001
1000
,  // measure 68
0001
MMMM
0000
1010
MMMM
0000
0011
1000
,  // measure 69
0100
0000
0010
0001
0010
0000
0100
0000
1000
0001
1000
0001
1000
0001
1000
0001
,  // measure 70
1000
MMMM
0000
0101
MMMM
0000
1100
0001
,  // measure 71
0010
0000
1000
0000
0100
0000
1000
0000
0010
0000
0001
1000
0001
1000
0001
1000
,  // measure 72
0001
0101
1000
1010
,  // measure 73
0100
1100
0010
0011
,  // measure 74
0100
0110
1000
1001
,  // measure 75
0010
1010
0100
0101
,  // measure 76
0110
1100
0010
0101
,  // measure 77
1000
0011
0100
1010
,  // measure 78
1001
0001
0011
0010
0110
0100
1100
1000
,  // measure 79
0001
1000
0001
1000
0001
1000
0001
1000
0001
0010
0001
0100
0010
1000
0100
1000
,  // measure 80
0001
0110
0000
0110
0001
0000
1000
0010
,  // measure 81
1000
0001
0010
0001
0100
1000
0100
0010
,  // measure 82
1000
0110
0000
0110
1000
0000
0001
0010
,  // measure 83
0001
0000
1000
0000
0010
0000
1000
0000
0100
0000
0001
0000
0100
0000
0010
0100
,  // measure 84
0010
1001
0000
1001
0010
0000
0100
1000
,  // measure 85
0100
0001
0100
0010
1000
0010
0001
0100
,  // measure 86
0010
1001
0000
1001
0010
0000
0100
0001
,  // measure 87
0100
0000
1000
0000
0100
0000
0010
0000
0001
0000
0010
0000
1000
0001
1000
0001
,  // measure 88
1000
0110
0001
0110
1000
1000
0001
0100
,  // measure 89
0001
1000
0100
1000
0010
0001
0010
0100
,  // measure 90
0001
0110
1000
0110
0001
0001
1000
0100
,  // measure 91
1000
0000
0001
0000
0100
0000
0001
0000
0010
0000
1000
0000
0010
0000
0100
0010
,  // measure 92
0100
1001
0010
1001
0100
0100
0010
0001
,  // measure 93
0010
1000
0010
0100
0001
0100
0010
0001
,  // measure 94
0100
1001
0010
1001
0100
0100
0010
1000
,  // measure 95
0010
0000
0001
0000
0010
0000
0100
0000
0001
1000
0001
1000
0001
1000
0001
1000
,  // measure 96
0001
0000
2010
0000
3001
0000
2100
0000
3001
0000
0001
0010
0100
0000
1000
0001
,  // measure 97
0100
0000
0010
1000
0100
0000
0010
0001
1000
0000
0010
0100
0001
0000
0010
0100
,  // measure 98
1000
0000
0012
0000
1003
0000
0102
0000
1003
0000
1000
0010
0100
0000
0001
1000
,  // measure 99
0100
0000
0010
0001
0100
0000
0010
1000
0001
0000
0010
0100
1000
0000
0010
0100
,  // measure 100
0010
0000
1200
0000
0310
0000
0201
0000
0310
0000
0010
1000
0100
0000
0001
0100
,  // measure 101
1000
0000
0010
0100
0001
0000
1000
0100
0010
0000
1000
0010
0001
0000
1000
0010
,  // measure 102
0100
0000
0021
0000
0130
0000
1020
0000
0130
0000
0100
0001
0010
0000
1000
0010
,  // measure 103
0001
0000
0100
0010
1000
0000
0001
0010
0100
0000
0001
0100
1000
0001
1000
0001
,  // measure 104
1000
0000
0021
0000
1030
0000
0201
0000
1300
0000
1000
0010
0001
0000
0001
0010
,  // measure 105
1000
0000
0001
0010
1000
0000
1000
0010
0001
0000
1000
0100
0001
0000
0100
1000
,  // measure 106
0001
0000
1200
0000
0301
0000
1020
0000
0031
0000
0001
0100
1000
0000
1000
0100
,  // measure 107
0001
0000
1000
0100
0001
0000
0001
0100
1000
0000
0001
0010
1000
0000
0010
0001
,  // measure 108
0101
0100
0110
0010
1010
1000
1001
0001
,  // measure 109
1001
0000
1000
0000
1100
0000
0100
0000
0110
0000
0010
0000
0011
0000
0001
0100
,  // measure 110
0010
0000
1000
0100
0010
0000
0001
0010
0100
0000
1000
0010
0100
0000
0010
1000
,  // measure 111
0001
0010
0001
0010
0001
0010
0001
0010
0100
1000
0100
1000
0100
1000
0100
1000
,  // measure 112
0001
0100
0001
0000
1000
0010
1000
0000
0002
0000
0010
0000
0013
0001
0010
0000
,  // measure 113
0100
1000
0100
0000
0020
0000
0001
0000
0031
1000
0100
0000
1000
0001
0100
0000
,  // measure 114
0010
1000
0010
0000
0100
0001
0100
0000
0020
0000
1000
0000
1030
0100
1000
0000
,  // measure 115
0001
0010
0001
0000
2000
0000
0010
0000
3010
0100
0001
0000
0010
0100
1000
0000
,  // measure 116
1000
0010
0100
0000
0001
0010
0100
0000
2000
0000
0100
0000
3100
0010
0001
0000
,  // measure 117
0100
0010
1000
0000
0020
0000
1000
0000
1030
0001
0100
0000
0001
1000
0100
0000
,  // measure 118
0010
0100
1000
0000
0010
0100
0001
0000
0200
0000
0001
0000
0301
0100
0010
0000
,  // measure 119
1000
0100
0010
0000
0002
0000
0010
0000
0013
0001
1000
0000
0001
1000
0001
1000
,  // measure 120
0001
0100
0001
0000
1000
0010
1000
0010
2000
0000
0100
0000
3100
1000
0100
0000
,  // measure 121
0010
0001
0010
0001
0020
0000
0001
0000
0031
0100
1000
0000
0100
0001
1000
0000
,  // measure 122
0001
0010
0001
0000
1000
0100
1000
0100
2000
0000
0010
0000
3010
1000
0010
0000
,  // measure 123
0100
0001
0100
0001
0200
0000
0001
0000
0301
0010
1000
0000
0010
0001
1000
0000
,  // measure 124
1000
0010
0100
0000
0001
0010
0100
0010
0002
0000
0100
0000
0103
0010
1000
0000
,  // measure 125
0100
0010
0001
0010
0200
0000
1000
0000
1300
0010
0001
0000
0001
0010
1000
0000
,  // measure 126
0001
0100
0010
0000
1000
0100
0010
0100
2000
0000
0010
0000
3010
0100
0001
0000
,  // measure 127
0010
0100
1000
0100
0020
0000
0001
0000
0031
1000
0001
1000
0001
1000
0001
1000
,  // measure 128
0001
0000
0000
0000
;
