#TITLE:Too Late Snow;
#SUBTITLE:(Supra's Edit);
#ARTIST:movies (moimoi × Xceon × Dai.);
#TITLETRANSLIT:;
#SUBTITLETRANSLIT:;
#ARTISTTRANSLIT:;
#GENRE:;
#CREDIT:;
#BANNER:Too Late Snow (Supra's Edit).png;
#BACKGROUND:Too Late Snow (Supra's Edit)-bg.png;
#LYRICSPATH:;
#CDTITLE:cdtitle.png;
#MUSIC:Too Late Snow (Supra's Edit).ogg;
#OFFSET:0.000000;
#SAMPLESTART:24.348000;
#SAMPLELENGTH:15.000000;
#SELECTABLE:YES;
#BPMS:0.000000=138.000000
;
#STOPS:249.937500=0.434783
;
#BGCHANGES:;
#KEYSOUNDS:;
#ATTACKS:;

//---------------dance-double - ----------------
#NOTES:
     dance-double:
     :
     Hard:
     13:
     0.531165,0.594522,0.283653,0.099662,0.160992,485.000000,448.000000,37.000000,13.000000,0.000000,0.000000,0.531165,0.594522,0.283653,0.099662,0.160992,485.000000,448.000000,37.000000,13.000000,0.000000,0.000000:
00000000
00000000
00000000
00000000
,
00000000
00000000
00000000
00000000
,
00000000
00000000
00000000
00000000
,
00000000
00000000
00000000
00000000
,
00000000
00000000
00000000
00000000
,
00000000
00000000
00000000
00000000
00000000
00000000
10000000
01000000
,
00010000
00000000
00000000
00001000
00010000
00000000
00001000
00000000
,
00000100
00000001
00000010
00000001
00001000
00000000
00000001
00000010
,
00001000
00000000
00000000
00010000
00001000
00000000
00010000
00000000
,
01000000
10000000
00010000
01010000
,
00001000
00000000
00010000
00000000
00000100
00000000
00010000
00000000
00000100
00001000
00000000
00001000
00000000
00000001
00000010
00000000
,
00000001
00000000
00000001
00000000
00001000
00000010
00000000
00000010
00010000
00001000
00000000
00010000
00000000
00001000
00100000
00000000
,
00010000
00000000
10000000
00000000
00100000
00000000
01000000
00000000
00010000
01000000
00000000
01000000
00000000
00001000
00010000
00000000
,
00000010
00000000
00000010
00000000
00001000
00000001
00000000
00000001
00000010
00000100
00000000
00001000
00000100
00000000
00010000
00000000
,
00001000
00010000
00100000
10000000
10100000
00000000
01100000
00000000
,
00010000
00100000
00001000
00010000
00000100
00000000
00001000
00000001
,
00000100
00000001
00000010
00001000
00010000
01000000
10000000
00010000
,
10010000
00000000
11000000
00000000
00110000
00000000
00001000
00010000
,
00001000
00000100
00000001
00000010
00000011
00000000
00001100
00000000
,
00010000
00001000
01000000
00010000
00100000
00000000
01000000
10000000
,
00100000
10000000
01000000
00010000
00001000
00000010
00000001
00001000
,
00001001
00001100
00000011
00000000
,
00001000
00000010
00010000
00001000
01000000
00010000
01000000
00100000
,
10000000
02000000
03020000
00032000
,
00003010
00000001
00000100
00001000
00000100
00000010
00001000
00000100
,
00010000
00000000
00001000
00100000
00010000
00000000
10000000
00000000
,
00100000
01000000
00010000
00100000
00001000
00010000
00000100
00001000
,
00000001
00000000
00000000
00000000
00000000
00000000
00000000
00000000
00000000
00000000
00000000
00000000
00000000
00000000
00000000
00000000
00000000
00000000
00000000
00000000
00000000
00000000
00000000
00000000
00000000
00000000
00000000
00000000
00000000
00000000
00000000
00000000
00000000
00000000
00000000
00000000
00000000
00000000
00000000
00000000
00000000
00000000
00000000
00000000
00000000
00000000
00000000
00000000
00000200
00000000
00000000
00000000
00000000
00000000
00000000
00000000
00000000
00000000
00000000
00000000
00000000
00000000
00000000
00000000
00000000
00000000
00000000
00000000
00000000
00000000
00000000
00000000
00000000
00000000
00000000
00000000
00000000
00000000
00000000
00000000
00000000
00000000
00000000
00000000
00000000
00000000
00000000
00000000
00000000
00000000
00000000
00000000
00000000
00000000
00000000
00000000
00002300
00000000
00000000
00000000
00000000
00000000
00000000
00000000
00000000
00000000
00000000
00000000
00000000
00000000
00000000
00000000
00000000
00000000
00000000
00000000
00000000
00000000
00000000
00000000
00000000
00000000
00000000
00000000
00000000
00000000
00000000
00000000
00000000
00000000
00000000
00000000
00000000
00000000
00000000
00000000
00000000
00000000
00000000
00000000
00000000
00000000
00000000
00000000
00023000
00000000
00000000
00000000
00000000
00000000
00000000
00000000
00000000
00000000
00000000
00000000
00000000
00000000
00000000
00000000
00000000
00000000
00000000
00000000
00000000
00000000
00000000
00000000
00000000
00000000
00000000
00000000
00000000
00000000
00000000
00000000
00000000
00000000
00000000
00000000
00000000
00000000
00000000
00000000
00000000
00000000
00000000
00000000
00000000
00000000
00000000
00030000
,
00100000
10000000
01000000
00010000
01000000
00100000
00010000
01000000
,
00001000
00010000
00000100
00001000
00000100
00000010
00000001
00000100
,
00000001
00000010
00001000
00010000
01000000
10000000
00100000
10000000
,
00020000
00000000
01000000
00000000
01030000
00000000
00001000
00000000
00011000
00000000
00000000
00010100
00000000
00000000
00001100
00000000
,
00000002
00000000
00000010
00000000
00000013
00000000
00000100
00000000
00001100
00000000
00000000
00010100
00000000
00000000
00011000
00000000
,
00002000
00000000
01000000
00000000
01003000
00000000
00010000
00000000
00110000
00000000
00000000
10100000
00000000
00000000
11000000
00000000
,
00020000
01000000
10000000
00130000
,
00002000
00000000
00010000
00000000
00013000
00000000
00000010
00000000
00001010
00000000
00000000
00001001
00000000
00000000
00000101
00000000
,
00002000
00000000
00000010
00000000
00003010
00000000
00010000
00000000
00010100
00000000
00000000
00011000
00000000
00000000
00101000
00000000
,
00100000
00000000
00000000
00010000
00000000
00000000
10000000
00000000
01000000
00000000
00000000
00010000
00000000
00000000
00001000
00000000
,
00010000
00000100
00001000
00000100
00000010
00000001
00000100
00001000
,
00010000
00001000
00100000
00010000
10000000
00000000
00100000
10000000
,
01000000
00100000
00010000
00100000
00001000
00010000
00001000
01000000
,
00001000
00000100
00000001
00000100
00000010
00000000
00001000
00000100
,
00001000
00000001
00000100
00000010
00010000
00001000
00010000
00000100
,
00010000
01000000
10000000
01000000
00100000
00000000
00010000
10000000
,
01000000
10000000
01000000
00010000
00001000
00000010
00000001
00001000
,
00000010
00010000
00100000
01000000
00010000
00000000
10000000
00010000
,
01000000
00100000
01000000
00001000
00010000
00000010
00001000
00000100
,
00000010
00000000
00000001
00000000
00001000
00000000
00000001
00000000
00000100
00000000
00000000
00000010
00001000
00000000
00000010
00000000
,
00010000
00000000
00001000
00000000
00100000
00000000
00010000
00000000
10000000
00010000
00000000
01000000
00000000
00100000
01000000
00000000
,
00010000
00000000
00010000
00000000
00100000
00001000
00000000
00001000
00010000
00000100
00000000
00001000
00000000
00000001
00001000
00000000
,
00000001
00000000
00000010
00000000
00000001
00000000
00000100
00000000
00000010
00001000
00000000
00001000
00000000
00000100
00010000
00000000
,
00001000
00000000
00001000
00000000
00100000
00010000
00000000
00010000
10000000
01000000
00000000
10000000
00000000
00010000
00100000
00000000
,
00002000
00000000
00000000
00003000
,
00010000
00001000
00010000
00000100
00001000
00000010
00000100
00000001
,
00000010
00000100
00001000
00000100
00001000
00000000
00000100
00010000
,
00001000
00010000
00001000
00100000
00010000
01000000
00100000
10000000
,
01000000
00010000
00001000
00000010
00000001
00000000
00000100
00000010
,
00001000
00000000
00000100
00010000
00001000
00000000
00011000
00000000
,
00001000
00010000
01000000
10000000
01000000
00000000
00100000
00010000
,
01000000
00000000
00001000
00010000
00000010
00000000
00001000
00000000
,
00000101
00000000
00000000
00000000
00001010
00000000
00000000
00000000
00011000
00000000
00000000
00001000
00010000
00000000
00001000
00000000
,
01000000
00010000
00100000
01000000
10000000
00010000
00100000
00001000
,
00010000
00000000
00000000
00000000
00000000
00000000
00011000
00010000
,
00000010
00001000
00000001
00000100
00000010
00010000
00100000
10000000
,
00010000
00000000
01000000
00100000
10000000
00010000
01000000
00001000
,
00010000
00000010
00001000
00000001
00000101
00000000
00001100
00000000
,
00011000
00000000
00010000
00001000
00100000
00010000
10000000
01000000
,
00100000
00010000
10000000
01000000
00100000
00001000
00000010
00000001
,
00001000
00000000
00000100
00000010
00000001
00001000
00000100
00010000
,
00001000
00100000
00010000
10000000
11000000
00000000
01010000
00000000
,
00011000
00000000
00000000
00000000
00010000
00000000
00001000
00010000
00001000
00000000
00000000
00000000
00000000
00000000
00000000
00000000
,
00000000
00000000
00000000
00000000
;

//---------------dance-single - ----------------
#NOTES:
     dance-single:
     :
     Hard:
     13:
     0.548688,0.592413,0.283653,0.099662,0.218490,501.000000,464.000000,37.000000,13.000000,0.000000,0.000000,0.548688,0.592413,0.283653,0.099662,0.218490,501.000000,464.000000,37.000000,13.000000,0.000000,0.000000:
// measure 0
0000
0000
0000
0000
,  // measure 1
0000
0000
0000
0000
,  // measure 2
0000
0000
0000
0000
,  // measure 3
0000
0000
0000
0000
,  // measure 4
0000
0000
0000
0000
,  // measure 5
0000
0000
0000
0000
0000
0000
0001
0100
,  // measure 6
1000
0000
0000
0100
0010
0000
1000
0000
,  // measure 7
0001
0100
0010
1000
0001
0000
1000
0010
,  // measure 8
0001
0000
0000
0010
0100
0000
0001
0000
,  // measure 9
1000
0100
0010
0110
,  // measure 10
0001
0000
0100
0000
0010
0000
0100
0000
0001
0010
0000
0010
0000
0100
1000
0001
,  // measure 11
0100
0000
0100
0000
0010
1000
0000
1000
0010
0100
0000
0001
0000
0100
0010
1000
,  // measure 12
0010
0000
1000
0000
0100
0000
1000
0000
0001
0010
0000
0010
0000
0100
1000
0100
,  // measure 13
0010
0000
0010
0000
0100
0010
0000
0010
0001
1000
0000
0010
0100
0000
0010
0000
,  // measure 14
1000
0100
0010
0001
0011
0000
0110
0000
,  // measure 15
1000
0010
0100
0001
0010
0000
0001
0100
,  // measure 16
0001
0010
0100
1000
0001
1000
0010
0100
,  // measure 17
0110
0000
1010
0000
0101
0000
0001
0100
,  // measure 18
0001
0010
0100
1000
1100
0000
0110
0000
,  // measure 19
0001
0100
0010
1000
0100
0000
1000
0010
,  // measure 20
1000
0100
0010
0001
1000
0001
0100
0010
,  // measure 21
0110
0101
1010
0000
,  // measure 22
0001
0010
0100
1000
0001
0100
1000
0100
,  // measure 23
0001
0200
0320
2030
,  // measure 24
3100
0010
0100
1000
0001
0100
0010
0100
,  // measure 25
0001
0000
0010
0001
0100
0000
0001
0000
,  // measure 26
1000
0100
0010
0001
1000
0010
0001
0010
,  // measure 27
1000
0200
0320
0032
,  // measure 28
1003
0010
0100
0001
1000
0100
0010
0001
,  // measure 29
1000
0000
0010
0000
0100
0000
0010
0000
1000
0000
0001
0000
0010
0000
0100
0010
,  // measure 30
0001
0100
0010
1000
0100
0010
0001
0100
,  // measure 31
0020
0000
1000
0000
1030
0000
0001
0000
0011
0000
0000
1001
0000
0000
1100
0000
,  // measure 32
0002
0000
0100
0000
0103
0000
1000
0000
1010
0000
0000
0101
0000
0000
0110
0000
,  // measure 33
2000
0000
0001
0000
3001
0000
0100
0000
0110
0000
0000
1010
0000
0000
0101
0000
,  // measure 34
2000
0010
0001
3100
,  // measure 35
0002
0000
0010
0000
0013
0000
0001
0000
1001
0000
0000
0110
0000
0000
0101
0000
,  // measure 36
2000
0000
0010
0000
3010
0000
1000
0000
1001
0000
0000
0110
0000
0000
1010
0000
,  // measure 37
0001
0000
0000
0010
0000
0000
1000
0000
0010
0000
0000
0001
0000
0000
0100
0000
,  // measure 38
0010
1000
0100
0010
0100
0001
0100
1000
,  // measure 39
0001
0010
0100
1000
0001
0000
0010
0100
,  // measure 40
1000
0010
0100
0001
0010
0100
0010
1000
,  // measure 41
0001
0100
1000
0001
1000
0000
0010
0100
,  // measure 42
0001
1000
0100
0010
0001
0010
1000
0010
,  // measure 43
0001
0000
0100
0001
1000
0000
0010
0100
0001
0000
0000
0000
0100
0000
0010
0000
,  // measure 44
1000
0100
0010
0001
0100
0010
0100
1000
,  // measure 45
0001
0010
1000
0001
1000
0000
0100
0010
,  // measure 46
0001
1000
0010
0100
0001
0100
1000
0100
,  // measure 47
0001
0000
0010
0001
1000
0000
0100
0010
0001
0000
0000
0100
0010
0000
0100
0000
,  // measure 48
0001
0000
1000
0000
0100
0000
1000
0000
0010
0100
0000
0001
0000
0010
0001
0010
,  // measure 49
0100
0000
0100
0000
1000
0001
0000
0001
0100
0010
0000
1000
0000
0010
0100
0010
,  // measure 50
1000
0000
0001
0000
0010
0000
0001
0000
1000
0010
0000
0010
0000
0100
0010
0100
,  // measure 51
0001
0000
0001
0000
1000
0010
0000
0010
0100
0001
0000
0100
0000
0001
0010
0100
,  // measure 52
2000
0000
0000
3000
,  // measure 53
0001
0100
0001
1000
0001
0010
0100
1000
,  // measure 54
0001
0100
0001
0100
0001
0000
1000
0010
,  // measure 55
1000
0100
1000
0001
0100
0010
1000
0001
,  // measure 56
0100
0010
0100
1000
0100
0000
0001
0010
,  // measure 57
0100
0000
1000
0010
1000
0000
0110
0000
,  // measure 58
0001
0010
1000
0010
0001
0000
0100
0010
,  // measure 59
0100
0000
0001
0010
0001
0000
1000
0000
,  // measure 60
1010
0000
0000
0000
0011
0000
0000
0000
0101
0000
0000
1000
0010
0000
1000
0000
,  // measure 61
0001
0100
0010
1000
0001
0010
0001
1000
,  // measure 62
0100
0000
0000
0000
1001
1000
0010
0100
,  // measure 63
0001
0000
0100
0000
0001
1000
0010
0000
1000
0000
0100
0000
0010
0000
0000
0000
,  // measure 64
0001
0000
0100
0000
0001
0000
1000
0010
0100
0000
0010
0000
1000
0000
0100
0000
,  // measure 65
0010
0001
0011
0000
0101
0000
1100
0000
,  // measure 66
1000
0001
0100
0010
0100
0001
1000
0010
,  // measure 67
0100
0000
0001
0000
1000
0001
0010
0000
0001
0000
0100
0000
0010
0000
0000
0000
,  // measure 68
1000
0000
0100
0000
1000
0000
0001
0010
0100
0000
0010
0000
0001
0000
0100
0000
,  // measure 69
0010
1000
1010
0000
1100
0000
0101
0000
,  // measure 70
0100
0000
0010
0100
0010
0000
0000
0000
0000
0000
0000
0000
0000
0000
0000
0000
;

//---------------dance-double - ----------------
#NOTES:
     dance-double:
     :
     Medium:
     10:
     0.393172,0.486427,0.214656,0.122661,0.084329,359.000000,331.000000,28.000000,16.000000,0.000000,0.000000,0.393172,0.486427,0.214656,0.122661,0.084329,359.000000,331.000000,28.000000,16.000000,0.000000,0.000000:
00000000
00000000
00000000
00000000
,
00000000
00000000
00000000
00000000
,
00000000
00000000
00000000
00000000
,
00000000
00000000
00000000
00000000
,
00000000
00000000
00000000
00000000
,
00000000
00000000
00000000
00000000
00000000
00000000
00000001
00000100
,
00000001
00001000
00000100
00010000
,
00001000
00010000
00001000
00000000
01000000
00000000
00010000
00100000
,
00010000
10000000
01000000
00100000
,
00010000
00100000
00001000
00011000
,
00010000
00000000
00000100
00000000
00010000
00000000
00000000
00000000
00000010
00000000
00000000
00001000
00000000
00000010
00001000
00000000
,
00000001
00000000
00000100
00000000
00000010
00000000
00000000
00000000
00010000
00000000
00000000
00001000
00000000
00010000
00001000
00000000
,
01000000
00000000
00010000
00000000
10000000
00000000
00000000
00000000
00100000
00000000
00000000
01000000
00000000
00100000
01000000
00000000
,
00010000
00100000
00001000
00000000
00010000
00001000
00000100
00000000
,
00000001
00000000
00001000
00000010
00001000
00000000
00001010
00000000
,
00000001
00000100
00001000
00000000
00010000
00000000
00001000
00000000
,
00100000
00000000
00010000
00100000
00010000
00000000
10000000
00000000
,
11000000
01010000
00011000
00010000
,
00000010
00000000
00001000
00000001
00001000
00000000
00000101
00000000
,
00000001
00000010
00001000
00000000
00010000
00000000
00001000
00000000
,
01000000
00000000
00010000
10000000
00010000
00000000
00100000
00000000
,
00011000
00001010
00000011
00000000
,
00001000
00000010
00001000
00000000
00000100
00010000
00000100
00000000
,
00010000
00002000
00023000
00230000
,
20300000
00000000
30000000
00010000
01000000
00010000
00100000
00000000
,
00001000
00000000
00000000
00010000
00000010
00000000
00001000
00000000
,
00000001
00000100
00001000
00000000
00010000
01000000
10000000
00000000
,
00100000
00020000
00032000
00003200
,
00000302
00000000
00000003
00001000
00000100
00000010
00000100
00000000
,
00010000
00001000
00100000
00000000
00010000
10000000
01000000
00000000
,
00100000
00010000
00100000
00001000
00010000
00001000
00010000
00000000
,
00000020
00000000
00000000
00000000
00000030
00000000
00001000
00000000
00001000
00000000
00000000
00000001
00000000
00000000
00000010
00000000
,
00000200
00000000
00000000
00000000
00000300
00000000
00010000
00000000
00010000
00000000
00000000
00001000
00000000
00000000
01000000
00000000
,
00020000
00000000
00000000
00000000
00030000
00000000
10000000
00000000
10000000
00000000
00000000
00100000
00000000
00000000
00010000
00000000
,
00002000
00100000
00010000
00003010
,
00000002
00000000
00000000
00000000
00000003
00000000
00000100
00000000
00000100
00000000
00000000
00001000
00000000
00000000
00010000
00000000
,
00002000
00000000
00000000
00000000
00003000
00000000
00010000
00000000
00010000
00000000
00000000
01000000
00000000
00000000
10000000
00000000
,
00010000
00000000
00000000
00100000
00000000
00000000
00001000
00000000
00010000
00000000
00000000
00000010
00000000
00000000
00001000
00000000
,
00000100
00000010
00000001
00000000
00001000
00000010
00001000
00000000
,
00000100
00010000
00001000
00010000
00001000
00000000
00010000
01000000
,
10000000
00000000
00000000
00100000
01000000
00000000
00010000
00000000
,
10000000
00100000
00010000
00000000
00001000
00000000
00010000
00001000
,
00000010
00000000
00000000
00000001
00000100
00000000
00000010
00000000
,
00001010
00000000
00011000
00000000
00110000
00000000
10000000
01000000
,
00010000
00000000
00000000
00001000
00010000
00000000
00001000
00000000
,
00000100
00000001
00000010
00000000
00000001
00000000
00001000
00000100
,
00010000
00000000
00000000
00001000
00100000
00000000
00010000
00000000
,
11000000
01010000
00011000
00010000
,
00000100
00000000
00001000
00000000
00000001
00000000
00000000
00000000
00000100
00000010
00000000
00000100
00000000
00000010
00001000
00000000
,
00000100
00000000
00010000
00000000
00001000
00000000
00000000
00000000
00100000
00010000
00000000
00100000
00000000
00010000
10000000
00000000
,
01000000
00000000
00100000
00000000
00010000
00000000
00000000
00000000
00100000
00001000
00000000
00001000
00000000
00010000
00001000
00000000
,
00010000
00000100
00001000
00000100
00000010
00000001
00001000
00000000
,
00002002
00000000
00000000
00003003
,
00000001
00000100
00001000
00010000
,
00001000
00010000
00001000
00010000
00001000
00000000
00000000
00000000
,
00010000
00100000
10000000
00010000
,
10010000
00000000
00011000
00000000
00001001
00000000
00000001
00000100
,
00000010
00001000
00000100
00010000
,
00001000
01000000
00010000
00000000
10000000
00000000
00100000
01000000
,
00010000
00100000
00001000
00010000
,
00011000
00001100
00000101
00000000
,
00000001
00000010
00001000
00000000
00010000
00100000
10000000
00000000
,
00010000
00000000
00000000
00000000
00000000
00000000
01000000
00100000
,
10000000
00000000
00010000
00000000
00100000
00001000
00010000
00001000
,
00010000
00000000
00000010
00001000
00000100
00000000
00000000
00000010
,
00000001
00001000
00001100
00011000
,
01010000
00000000
10000000
01000000
00100000
00000000
00000000
00010000
,
01000000
00000000
00001000
00000000
00010000
00000010
00001000
00000010
,
00000100
00000000
00000001
00000100
00001000
00000000
00000000
00010000
,
00001000
00010000
00011000
00110000
,
10100000
00000000
00010000
01000000
00001000
00000000
00000000
00000000
,
00000000
00000000
00000000
00000000
;

//---------------dance-single - ----------------
#NOTES:
     dance-single:
     :
     Beginner:
     2:
     0.108423,0.161567,0.022999,0.076663,0.000000,99.000000,96.000000,3.000000,10.000000,0.000000,0.000000,0.108423,0.161567,0.022999,0.076663,0.000000,99.000000,96.000000,3.000000,10.000000,0.000000,0.000000:
0000
0000
0000
0000
,
0000
0000
0000
0000
,
0000
0000
0000
0000
,
0000
0000
0000
0000
,
0000
0000
0000
0000
,
0000
0000
0000
0000
,
0100
0000
0000
0000
,
0001
0000
0100
0000
,
0010
0000
0000
0000
,
1000
0000
0100
0000
,
1000
0000
0000
0000
,
0010
0000
0000
0000
,
0100
0000
0000
0000
,
0001
0000
0000
0000
,
1000
0000
0010
0000
,
1000
0000
0000
0000
,
0001
0000
0010
0000
,
0001
0000
1000
0000
,
0010
0000
0100
0000
,
0010
0000
0000
0000
,
1000
0000
0001
0000
,
1001
0000
0000
0000
,
0100
0000
0010
0000
,
2000
0000
3000
0000
,
1000
0000
0001
0000
,
0002
0000
0003
0000
,
0001
0000
0100
0000
,
0020
0000
0030
0000
,
0010
0000
1000
0000
,
0200
0000
0300
0000
,
0100
0000
1000
0000
,
0002
0000
0003
0000
,
2000
0000
3000
0000
,
0020
0000
0030
0000
,
0100
0000
0001
0000
,
2000
0000
3000
0000
,
0002
0000
0003
0000
,
0100
0000
0010
0000
,
0110
0000
0000
0000
,
1001
0000
0000
0000
,
1000
0000
0010
0000
,
1000
0000
0001
0000
,
0100
0000
0001
0000
,
0010
0000
0100
0000
,
1000
0000
0100
0000
,
1000
0000
0001
0000
,
0010
0000
0100
0000
,
1000
0000
0000
0000
,
0001
0000
0000
0000
,
0001
0000
0000
0000
,
0100
0000
0000
0000
,
0100
0000
0000
0000
,
0020
0000
0030
0000
,
1000
0000
0000
0000
,
0100
0000
0000
0000
,
1000
0000
0000
0000
,
0010
0000
0000
0000
,
0100
0000
0001
0000
,
0100
0000
0001
0000
,
1000
0000
0010
0000
,
1000
0000
0000
0000
,
0001
0000
0000
0000
,
0000
0000
0000
0010
,
0000
0100
0000
0010
,
0000
0100
0000
1000
,
0000
0001
0000
1000
,
0000
0010
0000
0100
,
0000
0010
0000
0100
,
0000
0001
0000
0001
,
0000
1000
0000
0010
,
0000
0100
0000
0000
;

//---------------dance-single - ----------------
#NOTES:
     dance-single:
     :
     Easy:
     5:
     0.245322,0.269279,0.091996,0.176325,0.000000,224.000000,212.000000,12.000000,23.000000,0.000000,0.000000,0.245322,0.269279,0.091996,0.176325,0.000000,224.000000,212.000000,12.000000,23.000000,0.000000,0.000000:
0000
0000
0000
0000
,
0000
0000
0000
0000
,
0000
0000
0000
0000
,
0000
0000
0000
0000
,
0000
0000
0000
0000
,
0000
0000
0000
0000
,
1000
0000
0010
0000
,
0100
0001
1000
0000
,
0001
0000
0010
0000
,
0100
1000
0010
0000
,
0100
0010
0100
0001
,
1000
1000
0100
0010
,
0001
0100
0001
1000
,
0010
0010
1000
0100
,
0020
0000
0031
0100
,
0001
1000
0010
0100
,
0020
0000
1030
0001
,
1000
0100
0110
0001
,
2000
0000
3001
0100
,
0001
1000
0100
0010
,
0200
0000
1300
0001
,
0100
0010
0110
0000
,
1000
0100
1000
0001
,
0200
0000
0320
0000
,
2030
0000
3001
0010
,
0001
0000
1000
0000
,
0001
0100
0010
0100
,
0002
0000
2003
0000
,
3020
0000
1030
0001
,
0010
0001
1000
0100
,
1000
0010
0100
0100
,
0002
0003
1000
1001
,
0200
0300
0010
0110
,
2000
3000
0001
1001
,
0200
0000
0320
0000
,
0230
0300
0001
1001
,
2000
3000
0100
0110
,
0001
0010
0100
1000
,
0100
0100
0010
0010
,
0001
1000
0001
0100
,
0020
0000
1030
0100
,
1000
0001
0010
0100
,
0020
0000
0031
1000
,
0001
0100
0110
1000
,
0002
0000
1003
0100
,
1000
0001
0100
0010
,
0200
0000
0301
1000
,
0100
0010
0110
0000
,
0001
0100
0001
0001
,
0010
0100
1000
0010
,
1000
0100
1000
1000
,
0001
0100
0010
0010
,
2002
0000
0000
3003
,
1000
0000
0100
0000
,
0010
0010
0010
0000
,
0001
0000
0100
0000
,
0010
0010
0010
1000
,
0001
0000
0100
0000
,
0010
1000
0010
1000
,
0001
0000
0010
0000
,
0100
0010
0110
0000
,
1000
0100
0010
0001
,
1000
0000
0000
0010
,
0100
0001
0100
0010
,
1000
0100
0010
0001
,
1000
0001
1000
1001
,
0001
0100
0010
1000
,
0100
1000
0001
0010
,
0100
0010
0001
1000
,
0010
0100
0010
1000
,
0001
0001
0000
0000
;

//---------------dance-single - ----------------
#NOTES:
     dance-single:
     :
     Medium:
     10:
     0.398648,0.484702,0.252988,0.122661,0.084329,364.000000,331.000000,33.000000,16.000000,0.000000,0.000000,0.398648,0.484702,0.252988,0.122661,0.084329,364.000000,331.000000,33.000000,16.000000,0.000000,0.000000:
0000
0000
0000
0000
,
0000
0000
0000
0000
,
0000
0000
0000
0000
,
0000
0000
0000
0000
,
0000
0000
0000
0000
,
0000
0000
0000
0000
0000
0000
0100
0010
,
0100
0010
1000
0100
,
0010
0001
1000
0000
0001
0000
0010
0100
,
0010
0100
1000
0001
,
0010
0100
1000
1001
,
0001
0000
0100
0000
0001
0000
0000
0000
1000
0000
0000
0100
0000
1000
0100
0000
,
0010
0000
0001
0000
0010
0000
0000
0000
0001
0000
0000
1000
0000
0001
1000
0000
,
0010
0000
0100
0000
0010
0000
0000
0000
0100
0000
0000
0001
0000
0100
0001
0000
,
1000
0010
0100
0000
0001
0010
0100
0000
,
1000
0000
0010
0100
0010
0000
0110
0000
,
0001
0100
1000
0000
0100
0000
0001
0000
,
0010
0000
0100
0010
0100
0000
1000
0000
,
1010
0011
0101
1000
,
0001
0000
0010
0100
0010
0000
0110
0000
,
1000
0100
0001
0000
0100
0000
1000
0000
,
0010
0000
0100
0010
0100
0000
0001
0000
,
0011
1010
1100
0000
,
0001
0100
0001
0000
1000
0010
1000
0000
,
0001
2000
3200
0320
,
0032
0000
0003
1000
0010
0100
0010
0000
,
1000
0000
0000
0100
0010
0000
0100
0000
,
1000
0010
0100
0000
0001
0010
0100
0000
,
1000
0002
0203
0320
,
2030
0000
3000
0001
0010
0100
0010
0000
,
0001
0010
1000
0000
1000
0010
0001
0000
,
1000
0100
1000
0100
0010
0001
0100
0000
,
0020
0000
0000
0000
0030
0000
1000
0000
1010
0000
0000
0001
0000
0000
0010
0000
,
0200
0000
0000
0000
0300
0000
0010
0000
0110
0000
0000
1000
0000
0000
0001
0000
,
0020
0000
0000
0000
0030
0000
0001
0000
0011
0000
0000
0100
0000
0000
1000
0000
,
0002
0100
0010
1003
,
0200
0000
0000
0000
0300
0000
0001
0000
0101
0000
0000
1000
0000
0000
0100
0000
,
0020
0000
0000
0000
0030
0000
0100
0000
0110
0000
0000
0001
0000
0000
1000
0000
,
0001
0000
0000
0100
0000
0000
0010
0000
1000
0000
0000
0010
0000
0000
1000
0000
,
0100
0010
0100
0000
0010
0001
0010
0000
,
0001
0100
0010
0100
0001
0000
1000
0100
,
0010
0000
0000
0001
0010
0000
0001
0000
,
1000
0010
0100
0000
0010
0000
0100
0001
,
0010
0000
0000
0001
1000
0000
0010
0000
,
0101
0000
0011
0000
1100
0000
0001
0100
,
0010
0000
0000
1000
0010
0000
1000
0000
,
0001
0010
0100
0000
0010
0000
0100
1000
,
0010
0000
0000
1000
0001
0000
0010
0000
,
1100
1010
0101
0010
,
0001
0000
1000
0000
0100
0000
0000
0000
1000
0001
0000
1000
0000
0001
0010
0000
,
0001
0000
0010
0000
0100
0000
0000
0000
1000
0010
0000
0100
0000
0010
0100
0000
,
0001
0000
1000
0000
0010
0000
0000
0000
0100
0010
0000
0010
0000
1000
0001
0000
,
0010
0001
1000
0010
1000
0100
0010
0000
,
0220
0000
0000
0330
,
1000
0100
1000
0010
,
0100
0010
0100
0010
0100
0000
0000
0000
,
0001
0010
0100
1000
,
1001
0000
0110
0000
1001
0000
0010
0100
,
0010
0001
1000
0100
,
0010
0001
0100
0000
0001
0000
1000
0010
,
0100
0001
1000
0010
,
0110
1001
0101
0000
,
1000
0100
0001
0000
0001
0100
1000
0000
,
0010
0000
0000
0000
0100
0010
1000
0000
,
0001
0000
0010
0001
0010
0100
1000
0000
,
0001
0100
0010
0000
0000
1000
0010
0000
,
0100
0110
0101
1001
,
0010
0001
0100
0000
0000
0010
0100
0000
,
0001
0000
1000
0010
1000
0100
0010
0000
,
0001
0010
1000
0000
0000
0010
0100
0000
,
0010
0011
1001
0110
,
1000
0100
0001
0000
0000
0000
0000
0000
;

//---------------dance-single - ----------------
#NOTES:
     dance-single:
     :
     Challenge:
     14:
     0.681206,0.827961,0.513642,0.306652,0.425480,622.000000,555.000000,67.000000,40.000000,0.000000,0.000000,0.681206,0.827961,0.513642,0.306652,0.425480,622.000000,555.000000,67.000000,40.000000,0.000000,0.000000:
// measure 0
0000
0000
0000
0000
,  // measure 1
0000
0000
0000
0000
,  // measure 2
0000
0000
0000
0000
,  // measure 3
0000
0000
0000
0000
,  // measure 4
0000
0000
0000
0000
,  // measure 5
0000
0000
0000
0000
0000
0000
1000
0100
,  // measure 6
0001
0000
0100
0010
0002
0000
0203
0000
,  // measure 7
0310
1000
0100
0010
0001
0000
1000
0010
,  // measure 8
0110
0000
0001
0010
0110
0000
1000
0000
,  // measure 9
0001
0010
0001
0010
0100
0010
0100
0010
0100
1000
0100
1000
0001
0000
0000
0000
,  // measure 10
1000
0000
0100
0000
0001
0000
0100
0000
1000
0010
0000
0010
0000
0100
1000
0100
,  // measure 11
0010
0000
0010
0000
1000
0100
0000
1000
0010
0001
0000
0010
0000
0100
1000
0100
,  // measure 12
0001
0000
0010
0000
1000
0000
0010
0000
0001
0100
0000
0100
0000
0010
0001
0010
,  // measure 13
0100
0000
0100
0000
0001
0010
0000
0001
0100
1000
0000
0100
0010
0000
0010
0000
,  // measure 14
1000
0000
0001
0010
0001
0000
0100
0000
0010
0000
1000
0100
1000
0000
0001
0000
,  // measure 15
0101
0100
0110
0010
2010
0000
0100
3100
,  // measure 16
0010
0000
0001
0100
0001
0000
0010
0000
0100
0000
1000
0010
1000
0000
0100
0000
,  // measure 17
0110
0000
0011
0100
2100
0000
0010
3010
,  // measure 18
1000
0000
0100
0010
0001
0000
1000
0000
0010
0000
0100
0001
0010
0000
0100
0000
,  // measure 19
1100
1000
1010
0010
0210
0000
0001
0301
,  // measure 20
1001
0010
0010
1000
1001
0010
0010
0001
,  // measure 21
0101
1010
0210
0301
,  // measure 22
1001
1000
0100
0010
1001
0001
0100
0010
,  // measure 23
1000
0100
1000
0010
1000
0001
1000
0100
,  // measure 24
0010
0001
0100
0001
0010
0100
1000
0001
,  // measure 25
0100
0010
0100
1000
0100
0010
0100
0001
,  // measure 26
0010
0000
0100
0000
0010
0000
0001
0100
0010
1000
0100
0010
0200
0000
0000
0000
,  // measure 27
1300
0010
0200
0001
0320
1000
2030
0100
,  // measure 28
3002
0100
0010
0203
0320
2030
3200
0320
,  // measure 29
0032
0000
0100
0000
1000
0000
0103
0000
0001
0000
0010
0000
0100
0000
1000
0001
,  // measure 30
1000
0100
0010
0001
0010
0100
1000
0010
0100
0001
0010
0100
1000
0100
0010
0001
,  // measure 31
2000
0000
3001
0010
0001
0000
0100
0000
0110
0000
0000
1010
0000
0000
0101
0000
,  // measure 32
0002
0000
1003
0010
1000
0000
0100
0000
0110
0000
0000
0011
0000
0000
1100
0000
,  // measure 33
0200
0000
0310
0001
0010
0000
0100
0000
1100
0000
0000
1001
0000
0000
0101
0000
,  // measure 34
2000
0010
3020
0100
0230
0001
0302
1000
,  // measure 35
2003
0000
3100
0010
0001
0000
1000
0000
1001
0000
0000
0110
0000
0000
1001
0000
,  // measure 36
0002
0000
0103
0010
1000
0000
0001
0000
1001
0000
0000
0110
0000
0000
1001
0000
,  // measure 37
1000
0000
1000
0100
0000
0100
0010
0000
0001
0000
0001
0100
0000
0100
0010
0000
,  // measure 38
1001
1000
0010
0100
1001
0001
0010
0100
,  // measure 39
0020
0000
0000
0000
0200
0030
0010
0310
,  // measure 40
0001
0000
1000
0010
1000
0000
0100
0000
0010
0000
0001
0100
0001
0000
1000
0000
,  // measure 41
1100
0100
0110
0010
0012
0000
0100
0103
,  // measure 42
0010
0000
1000
0100
1000
0000
0010
0000
0100
0000
0001
0010
0001
0000
0100
0000
,  // measure 43
0110
0000
1010
0100
0102
0000
0010
0013
,  // measure 44
0001
0000
0100
0010
1000
0000
0001
0000
0010
0000
0100
1000
0010
0000
0100
0000
,  // measure 45
0101
0001
0011
0010
0210
0000
1000
1300
,  // measure 46
1001
0010
0010
0001
1001
0010
0010
1000
,  // measure 47
1100
0011
0210
1300
,  // measure 48
0001
0000
0100
0000
1000
0000
0100
0000
0001
0010
0000
0010
0000
0100
0001
0100
,  // measure 49
0010
0000
0010
0000
0001
0100
0000
0001
0010
1000
0000
0010
0000
0100
0001
0100
,  // measure 50
1000
0000
0010
0000
0001
0000
0010
0000
1000
0100
0000
0100
0000
0010
1000
0010
,  // measure 51
0100
0000
0100
0000
1000
0010
0000
1000
0100
0001
0000
0100
0000
0010
1000
0010
,  // measure 52
0002
0000
0000
0000
0000
0000
1000
1003
,  // measure 53
0001
0100
0010
1000
0100
0010
0001
0010
,  // measure 54
0100
0001
0100
1000
0010
0100
0001
0001
,  // measure 55
1000
0100
0010
0001
0100
0010
1000
0010
,  // measure 56
0110
0000
0101
0000
1020
0000
0100
0130
,  // measure 57
0001
0000
1000
0100
1000
0000
0001
0010
0001
0000
0100
0010
0100
0000
0001
1000
,  // measure 58
0001
0000
0010
0001
0010
0000
0100
0010
0100
0000
1000
0100
1000
0000
0001
0000
,  // measure 59
1001
0100
0010
0100
1001
0010
0100
0010
,  // measure 60
1001
1000
1010
0010
0110
0100
0101
1001
,  // measure 61
1000
0100
0010
0001
0010
0100
1000
0010
0100
0001
0010
0100
1000
0100
0010
0001
,  // measure 62
0200
0000
0000
0000
0010
0000
0310
0000
1001
0000
1000
0000
0100
0000
0010
0001
,  // measure 63
0100
0000
0010
0000
1000
0100
1000
0000
0001
0100
0001
0000
0021
0000
0000
0000
,  // measure 64
0100
0000
0130
0000
1000
0000
0001
0010
0100
0000
1000
0000
0010
0000
0100
0001
,  // measure 65
0010
0100
1100
0000
0110
0001
2001
0000
,  // measure 66
0010
0000
3010
0000
0100
0000
0001
0010
1000
0000
0010
0000
0001
0000
1000
0010
,  // measure 67
0001
0000
0010
0000
1000
0100
0010
0000
0001
0100
0010
0000
2010
0000
0000
0000
,  // measure 68
0100
0000
3100
0000
0010
0000
0001
0100
1000
0000
0100
0000
0001
0000
1000
0100
,  // measure 69
0001
0000
0100
0000
1000
0010
1000
0000
0001
0100
0001
0000
0010
0001
0010
0000
,  // measure 70
1100
0100
0220
0000
0000
0000
0000
0000
,  // measure 71
0000
0000
0000
0000
,  // measure 72
0330
0000
0000
0000
;

//---------------dance-double - ----------------
#NOTES:
     dance-double:
     :
     Easy:
     5:
     0.219037,0.270237,0.030665,0.099662,0.000000,200.000000,196.000000,4.000000,13.000000,0.000000,0.000000,0.219037,0.270237,0.030665,0.099662,0.000000,200.000000,196.000000,4.000000,13.000000,0.000000,0.000000:
00000000
00000000
00000000
00000000
,
00000000
00000000
00000000
00000000
,
00000000
00000000
00000000
00000000
,
00000000
00000000
00000000
00000000
,
00000000
00000000
00000000
00000000
,
00000000
00000000
00000000
00000000
,
10000000
00000000
00100000
00000000
,
01000000
00010000
00100000
00000000
,
00001000
00000000
00010000
00000000
,
00000010
00001000
00000001
00000000
,
00001000
00000100
00001000
00000000
,
00000100
00010000
00001000
00001000
,
00100000
00010000
00100000
00000000
,
00010000
10000000
01000000
01000000
,
00100000
00000000
00010000
00000000
,
00100000
00001000
00100000
00000000
,
00001000
00000000
00010000
00000000
,
00000010
00001000
00000010
00000000
,
00001000
00000000
00000001
00000000
,
00000100
00000010
00000100
00000000
,
00000010
00000000
00010000
00000000
,
00001000
00010000
00011000
00000000
,
00001000
00100000
00010000
10000000
,
00010000
00000000
00200000
00000000
,
00302000
00000000
00013000
00001000
,
00010000
00000000
00000100
00000000
,
00001000
00000100
00000010
00000001
,
00001000
00000000
00000200
00000000
,
00020300
00000000
00031000
00010000
,
00001000
01000000
00010000
01000000
,
00100000
10000000
00010000
01000000
,
00002000
00003000
00010000
00010000
,
00000020
00000030
00001000
00001000
,
00000002
00000003
00000100
00000100
,
00000020
00000000
00020030
00000000
,
00032000
00003000
00100000
00100000
,
00020000
00030000
10000000
10000000
,
01000000
00010000
00001000
00000010
,
00000001
00000100
00000010
00001000
,
00000100
00010000
00001000
00010000
,
00001000
00000000
00100000
00000000
,
00010000
01000000
00010000
10000000
,
01000000
00000000
00100000
00000000
,
00001000
00010000
00001000
00010000
,
00000010
00000000
00001000
00000000
,
00000001
00000100
00000001
00001000
,
00000100
00000000
00010000
00000000
,
00001000
00010000
00011000
00000000
,
00001000
00100000
00010000
00010000
,
10000000
00100000
01000000
01000000
,
00010000
00100000
00001000
00001000
,
00010000
00000100
00001000
00000001
,
00002002
00000000
00000000
00003003
,
00000001
00000000
00000100
00000000
,
00001000
00000000
00010000
00000000
,
00100000
00000000
10000000
00000000
,
00010000
00010000
00010000
00000000
,
10000000
00000000
01000000
00000000
,
00010000
00001000
00010000
00000000
,
00001000
00000000
00000010
00000000
,
00000001
00001000
00001001
00000000
,
00000100
00001000
00000100
00010000
,
00001000
00000000
00000000
00000000
,
01000000
00010000
00100000
01000000
,
10000000
00100000
01000000
00010000
,
00100000
00001000
00010000
00000100
,
00001000
00000001
00000010
00000100
,
00001000
00000010
00010000
00001000
,
00010000
00001000
01000000
00010000
,
10000000
00100000
01000000
00010000
,
00100000
00001000
00001000
00000000
,
00000000
00000000
00000000
00000000
;
