#TITLE:This Broken Soul;
#SUBTITLE:;
#ARTIST:Rebecca Kneubuhl & Gabriel Mann;
#TITLETRANSLIT:;
#SUBTITLETRANSLIT:;
#ARTISTTRANSLIT:;
#GENRE:;
#CREDIT:;
#BANNER:This Broken Soul.png;
#BACKGROUND:This Broken Soul-bg.png;
#LYRICSPATH:;
#CDTITLE:cdtitle.png;
#MUSIC:This Broken Soul.ogg;
#OFFSET:-0.327000;
#SAMPLESTART:172.634995;
#SAMPLELENGTH:15.000000;
#SELECTABLE:YES;
#BPMS:0.000000=78.000000
;
#STOPS:
;
#BGCHANGES:;
#KEYSOUNDS:;
#ATTACKS:;

//---------------dance-single - ----------------
#NOTES:
     dance-single:
     :
     Hard:
     8:
     0.302342,0.467456,0.410950,0.339034,0.025684,618.000000,498.000000,120.000000,99.000000,0.000000,0.000000,0.302342,0.467456,0.410950,0.339034,0.025684,618.000000,498.000000,120.000000,99.000000,0.000000,0.000000:
// measure 0
0000
0000
0000
0000
,  // measure 1
0000
0000
0000
0000
,  // measure 2
0000
0000
0000
0000
,  // measure 3
0000
0000
0000
0000
,  // measure 4
1002
0000
0000
1000
0000
0000
1000
0003
,  // measure 5
2200
0000
0000
0000
0000
0000
0000
3300
,  // measure 6
0021
0000
0000
0001
0000
0000
0001
0030
,  // measure 7
0102
0000
0000
0200
0000
0000
0000
0303
,  // measure 8
2010
0000
0001
0001
0000
0100
0000
3001
,  // measure 9
0022
0000
0000
0000
0000
0000
0003
0130
,  // measure 10
2200
0000
0000
0000
0000
0000
0000
3300
,  // measure 11
0220
0000
0000
0000
0000
0000
0000
0330
,  // measure 12
0022
0000
0003
2000
0000
3000
0002
0033
,  // measure 13
0202
0000
0000
0000
0000
0000
0000
0303
,  // measure 14
1020
0000
0000
0100
0000
0100
0000
1030
,  // measure 15
2100
0000
0000
0200
0000
0000
0000
3300
,  // measure 16
0012
0000
1000
1000
0000
0100
0000
1003
,  // measure 17
2020
0000
0000
0000
0000
0000
3000
0130
,  // measure 18
0202
0000
0000
0000
0000
0000
0000
0303
,  // measure 19
0220
0000
0000
0300
0002
0003
2000
3030
,  // measure 20
2001
0001
0001
0001
0000
0100
0000
3001
,  // measure 21
0012
0010
0010
0010
0000
0000
0103
0010
,  // measure 22
1020
1000
1000
1000
0000
0100
0000
1030
,  // measure 23
2100
0100
0100
0100
0000
3010
0100
0001
,  // measure 24
0102
0100
0100
0100
0000
1000
0000
0103
,  // measure 25
0210
0010
0010
0010
0000
0301
0010
0100
,  // measure 26
1200
1000
1000
1000
0010
0000
1300
0001
,  // measure 27
1002
1000
1000
2000
0000
0000
0000
3003
,  // measure 28
2010
0000
0001
0000
0010
0000
3001
0010
,  // measure 29
0210
0000
1000
0000
0010
0000
1000
0300
,  // measure 30
2001
0000
0010
0010
0000
0001
0000
3100
,  // measure 31
1000
0010
0100
0001
0022
0033
2200
3300
,  // measure 32
0102
0000
1000
0000
0010
0010
0000
1003
,  // measure 33
1200
0000
0010
0000
1000
0000
0310
0001
,  // measure 34
0201
0000
0010
0000
0001
0000
0310
1000
,  // measure 35
1002
0000
0000
0000
0000
0000
0000
0000
0100
0000
0000
0000
0000
0000
0000
0000
1000
0000
0000
0000
0000
0000
0000
0000
0103
0000
0000
0000
0010
0000
0000
1000
,  // measure 36
0002
0000
1000
1000
0000
0100
0000
1000
,  // measure 37
2003
0100
0000
0001
0000
0100
0000
3001
,  // measure 38
0022
0000
0000
0033
2200
0000
0000
3300
,  // measure 39
0202
0000
0000
0303
2002
0000
0000
3003
,  // measure 40
1000
0000
1000
0000
0010
0000
1000
0000
1100
0000
0100
0000
0010
0000
0001
0100
,  // measure 41
0001
0010
0010
0001
0101
0100
0020
2030
,  // measure 42
3100
0100
0010
0100
1100
1000
0010
0100
,  // measure 43
0100
0001
0001
0010
0011
0001
0100
0010
,  // measure 44
1000
0000
1000
0000
0100
0000
0010
0000
0110
0000
0100
0000
1000
0000
0010
0100
,  // measure 45
0010
0100
0100
0001
0011
0010
0100
0010
,  // measure 46
0001
0001
0100
0010
1010
1000
0001
0002
,  // measure 47
0010
0023
0100
0230
1000
1300
1001
1001
,  // measure 48
0002
0000
0100
0000
0103
0000
0001
0000
0011
0000
0010
0000
0100
0000
1000
0010
,  // measure 49
2000
0100
3100
1000
1010
0010
0200
0302
,  // measure 50
0023
0100
0130
0010
0011
0001
0100
0010
,  // measure 51
0020
1000
1030
0100
1100
1000
0010
0100
,  // measure 52
0002
0000
0010
0000
0013
0000
0100
0000
0110
0000
0010
0000
0001
0000
0100
0010
,  // measure 53
0200
0010
0310
1000
1100
0100
0010
0100
,  // measure 54
2000
0010
3010
0100
0101
0001
0010
0100
,  // measure 55
0100
1100
1100
1000
0001
0101
0100
0010
,  // measure 56
2000
0000
0100
0000
0100
0000
3010
0000
1100
0000
1000
0000
0010
0000
0100
0001
,  // measure 57
0200
0010
0010
0301
0011
0010
0200
2300
,  // measure 58
3002
0100
0100
0013
0101
0001
1000
0100
,  // measure 59
1000
0000
0010
0000
0100
0000
0001
0000
0011
0000
0010
0100
0010
0000
0100
0000
,  // measure 60
0020
0000
0001
0000
0001
0000
0130
0000
0011
0000
0010
0000
0100
0000
1000
0010
,  // measure 61
2000
0100
0100
3001
0101
0100
0010
1000
,  // measure 62
0200
0010
0010
1300
1100
0100
1000
0010
,  // measure 63
0100
0000
0100
0000
0001
0000
0001
0000
1001
0000
1001
0000
1000
0100
0010
0000
,  // measure 64
0001
0001
0100
0001
0101
0000
0011
1010
,  // measure 65
0100
0100
1000
0100
1100
1000
0010
0010
,  // measure 66
0100
0100
0001
0010
0011
0000
0101
1100
,  // measure 67
1000
0000
1001
0000
0001
0000
0010
0100
0010
0000
0100
0000
0010
0001
0100
0010
,  // measure 68
1000
1000
0100
1000
1100
0000
1010
0011
,  // measure 69
0100
0100
0001
0100
0101
0001
0010
0010
,  // measure 70
0100
0100
1000
0010
2000
0010
3020
0100
,  // measure 71
0230
0001
0001
0001
0302
1000
1000
0003
,  // measure 72
2001
0000
0100
3000
,  // measure 73
0012
0000
0100
0003
,  // measure 74
1020
0000
0100
0000
,  // measure 75
0100
0000
0100
0030
,  // measure 76
0102
0000
0010
0003
,  // measure 77
2100
0000
0010
3000
,  // measure 78
0120
0000
1000
0000
,  // measure 79
0030
0000
0000
0000
,  // measure 80
1100
0000
1100
0000
1100
0000
1010
0000
1100
0000
1000
0000
0010
0000
0100
0001
,  // measure 81
0100
0101
0101
0011
0101
0001
0200
0310
,  // measure 82
1010
1010
1010
0110
1010
0010
1000
0100
,  // measure 83
1000
0000
0010
0000
0100
0000
0001
0000
0012
0000
0103
0000
2010
0000
3100
0010
,  // measure 84
0001
0000
0101
0000
0101
0000
1001
0000
0101
0000
0001
0000
0010
0000
0100
1000
,  // measure 85
0100
1100
1100
1010
1100
1000
0001
0010
,  // measure 86
0110
0110
0110
1100
0110
0100
1000
0010
,  // measure 87
0100
0101
1010
1100
0011
0110
1100
0101
,  // measure 88
2001
0000
0001
0001
0000
0010
0000
0001
,  // measure 89
3002
0010
0000
1000
0000
0010
0000
1000
,  // measure 90
2000
0000
0000
0000
,  // measure 91
3003
0000
0000
0000
;

//---------------dance-single - ----------------
#NOTES:
     dance-single:
     :
     Beginner:
     1:
     0.079255,0.124655,0.020548,0.068492,0.000000,162.000000,156.000000,6.000000,20.000000,0.000000,0.000000,0.079255,0.124655,0.020548,0.068492,0.000000,162.000000,156.000000,6.000000,20.000000,0.000000,0.000000:
0000
0000
0000
0000
,
0000
0000
0000
0000
,
0000
0000
0000
0000
,
0000
0000
0000
0000
,
1000
0000
0000
0000
,
1000
0000
0000
0000
,
0001
0000
0000
0000
,
0001
0000
0000
0000
,
0100
0000
0000
0000
,
0100
0000
0000
0000
,
0010
0000
0000
0000
,
0010
0000
0000
0000
,
1000
0000
0000
0000
,
0100
0000
0000
0000
,
0010
0000
0000
0000
,
0001
0000
0000
0000
,
0100
0000
0000
0000
,
0010
0000
0000
0000
,
1000
0000
0000
0000
,
0001
0000
0000
0000
,
0020
0000
0030
0000
,
0200
0000
0300
0000
,
2000
0000
3000
0000
,
0002
0000
0003
0000
,
2000
0000
3000
0000
,
0020
0000
0030
0000
,
0200
0000
0300
0000
,
0002
0000
0003
0000
,
1000
0000
1000
0000
,
1000
0000
1000
0000
,
0001
0000
0001
0000
,
0001
0000
0001
0000
,
0100
0000
0100
0000
,
0100
0000
0100
0000
,
0010
0000
0010
0000
,
0010
0000
0010
0000
,
2002
0000
0000
0000
,
3003
0000
0000
0000
,
0020
0000
0000
0000
,
0030
0000
0000
0000
,
1000
1000
1000
0000
,
0001
0000
1000
0000
,
0001
0001
0001
0000
,
1000
0000
0001
0000
,
0100
0100
0100
0000
,
0010
0000
0100
0000
,
0010
0010
0010
0000
,
0100
0000
0010
0000
,
1000
1000
1000
0000
,
0010
0000
0100
0000
,
0001
0001
0001
0000
,
0010
0000
0100
0000
,
0010
0010
0010
0000
,
0001
0000
1000
0000
,
0100
0100
0100
0000
,
1000
0000
0001
0000
,
1000
1000
1000
1000
,
1000
0000
0000
0000
,
0001
0001
0001
0000
,
0100
0100
0100
0000
,
0001
0001
0001
0001
,
0001
0000
0000
0000
,
1000
1000
1000
0000
,
0010
0010
0100
0100
,
0010
0000
1001
0000
,
0100
0000
1001
0000
,
1000
0000
0110
0000
,
0001
0000
1000
0000
,
0001
0000
0110
0000
,
1000
0000
0110
0000
,
0010
0000
0100
0000
,
0001
0000
1000
0000
,
0020
0000
0000
0030
,
0200
0000
0000
0300
,
0002
0000
0000
0000
,
0003
0000
0000
0000
,
2000
0000
0000
3000
,
0002
0000
0000
0003
,
0200
0000
0000
0000
,
0300
0000
0000
0000
,
0001
0001
0001
0000
,
0001
0001
0001
0000
,
1000
1000
1000
0000
,
1000
1000
0001
0001
,
0010
0010
0010
0000
,
0010
0010
0010
0000
,
0100
0100
0100
0000
,
0100
0100
0010
0010
,
0002
0000
0000
0003
,
2000
0000
0000
3000
,
0020
0000
0000
0000
,
0030
0000
0000
0000
;

//---------------dance-single - ----------------
#NOTES:
     dance-single:
     :
     Easy:
     3:
     0.108119,0.186982,0.023972,0.160956,0.000000,221.000000,214.000000,7.000000,47.000000,0.000000,0.000000,0.108119,0.186982,0.023972,0.160956,0.000000,221.000000,214.000000,7.000000,47.000000,0.000000,0.000000:
0000
0000
0000
0000
,
0000
0000
0000
0000
,
0000
0000
0000
0000
,
0000
0000
0000
0000
,
2000
0000
0000
3000
,
0020
0000
0000
0030
,
0200
0000
0000
0300
,
0002
0000
0000
0003
,
0020
0000
0000
0030
,
0200
0000
0000
0300
,
2000
0000
0000
3000
,
0002
0000
0000
0003
,
0020
0000
0000
0000
,
0032
0000
0000
0000
,
2003
0000
0000
0000
,
3200
0000
0000
0000
,
0320
0000
0000
0000
,
0230
0000
0000
0000
,
2300
0000
0000
0000
,
3002
0000
0000
0000
,
1003
1000
0000
0000
0000
0000
0000
0000
,
1000
1000
0000
0000
0000
0000
0000
0000
,
0001
0001
0000
0000
0000
0000
0000
0000
,
0001
0001
0000
0000
0000
0000
0000
0000
,
0100
0100
0000
0000
0000
0000
0000
0000
,
0100
0100
0000
0000
0000
0000
0000
0000
,
0010
0010
0000
0000
0000
0000
0000
0000
,
0010
0010
0000
0000
0000
0000
0000
0000
,
2000
0000
0001
0000
,
3002
0000
1000
0000
,
0203
0000
0010
0000
,
0320
0000
0100
0000
,
2030
0000
0100
0000
,
3020
0000
1000
0000
,
0230
0000
0001
0000
,
0302
0000
0010
0003
,
2002
0000
0000
0003
,
3020
0000
0000
0000
,
0130
0000
0010
0000
,
1000
0000
0001
0000
,
1000
1000
0010
0000
,
1000
0000
0001
0010
,
0001
0001
0100
0000
,
0001
0000
1000
0100
,
0010
0010
0001
0000
,
0100
0000
0001
0010
,
0100
0100
1000
0000
,
0010
0000
1000
0100
,
1000
0010
0100
0001
,
0020
0000
0100
0000
,
0031
0010
0100
1000
,
0020
0000
0230
0000
,
0301
0010
0100
0010
,
0002
0000
0100
0000
,
1003
0010
0100
0010
,
2000
0000
3002
0000
,
1003
0000
0001
0000
0010
0000
0001
1000
,
0001
0100
0010
1000
,
0001
0010
0100
1000
,
0001
0000
0100
0010
0200
0000
0320
0000
,
1030
0000
0100
0000
0010
0000
0100
1000
,
0001
0010
0100
0010
,
0001
0000
0100
0000
0010
0000
1000
0100
,
0010
0010
0100
0100
,
1000
1000
1010
0000
,
0001
0001
0011
0000
,
0100
0100
0101
0001
,
1000
1000
0001
0001
,
0010
0001
0011
0000
,
0100
1000
1100
0000
,
1000
0010
0100
0001
,
0010
0010
0100
0100
,
0020
0000
0000
0000
,
0032
0000
0000
0000
,
2003
0000
0000
0000
,
3000
0000
0000
0000
,
0020
0000
0000
0000
,
0230
0000
0000
0000
,
0302
0000
0000
0000
,
0003
0000
0000
0000
,
1000
0000
0100
0000
1000
0000
0010
0100
,
0010
0000
0100
0000
0001
0000
0010
0001
,
1000
0000
0100
0000
0010
0000
0001
0100
,
0001
0000
0010
0100
2000
0000
3002
0000
,
0103
0000
0010
0000
1000
0000
0100
0010
,
0100
0000
1000
0000
0001
0000
0100
0010
,
1000
0000
0100
0000
0010
0000
0001
1000
,
0010
0010
0100
0100
,
2002
0000
0000
3000
,
0203
0000
0000
0000
,
0320
0000
0000
0000
,
0030
0000
0000
0000
;

//---------------dance-single - ----------------
#NOTES:
     dance-single:
     :
     Medium:
     5:
     0.181503,0.311637,0.113011,0.267118,0.000000,371.000000,338.000000,33.000000,78.000000,0.000000,0.000000,0.181503,0.311637,0.113011,0.267118,0.000000,371.000000,338.000000,33.000000,78.000000,0.000000,0.000000:
0000
0000
0000
0000
,
0000
0000
0000
0000
,
0000
0000
0000
0000
,
0000
0000
0000
0000
,
2200
0000
0000
3300
,
0022
0000
0000
0033
,
0202
0000
0000
0303
,
2020
0000
0000
3030
,
0220
0000
0000
0330
,
2200
0000
0000
3300
,
0202
0000
0000
0303
,
2002
0000
0000
3003
,
1020
0000
0000
1000
0000
0000
1030
0000
,
2200
0000
0000
3300
,
0202
0000
0000
0303
,
0022
0000
0000
0033
,
2002
0000
0000
3003
,
2020
0000
0000
3030
,
0022
0000
0000
0033
,
0120
0000
0100
0130
,
1002
1000
0000
0000
0000
0000
0003
0000
,
2001
0001
0000
0000
0000
0000
3000
0000
,
0120
0100
0000
0000
0000
0000
0030
0000
,
0210
0010
0000
0000
0000
0000
0300
0000
,
0012
0010
0000
0000
0000
0000
0003
0000
,
2100
0100
0000
0000
0000
0000
3000
0000
,
0201
0001
0000
0000
0000
0000
0300
0000
,
1020
1000
0000
0000
0000
0000
0030
0000
,
2000
0001
0010
0001
,
3002
1000
0100
1000
,
0203
0010
0001
0010
,
0320
0100
2030
3002
,
2003
0100
0001
0100
,
3200
0010
1000
0010
,
0320
0001
0100
0001
,
0032
1000
0010
1003
,
2001
0000
0001
0000
,
3020
0000
0100
0000
,
2030
0000
3200
0000
,
0320
0000
0032
0000
,
1003
0000
0001
0010
0001
0000
0100
0000
,
0010
0000
0010
0000
0100
0000
0001
0010
,
0100
0000
1000
0010
1000
0000
0100
0000
,
0010
0000
0010
0000
0100
0000
1000
0001
,
0010
0000
0001
0100
0001
0000
1000
0000
,
0100
0000
0100
0000
1000
0000
0001
0100
,
0010
0000
0010
0000
1000
0000
0100
0200
,
0000
0320
0000
0032
0000
0103
0010
0010
,
1000
0000
0001
0100
0001
0000
0010
0000
,
0002
1000
0100
1000
,
0103
0000
0010
1000
0010
0000
1000
0000
,
0200
0010
0320
0100
,
0031
0000
1000
0100
1000
0000
0010
0000
,
2000
0000
0001
0000
0100
0000
3001
0010
,
0200
0000
1000
0000
0010
0000
1300
0010
,
0100
0001
0001
0010
0010
0001
0100
0010
,
1000
0000
0100
0000
1000
0000
0010
0100
,
0001
0010
0100
0010
,
0001
0000
1000
0010
0000
1000
0000
0100
,
0010
0100
1000
0001
0200
0000
0320
0000
,
1030
0000
0001
0000
0010
0000
0100
0010
,
0001
0000
0100
0000
0010
0000
1000
0100
,
0010
0000
0100
0000
1000
0000
0010
0100
,
0001
0001
1000
1000
0010
0010
1000
0001
,
0100
0100
0100
0100
0010
0000
1000
0001
,
0010
0010
0010
0010
0001
0000
0100
0010
,
1000
1000
1000
1000
0200
0000
0320
0000
,
0031
0100
0001
0100
0010
1000
0010
1000
,
0100
0100
0100
0100
0010
0000
0001
1000
,
0010
0010
0010
0010
1000
0000
0100
0010
,
0001
0001
0001
0001
0100
0100
0010
0010
,
1000
0100
1000
0100
0010
0001
0010
0000
,
2001
0000
0100
0000
,
3002
0000
0100
0000
,
0023
0000
0100
0000
,
0100
0000
0100
0000
,
0032
0000
0010
0000
,
2003
0000
0010
0000
,
3200
0000
0010
0000
,
0300
0000
0000
0000
,
1000
0010
0010
1000
1100
0100
0010
0010
,
0100
1000
1000
0001
0101
0100
0010
1000
,
0001
0100
0100
0001
0011
0010
0001
0001
,
1000
0100
1000
0010
0200
0001
0302
1000
,
1003
0100
0100
1000
1010
0010
0100
0100
,
0010
1000
1000
0001
0011
0010
0100
1000
,
0001
0010
0010
0001
0101
0100
0001
0001
,
1000
0100
1000
0100
0010
0001
0010
0001
,
2002
0000
0000
3000
,
0203
0000
0000
0000
,
0320
0000
0000
0000
,
0030
0000
0000
0000
;
