#VERSION:0.83;
#TITLE:"The Take Over, The Breaks Over";
#SUBTITLE:;
#ARTIST:Fall Out Boy;
#TITLETRANSLIT:;
#SUBTITLETRANSLIT:;
#ARTISTTRANSLIT:;
#GENRE:Pop punk;
#ORIGIN:;
#CREDIT:;
#BANNER:The Take Over The Breaks Over.png;
#BACKGROUND:The Take Over The Breaks Over-bg.png;
#PREVIEWVID:;
#JACKET:The Take Over The Breaks Over-jacket.png;
#CDIMAGE:;
#DISCIMAGE:;
#LYRICSPATH:;
#CDTITLE:cdtitle.png;
#MUSIC:The Take Over The Breaks Over.ogg;
#OFFSET:0.046000;
#SAMPLESTART:106.796997;
#SAMPLELENGTH:15.000000;
#SELECTABLE:YES;
#BPMS:0.000=149.940;
#STOPS:;
#DELAYS:;
#WARPS:;
#TIMESIGNATURES:0.000=4=4;
#TICKCOUNTS:0.000=4;
#COMBOS:0.000=1;
#SPEEDS:0.000=1.000=0.000=0;
#SCROLLS:0.000=1.000;
#FAKES:;
#LABELS:0.000=Song Start;
#BGCHANGES:0.115=The Take Over The Breaks Over.avi=0.000=0=0=1=====,
99999=-nosongbg-=1.000=0=0=0 // don't automatically add -songbackground-
;
#KEYSOUNDS:;
#ATTACKS:
;

//---------------dance-single - ----------------
#NOTEDATA:;
#CHARTNAME:;
#STEPSTYPE:dance-single;
#DESCRIPTION:;
#CHARTSTYLE:;
#DIFFICULTY:Hard;
#METER:12;
#RADARVALUES:0.475928,0.550788,0.242371,0.453894,0.077118,756.000000,701.000000,55.000000,103.000000,0.000000,0.000000,0.000000,0.000000,0.000000,0.475928,0.550788,0.242371,0.453894,0.077118,756.000000,701.000000,55.000000,103.000000,0.000000,0.000000,0.000000,0.000000,0.000000;
#CREDIT:;
#NOTES:
// measure 0
0000
0000
0000
0000
,  // measure 1
0000
0000
0000
0000
,  // measure 2
0000
0000
0000
0000
,  // measure 3
0000
0000
0000
0000
,  // measure 4
0000
0000
0000
0000
,  // measure 5
0000
0000
0000
0000
,  // measure 6
0000
0000
0000
0000
,  // measure 7
0000
0000
0000
0000
,  // measure 8
0000
0000
0000
0000
,  // measure 9
0000
0000
0000
0000
,  // measure 10
0000
0000
0000
0000
,  // measure 11
1000
0000
1000
0000
1000
0001
1000
0001
,  // measure 12
1000
1000
1000
0000
1001
0000
1100
0000
,  // measure 13
0100
0000
0100
0000
0100
0001
0100
0001
,  // measure 14
0100
0100
0100
0000
0101
0000
0110
0000
,  // measure 15
0010
0100
0010
0001
,  // measure 16
0010
1000
0100
1000
,  // measure 17
0100
1000
0100
0000
0010
0100
0010
0000
,  // measure 18
0001
0010
0001
0000
1000
0001
1000
0000
,  // measure 19
0001
1000
0010
0100
,  // measure 20
1000
0010
0001
1000
,  // measure 21
0010
0001
0010
0000
0100
0001
0100
0000
,  // measure 22
0100
1000
0100
0000
0010
1000
0010
0000
,  // measure 23
0100
0000
0010
0000
0001
0000
0010
0001
,  // measure 24
0100
1000
0010
1000
,  // measure 25
0100
1000
0010
0000
1000
0010
0100
0000
,  // measure 26
0100
0010
0001
0000
0010
0001
1000
0000
,  // measure 27
0001
0000
0010
0000
0100
0000
0010
1000
,  // measure 28
0100
1000
0100
0001
,  // measure 29
0010
0100
1000
0000
0100
1000
0010
0000
,  // measure 30
0100
0010
0001
0010
0100
1000
0100
0010
,  // measure 31
0100
0000
0002
0000
0023
0000
1030
0010
,  // measure 32
0200
0000
0320
0000
0032
0000
0103
1000
,  // measure 33
0000
0001
0010
0100
1000
0200
0000
2300
,  // measure 34
0000
3020
0000
0032
0000
0013
0100
0000
,  // measure 35
0020
0000
0230
0000
2300
0000
3100
1000
,  // measure 36
0200
0000
2300
0000
3020
0000
0031
0010
,  // measure 37
0100
0000
1000
0200
0000
0310
0010
0010
,  // measure 38
0010
0001
0001
1000
0200
0000
1300
0010
,  // measure 39
0100
0000
0100
0000
0100
0010
0100
0010
,  // measure 40
0100
0100
0100
0000
0110
0000
0101
0000
,  // measure 41
0001
0000
0001
0000
0001
0010
0001
0010
,  // measure 42
0001
0001
0001
0000
0010
1000
0010
1000
,  // measure 43
0010
0000
0100
1000
0100
0010
0001
0010
,  // measure 44
0100
0000
1000
0100
0001
0100
1000
0000
,  // measure 45
0100
0000
0010
0001
1000
0100
1000
0001
,  // measure 46
0010
0000
0001
0010
1000
0010
0001
0000
,  // measure 47
1100
0101
1100
0101
,  // measure 48
1010
0011
1010
0011
,  // measure 49
1000
0001
1000
0010
1000
0001
0100
0020
,  // measure 50
0000
2030
0000
3001
0100
0010
1001
0000
,  // measure 51
0100
0000
0010
0000
0001
0000
0010
1000
,  // measure 52
0100
0000
1000
0010
0000
0010
1000
0001
,  // measure 53
0020
1000
0001
1000
,  // measure 54
0130
0010
0001
0010
0100
0000
1001
0000
,  // measure 55
0010
0000
0100
0000
1000
0000
0100
1000
,  // measure 56
0010
0000
0001
0010
0000
0010
0001
1000
,  // measure 57
0200
0001
1000
0001
,  // measure 58
0310
0100
0010
0100
1000
0010
1000
0001
,  // measure 59
0100
0000
2000
0000
3020
0000
1030
0010
,  // measure 60
0002
0000
0023
0000
2030
0000
3010
0001
,  // measure 61
0000
1000
0100
0010
0001
0020
0000
0130
,  // measure 62
0010
0002
0000
2003
0000
3010
0001
0010
,  // measure 63
0100
0000
2000
0000
3200
0000
1300
0100
,  // measure 64
0020
0000
0032
0000
0203
0000
0310
0100
,  // measure 65
1000
0000
0100
0002
0000
0103
0100
0100
,  // measure 66
0100
1000
0100
0001
0010
0000
1001
0000
,  // measure 67
0200
0000
0000
0310
0020
0000
0000
1030
,  // measure 68
2000
3100
0001
0100
,  // measure 69
0020
0000
0000
0031
0002
0000
0000
1003
,  // measure 70
2000
3100
0011
1100
,  // measure 71
0012
0000
0000
0013
0020
0000
0000
0130
,  // measure 72
0200
1300
0010
1000
,  // measure 73
0200
0320
0032
2003
,  // measure 74
3100
0000
1000
0001
0100
0001
0010
0100
,  // measure 75
2000
0000
3100
1000
0200
0000
0310
0100
,  // measure 76
0020
0000
0000
0000
0031
0010
0001
0010
0001
0000
0000
0000
1001
0000
0000
0000
,  // measure 77
0201
0000
0301
0100
0002
0000
0013
0001
,  // measure 78
0020
0130
1010
0101
,  // measure 79
2010
0000
3010
1000
0002
0000
1003
0001
,  // measure 80
0200
0310
0001
1000
,  // measure 81
0200
2300
3020
0032
,  // measure 82
0013
0000
1000
0010
1000
0100
0010
0001
,  // measure 83
0010
0000
0010
0000
0010
1000
0010
1000
,  // measure 84
0010
0010
0010
0000
1010
0000
0101
0000
,  // measure 85
0100
0000
0100
0000
0100
0001
0100
0001
,  // measure 86
0100
0100
0100
0000
0101
0000
1100
0000
,  // measure 87
1000
0000
1000
0000
1000
0010
1000
0010
,  // measure 88
1000
1000
1000
0000
1010
0000
1001
0000
,  // measure 89
0001
0000
0001
0000
0001
1000
0001
1000
,  // measure 90
0001
0010
0010
0001
0100
0100
0010
1000
,  // measure 91
0200
0000
0310
0100
0002
0000
0013
1000
,  // measure 92
0200
0000
0000
0000
1300
0000
0100
0000
0001
0000
0000
0010
0000
0000
1000
0000
,  // measure 93
0200
0000
0000
0302
0000
0000
0023
0000
,  // measure 94
0000
2030
0000
0000
3010
0100
1000
0100
,  // measure 95
0020
0000
0130
0010
2000
0000
3001
1000
,  // measure 96
0002
0000
0000
0000
1003
0000
0010
0000
0100
0000
0000
0010
0000
0000
0001
0000
,  // measure 97
2000
0000
0000
3020
0000
0000
0230
0000
,  // measure 98
0000
0302
0000
0000
0023
0000
0000
0000
,  // measure 99
0130
0000
0001
0000
0100
0001
0100
0100
,  // measure 100
0000
1000
0000
0010
0002
0000
0023
0000
,  // measure 101
0130
0000
1000
0000
0010
1000
0010
0010
,  // measure 102
0000
0001
0001
0100
1000
0000
1001
1001
,  // measure 103
0100
0000
0001
0000
1000
0001
1000
1000
,  // measure 104
0000
0010
0010
1000
0100
0010
0200
0000
,  // measure 105
0310
0000
0000
1000
0001
0000
0100
0000
0000
0000
0010
0000
0010
0000
0000
0001
,  // measure 106
1000
0000
0100
0000
0000
0000
0100
0000
0001
0000
0010
0001
0010
0000
0100
0000
,  // measure 107
2002
0000
0000
0000
,  // measure 108
0000
0000
0000
0000
0003
0000
0000
0010
,  // measure 109
0010
0000
0000
0100
0100
0000
0000
0010
,  // measure 110
0010
0000
0000
0001
3001
0000
1001
0000
,  // measure 111
0102
0000
0000
1000
1000
0000
0000
0100
,  // measure 112
0100
0000
0000
0010
0013
0000
0010
1000
,  // measure 113
0200
0000
0000
0010
0010
0000
0000
1000
,  // measure 114
1000
0000
0000
0001
0301
0000
0100
0000
,  // measure 115
1001
0000
0000
1000
0100
1000
0100
0000
0000
0100
0001
0100
,  // measure 116
0001
0000
0000
0001
0010
0001
0010
0000
0000
0011
0000
0000
,  // measure 117
0110
0000
0000
0010
0100
0010
0100
0000
0000
0100
1000
0100
,  // measure 118
1000
0000
0000
1000
0010
1000
0010
0000
0000
1010
0000
0000
,  // measure 119
1001
0000
0000
0010
0001
0010
0100
0000
0000
0100
1000
0100
,  // measure 120
0010
0000
0000
0010
0001
1000
0100
0000
0000
1100
0000
0000
,  // measure 121
0011
0000
0000
0010
0100
0010
1000
0000
0000
1000
0100
0010
,  // measure 122
0001
0000
0000
0000
0100
0000
0100
0000
0010
0000
0000
0000
1000
0001
1000
0001
,  // measure 123
1000
0000
1000
0001
0010
0000
1000
0010
,  // measure 124
0100
0000
0000
0000
0010
1000
0010
1000
0010
0000
0000
0000
1010
0000
0000
0000
,  // measure 125
1002
0000
1003
0100
0200
0000
0301
0100
,  // measure 126
0200
0000
1300
0100
0011
0000
1100
0000
,  // measure 127
2001
0000
3001
1000
0020
0000
1030
0001
,  // measure 128
0020
0000
1030
0100
0100
0000
0001
0100
,  // measure 129
0100
0000
1000
0010
0010
0000
0001
1000
,  // measure 130
0010
0000
0010
0001
1000
0001
1000
0010
,  // measure 131
0200
0000
0320
0000
0032
0000
0013
1000
,  // measure 132
0200
0000
0000
0000
0310
0001
0010
0001
0010
0000
0000
0000
0011
0000
0000
0000
,  // measure 133
2100
0000
3001
0100
0020
0000
1030
0010
,  // measure 134
0200
0000
0301
0010
1010
0000
0101
0000
,  // measure 135
0120
0000
2030
0000
3002
0000
0103
0001
,  // measure 136
2000
0000
3100
0020
0000
0032
0000
0203
,  // measure 137
0000
0310
1000
0010
0100
0001
0100
0010
,  // measure 138
1000
0100
0010
0001
0010
0110
0000
1001
;

//---------------dance-single - ----------------
#NOTEDATA:;
#CHARTNAME:;
#STEPSTYPE:dance-single;
#DESCRIPTION:;
#CHARTSTYLE:;
#DIFFICULTY:Medium;
#METER:9;
#RADARVALUES:0.378980,0.428390,0.163049,0.365760,0.024237,602.000000,565.000000,37.000000,83.000000,0.000000,0.000000,0.000000,0.000000,0.000000,0.378980,0.428390,0.163049,0.365760,0.024237,602.000000,565.000000,37.000000,83.000000,0.000000,0.000000,0.000000,0.000000,0.000000;
#CREDIT:;
#NOTES:
0000
0000
0000
0000
,
0000
0000
0000
0000
,
0000
0000
0000
0000
,
0000
0000
0000
0000
,
0000
0000
0000
0000
,
0000
0000
0000
0000
,
0000
0000
0000
0000
,
0000
0000
0000
0000
,
0000
0000
0000
0000
,
0000
0000
0000
0000
,
0000
0000
0000
0000
,
0100
0100
0100
0100
,
0100
0100
1001
1001
,
0010
0010
0010
0010
,
0010
0010
1001
1001
,
0100
0010
0100
0010
,
1000
0001
1000
0001
,
1000
0010
0100
0001
,
0100
1000
0001
0000
0100
0001
1000
0000
,
0010
1000
0010
1000
,
0001
0100
0001
0100
,
0001
0010
0100
1000
,
0100
1000
0010
0000
0100
0001
0010
0000
,
0100
0010
0001
0010
,
0100
1000
0100
0010
,
0001
0010
0001
0000
0100
0001
0100
0000
,
0010
1000
0010
0000
1000
0100
1000
0000
,
0100
0001
0010
0001
,
0010
1000
0100
1000
,
0100
1000
0100
0000
0100
0001
0100
0000
,
0010
1000
0010
0000
0010
0001
0010
0100
,
0010
2000
3200
1300
,
0200
0000
0320
0000
0032
0000
0013
0100
,
0000
1000
0100
0000
0010
0001
0000
0020
,
0000
2030
0000
3200
0000
0310
0100
0000
,
0010
0200
0302
1003
,
0200
2300
3002
1003
,
0100
0000
0001
0100
0000
1000
0100
1000
,
0100
0010
0000
0000
0101
0000
1100
0000
,
0110
0100
0100
0100
,
0100
0100
1100
1100
,
0010
0010
0010
0010
,
0010
0000
0010
0000
0100
1000
0100
1000
,
0100
0000
0010
0001
0100
0000
0010
1000
,
0100
0000
0001
1000
0100
0000
1000
0001
,
0100
0000
1000
0001
0010
0000
0001
1000
,
0010
1000
0100
0001
,
0010
1010
0010
1010
,
0100
0101
0100
0101
,
0100
0000
0001
0000
0010
0001
1000
0200
,
0000
0000
0310
0000
0001
1000
0001
0000
,
0010
0100
1000
0100
,
0010
0000
0001
0100
0000
0100
0001
0000
,
0100
1000
0010
1000
,
0001
1000
0001
1000
0001
0000
1001
0000
,
0100
0010
1000
0010
,
0100
0000
1000
0010
0000
0010
1000
0000
,
0010
0001
0010
1000
,
0100
0001
1000
0001
1000
0100
0010
0001
,
0100
0020
0032
0013
,
0200
0000
2300
0000
3200
0000
0310
0001
,
0000
1000
0100
0010
0001
0010
0000
1000
,
0100
0010
0000
0002
0000
0013
0100
0000
,
1000
0200
0320
0130
,
2000
3002
0203
0310
,
0100
0000
1000
0100
0000
0010
0001
0010
,
0001
0100
0000
0000
1001
0000
0000
0000
,
0200
0000
0300
0100
0020
0000
0030
0010
,
2000
3100
1000
0100
,
0200
0000
0300
0100
0020
0000
0030
0010
,
0002
0013
0001
1000
,
0200
0000
0300
0100
0002
0000
0003
0001
,
0020
0031
0100
1000
,
0100
0010
0001
0010
,
0100
0000
0010
0000
1000
0001
0100
0000
,
2000
0000
3000
1000
0200
0000
0300
0100
,
0020
0000
0031
0001
0001
0000
0100
0000
,
0200
0000
0300
0100
0002
0000
0003
0001
,
0020
0130
1100
0101
,
0020
0000
0030
0010
0200
0000
0300
0100
,
2000
3100
0010
0001
,
0010
1000
0100
0000
0010
0001
0100
0000
,
0010
0000
0100
0000
1000
0001
1000
0001
,
0100
0100
0100
0100
,
0100
0100
1001
1100
,
1000
1000
1000
1000
,
1000
1000
1100
0110
,
0010
0010
0010
0010
,
0010
0010
0110
0011
,
0001
0001
0001
0001
,
0010
0000
0010
0000
1000
1000
1000
1000
,
0200
0000
0000
0310
0020
0000
0000
0031
,
0002
0000
0000
0000
0000
0000
0013
0000
1000
0000
0000
1000
0000
0000
1000
0000
,
0200
0000
0000
0320
0000
0000
0032
0000
,
0000
0203
0000
0000
0310
0000
1000
0000
,
0020
0000
0000
0031
0200
0000
0000
0310
,
2000
0000
0000
0000
0000
0000
3100
0000
0001
0000
0000
0001
0000
0000
0001
0000
,
0020
0000
0000
2030
0000
0000
3200
0000
,
0000
0302
0000
0000
0203
0000
0000
0000
,
0310
0000
1000
0000
0100
1000
0100
1000
,
0000
0100
0000
0010
0001
0000
0010
0000
,
0100
0000
0001
0000
0010
0001
0010
0001
,
0000
0010
1000
0000
1100
0000
0101
0000
,
1000
0000
0100
0000
0010
0100
0010
0100
,
0000
0100
1000
0000
0010
0001
0010
0000
,
0100
0000
1000
1000
0000
0000
0100
0000
,
0001
0001
0000
0000
0010
0100
0001
0000
,
0220
0000
0000
0000
,
0000
0000
0030
0000
,
0010
0000
0001
0000
,
0010
0000
1300
0100
,
0020
0000
1000
0000
,
0100
0000
1030
0010
,
0002
0000
0010
1000
,
2003
0000
0100
3001
,
1001
0000
0000
1000
0000
1000
0010
0000
0000
0001
0000
0001
,
0100
0000
0000
1000
0000
1000
0100
0000
0000
1000
0000
0000
,
1100
0000
0000
0100
0000
0100
0010
0000
0000
1000
0000
1000
,
0100
0000
0000
0010
0000
0010
0100
0000
0000
0001
0000
0000
,
0101
0000
0000
0001
0000
0001
0100
0000
0000
1000
0000
1000
,
0010
0000
0000
1000
0000
1000
0100
0000
0000
1000
0000
0000
,
1010
0010
0001
0010
,
0000
1000
0100
1000
,
0100
0000
0001
0001
0001
0000
0100
0100
,
0100
0000
0010
0001
0010
0000
0100
0000
,
0020
0000
1030
1000
2000
0000
3100
0100
,
0200
0310
0011
1010
,
0200
0000
0300
0100
0020
0000
0030
0010
,
0002
0013
0100
1000
,
0200
0310
0001
0200
,
0300
1000
0100
0010
,
0001
0020
2030
3100
,
0020
0000
0031
0001
0001
0000
0100
0000
,
0010
2000
3200
0302
,
0103
1000
1010
0101
,
1000
0020
0230
0301
,
0100
0020
1030
0100
,
0110
2000
3200
0320
,
0031
1000
0100
0000
0010
1001
0000
1001
;

//---------------dance-single - ----------------
#NOTEDATA:;
#CHARTNAME:;
#STEPSTYPE:dance-single;
#DESCRIPTION:;
#CHARTSTYLE:;
#DIFFICULTY:Beginner;
#METER:2;
#RADARVALUES:0.149200,0.275146,0.074915,0.114575,0.000000,237.000000,220.000000,17.000000,26.000000,0.000000,0.000000,0.000000,0.000000,0.000000,0.149200,0.275146,0.074915,0.114575,0.000000,237.000000,220.000000,17.000000,26.000000,0.000000,0.000000,0.000000,0.000000,0.000000;
#CREDIT:;
#NOTES:
0000
0000
0000
0000
,
0000
0000
0000
0000
,
0000
0000
0000
0000
,
0000
0000
0000
0000
,
0000
0000
0000
0000
,
0000
0000
0000
0000
,
0000
0000
0000
0000
,
0000
0000
0000
0000
,
0000
0000
0000
0000
,
0000
0000
0000
0000
,
0000
0000
0000
0000
,
0010
0000
0010
0000
,
0010
0000
1001
0000
,
0100
0000
0100
0000
,
0100
0000
1001
0000
,
1000
0000
0100
0000
,
1000
0000
0100
0000
,
0010
0000
0001
0000
,
0010
0000
0001
0000
,
0100
0000
1000
0000
,
0010
0000
0001
0000
,
0010
0000
1000
0000
,
0100
0000
0001
0000
,
0100
0000
0100
0000
,
1000
0000
1000
0000
,
0100
0000
0100
0000
,
0001
0000
0001
0000
,
0010
0000
0010
0000
,
1000
0000
1000
0000
,
0010
0000
0010
0000
,
0001
0000
0001
0000
,
0200
0000
0000
0300
,
0020
0000
0000
0030
,
0100
0000
1000
0000
,
0100
0000
0001
0000
,
0020
0000
0000
0030
,
0200
0000
0000
0300
,
0010
0000
0001
0000
,
0010
0000
0100
0000
,
1000
0000
1000
0000
,
1000
0000
0110
0000
,
0001
0000
0001
0000
,
0001
0000
0110
0000
,
0100
0000
1000
0000
,
0010
0000
0001
0000
,
0010
0000
1000
0000
,
0100
0000
1000
0000
,
1001
0000
1001
0000
,
0110
0000
0110
0000
,
0010
0000
1000
0000
,
0001
0000
0100
0000
,
0001
0000
0001
0000
,
0010
0000
0010
0000
,
0001
0000
0001
0000
,
0100
0000
0100
0000
,
1000
0000
1000
0000
,
0100
0000
0100
0000
,
1000
0000
1000
0000
,
0010
0000
0010
0000
,
2000
0000
0000
3000
,
0002
0000
0000
0003
,
1000
0000
0010
0000
,
0001
0000
0010
0000
,
0002
0000
0000
0003
,
2000
0000
0000
3000
,
0001
0000
0100
0000
,
0100
0100
0100
0000
,
0200
0000
0000
0000
,
0300
0000
0000
0000
,
2000
0000
0000
0000
,
3000
0000
0000
0000
,
0002
0000
0000
0000
,
0003
0000
0000
0000
,
0100
0000
0010
0000
,
1000
0000
0001
0000
,
2000
0000
0100
0000
,
3100
0000
0010
0000
,
0002
0000
0010
0000
,
0013
0000
1000
0000
,
0020
0000
0100
0000
,
0130
0000
0010
0000
,
1000
0000
0001
0000
,
0010
0000
0100
0000
,
0100
0000
0100
0000
,
0100
0000
1001
0000
,
0010
0000
0010
0000
,
0010
0000
1001
0000
,
1000
0000
1000
0000
,
1000
0000
0110
0000
,
0001
0000
0001
0000
,
0010
0000
0100
0000
,
2000
0000
0000
3000
,
0002
0000
0000
0003
,
0010
0000
0100
0000
,
1000
0000
0100
0000
,
0020
0000
0000
0030
,
0200
0000
0000
0300
,
0001
0000
0010
0000
,
1000
0000
0010
0000
,
0100
0000
0000
0000
1000
0000
0000
1000
,
0000
0000
0010
0000
,
0100
0000
0000
0000
0001
0000
0000
0001
,
0000
0000
0100
0000
,
0010
0000
0000
0000
1000
0000
0000
1000
,
0000
0000
0100
0000
,
0010
0000
0000
0100
,
0000
0000
0010
0000
,
2002
0000
0000
0000
,
0000
0000
0000
0000
,
0000
0000
0000
0000
,
0000
0000
3003
0000
,
0200
0000
0000
0000
,
0000
0000
0300
0000
,
0020
0000
0000
0000
,
0000
0000
0030
0000
,
0100
0000
1000
0000
,
1000
0000
0000
0000
,
0010
0000
0001
0000
,
0001
0000
0000
0000
,
0100
0000
0010
0000
,
0010
0000
0000
0000
,
0100
0000
0010
0000
,
0001
0000
1000
0000
,
1001
0000
0100
0000
,
0010
0010
0010
0000
,
2000
0000
0100
0000
,
3100
0000
0010
0000
,
0002
0000
0010
0000
,
0013
0000
0100
0000
,
0010
0000
1000
0000
,
0001
0000
0100
0000
,
1001
0000
0100
0000
,
0020
0000
0030
0000
,
0100
0000
1000
0000
,
0100
0100
0100
0000
,
0110
0000
0001
0000
,
2000
0000
0000
3000
,
0001
0000
0010
0000
,
0100
0000
1001
1001
;

//---------------dance-single - ----------------
#NOTEDATA:;
#CHARTNAME:;
#STEPSTYPE:dance-single;
#DESCRIPTION:;
#CHARTSTYLE:;
#DIFFICULTY:Easy;
#METER:4;
#RADARVALUES:0.228521,0.397433,0.141016,0.237964,0.000000,363.000000,331.000000,32.000000,54.000000,0.000000,0.000000,0.000000,0.000000,0.000000,0.228521,0.397433,0.141016,0.237964,0.000000,363.000000,331.000000,32.000000,54.000000,0.000000,0.000000,0.000000,0.000000,0.000000;
#CREDIT:;
#NOTES:
0000
0000
0000
0000
,
0000
0000
0000
0000
,
0000
0000
0000
0000
,
0000
0000
0000
0000
,
0000
0000
0000
0000
,
0000
0000
0000
0000
,
0000
0000
0000
0000
,
0000
0000
0000
0000
,
0000
0000
0000
0000
,
0000
0000
0000
0000
,
0000
0000
0000
0000
,
1000
1000
1000
1000
,
1000
0000
1001
1001
,
0100
0100
0100
0100
,
0100
0000
0110
0110
,
0010
0000
0100
0000
,
1000
0000
0001
0000
,
0010
0100
1000
0100
,
0010
0000
0100
0000
,
0010
0000
0001
0000
,
0010
0000
1000
0000
,
0100
0010
0001
0010
,
0100
0000
0010
0100
,
0010
0000
0100
0000
,
1000
0000
0100
0000
,
0010
0000
0001
0000
,
0010
0100
0010
0000
,
0001
0000
0010
0000
,
0001
0000
0010
0000
,
0100
0000
1000
0000
,
0100
1000
0001
1000
,
0200
0000
0310
0001
,
0020
0000
0031
0010
,
0100
0000
1000
0000
,
0100
0010
0001
1000
,
0020
0000
1030
0010
,
2000
0000
3100
1000
,
0200
0000
0310
0000
,
0100
1000
0010
0001
,
0010
0010
0010
0010
,
0010
0000
1010
0011
,
0001
0001
0001
0001
,
0001
0000
0110
0110
,
0100
0000
1000
0100
,
0010
0000
0001
0010
,
0100
0000
0010
0100
,
0001
1000
0001
0000
,
1001
0000
1001
1001
,
0110
0000
0110
0110
,
0010
0000
1000
0000
,
0010
0100
0010
0000
,
0100
0000
1000
0000
,
0100
0000
0010
0000
,
0001
0100
1000
0000
,
1000
0100
0001
0000
,
0010
0000
0001
0000
,
0010
0000
1000
0000
,
0010
1000
0001
0000
,
0001
0010
1000
0100
,
0020
0000
0031
0010
,
0002
0000
0103
0001
,
0100
0000
1000
0000
,
0010
0001
0010
0100
,
2000
0000
3010
1000
,
0020
0000
0130
0010
,
0200
0000
0301
0000
,
1000
0001
1001
0000
,
0200
0000
0320
0000
,
0032
0000
0013
0001
,
0020
0000
0032
0000
,
0203
0000
0310
0100
,
0020
0000
2030
0000
,
3200
0000
0310
0100
,
0010
1000
0001
1000
,
0000
0001
1000
0001
,
0200
0000
0320
0000
,
2030
0100
3100
1000
,
0200
0000
2300
0000
,
3020
0030
1001
1001
,
0002
0000
2003
0000
,
3200
0000
0310
0001
,
0010
0100
1000
0100
,
0000
0010
0001
0010
,
0100
0100
0100
0100
,
0100
0000
1001
1001
,
0010
0010
0010
0010
,
0010
0000
1001
1001
,
0001
0001
0001
0001
,
0001
0000
0110
0110
,
1000
1000
1000
1000
,
0100
0000
0010
0010
,
0200
0000
2300
0000
,
3002
0000
0023
0000
,
0130
0000
0000
1000
0000
0000
0100
0000
,
0000
0010
0000
0000
0001
0000
0000
0000
,
0020
0000
0032
0000
,
2003
0000
3200
0000
,
0310
0000
0000
0001
0000
0000
0100
0000
,
0000
1000
0000
0000
0100
0000
0000
0000
,
0010
0000
0000
0000
0000
0001
0000
0001
,
0000
0000
0100
0000
,
0010
0000
0000
0000
0000
1000
0000
1000
,
0000
0000
0100
0010
,
0001
0000
0000
0000
0000
0010
0000
0010
,
0000
0000
0100
0000
,
1000
0000
0000
0100
0000
0000
0010
0000
,
0000
0001
0000
0000
0010
0000
0100
0000
,
0220
0000
0000
0000
,
0000
0000
0000
0000
,
0000
0000
0000
0000
,
0000
0000
0030
0000
,
0002
0000
0000
0000
,
0000
0000
0300
0000
,
2000
0000
0000
0000
,
0000
0000
3003
0000
,
1001
0000
1000
0000
,
0010
0000
0001
0000
,
0011
0000
0010
0000
,
1000
0000
0100
0000
,
0110
0000
0100
0000
,
0010
0000
1000
0000
,
1100
0000
0100
0000
,
0010
0000
0100
0100
,
0100
0000
0010
0000
,
0001
0001
0001
0000
,
0200
0000
2300
0000
,
3020
0000
0130
0001
,
0020
0000
0032
0000
,
2003
0000
3100
1000
,
0100
0010
0001
0010
,
0000
0100
1000
0100
,
0010
0000
0200
0000
,
0302
0100
0103
0100
,
2000
0000
3200
0000
,
0310
0000
0110
0110
,
0100
0000
1000
0000
,
0020
0000
0230
0000
,
0302
0000
0023
0000
,
0130
0000
1001
1001
;
