#TITLE:The Rhythm;
#SUBTITLE:(Radio Edit);
#ARTIST:Ti-Mo;
#TITLETRANSLIT:;
#SUBTITLETRANSLIT:;
#ARTISTTRANSLIT:;
#GENRE:;
#CREDIT:;
#BANNER:The Rhythm (Radio Edit).png;
#BACKGROUND:The Rhythm (Radio Edit)-bg.png;
#LYRICSPATH:;
#CDTITLE:cdtitle.png;
#MUSIC:The Rhythm (Radio Edit).ogg;
#OFFSET:-0.014000;
#SAMPLESTART:35.507000;
#SAMPLELENGTH:15.000000;
#SELECTABLE:YES;
#DISPLAYBPM:142.000000;
#BPMS:0.000000=142.000000
,114.250000=141.979996
,114.500000=71.000000
,115.000000=284.000000
,116.000000=142.000000
,146.500000=71.000000
,147.000000=284.000000
,150.000000=142.000000
,178.500000=71.000000
,178.750000=142.000000
,179.000000=284.000000
,179.500000=142.000000
,211.000000=71.000000
,211.250000=142.000000
,211.500000=284.000000
,212.000000=142.000000
;
#STOPS:148.000000=0.105634,
148.500000=0.105634,
149.000000=0.105634,
149.500000=0.105634
;
#BGCHANGES:;
#KEYSOUNDS:;
#ATTACKS:;

//---------------dance-single - ----------------
#NOTES:
     dance-single:
     :
     Challenge:
     16:
     0.804891,0.900026,1.460728,0.825629,0.326622,621.000000,460.000000,161.000000,91.000000,0.000000,0.000000,0.804891,0.900026,1.460728,0.825629,0.326622,621.000000,460.000000,161.000000,91.000000,0.000000,0.000000:
// measure 0
0000
0000
0000
0000
,  // measure 1
0000
0000
0000
0000
,  // measure 2
0000
0000
0000
0000
,  // measure 3
0000
0000
0000
0000
,  // measure 4
0000
0000
0000
0000
,  // measure 5
2020
3030
0220
0330
0202
0303
0001
0010
,  // measure 6
0100
1000
0010
0100
0002
0000
1003
0100
,  // measure 7
0220
0330
0022
0033
2200
3300
0220
0330
,  // measure 8
2002
3003
1000
0100
0010
0001
0100
0010
,  // measure 9
2020
3030
0101
0100
0202
0303
0001
1000
,  // measure 10
0100
0000
0001
0000
0100
0000
1000
0000
0010
0100
0001
0010
0100
1000
0010
0100
,  // measure 11
0001
0000
0010
0100
2200
3300
0022
0033
,  // measure 12
0202
0303
0100
0010
2020
3030
2002
3003
,  // measure 13
0202
0303
1010
0010
2020
3030
1000
0001
,  // measure 14
0010
0000
1000
0000
0010
0000
0001
0000
0100
0010
1000
0100
0010
0001
0100
0010
,  // measure 15
1000
0000
0100
0010
0022
0033
2200
3300
,  // measure 16
2020
3030
0010
0100
0001
0010
0100
1000
,  // measure 17
2002
0000
0000
0000
,  // measure 18
0000
0000
0000
0000
,  // measure 19
0000
0000
0000
3003
,  // measure 20
1000
0000
0000
0000
0100
0000
0000
0000
0010
0000
0000
0000
0001
0000
0000
0000
0000
0000
0000
0000
0000
0000
0000
0000
0000
0000
0000
0100
0000
0000
0010
0000
0000
0100
0000
0000
0010
0000
0000
0000
0000
0000
1001
0000
0000
0000
0000
0000
,  // measure 21
1000
0000
1100
0000
1100
0000
1100
0000
1100
0000
1100
0000
1100
0000
1000
0100
,  // measure 22
1000
1010
1010
1010
1010
0020
2030
3200
,  // measure 23
0310
0011
0011
0002
0103
0110
0110
0020
,  // measure 24
1030
1100
1100
1100
1100
2000
3200
0320
,  // measure 25
0031
0000
0101
0000
0101
0000
0101
0000
0101
0000
0101
0000
0101
0000
0001
0100
,  // measure 26
0001
0011
0011
0011
0011
0020
0032
0203
,  // measure 27
0310
1010
1010
2000
3200
0302
0203
0320
,  // measure 28
0031
0000
0101
0000
0101
0000
0101
0000
2002
0000
3000
1003
0200
0000
0000
0000
,  // measure 29
0310
0000
0011
0000
0011
0000
0011
0000
0011
0000
0011
0000
0011
0000
0010
0001
,  // measure 30
1000
1010
1010
1010
1010
0020
2030
3002
,  // measure 31
0103
0110
0110
0020
1030
1100
1100
0200
,  // measure 32
0310
0000
0011
0000
0011
0000
0011
0000
0011
0000
0002
0000
0203
0000
0310
1000
,  // measure 33
0100
0000
1100
0000
1100
0000
1100
0000
1100
0000
1100
0000
1100
0000
0100
1000
,  // measure 34
0001
0000
0101
0000
0101
0000
0101
0000
0101
0000
0100
0000
0100
0010
0100
0010
,  // measure 35
1000
0000
0001
0100
1000
0000
1000
0100
0001
0000
1000
0010
0001
0000
0001
0010
,  // measure 36
1000
0100
1000
0001
0100
0001
0010
0100
0020
0000
0000
0000
0130
0000
0000
0000
,  // measure 37
0010
0000
0010
0000
0010
0000
0010
0000
1001
0000
1100
0000
1010
0000
1000
0100
,  // measure 38
0010
0011
0110
0011
0110
0200
0320
0032
,  // measure 39
1003
1001
1010
0020
0130
0110
0101
0002
,  // measure 40
1003
1100
1010
1100
1010
2000
3200
0320
,  // measure 41
0031
0000
0101
0000
0011
0000
0101
0000
0011
0000
0101
0000
0011
0000
0001
0100
,  // measure 42
0010
1010
0110
1010
0110
0200
0320
2030
,  // measure 43
3001
1001
0011
0020
0230
0302
0203
2300
,  // measure 44
3001
0101
0011
0101
0011
0010
0000
0100
,  // measure 45
0100
0000
0100
0000
1001
0000
0011
0000
1100
0000
0011
0000
1100
0000
0001
0100
,  // measure 46
0010
0000
1010
0000
0101
0000
1010
0000
0101
0000
1000
0100
0010
0001
0100
0010
,  // measure 47
1000
0000
1100
0000
1010
0000
0010
0100
0001
0000
0011
0000
0101
0000
0100
0001
,  // measure 48
0010
0000
0011
0000
1100
0000
1010
0000
0101
0000
0001
0010
0100
1000
0010
0100
,  // measure 49
0001
0000
0011
0000
1010
0000
0011
0000
1010
0000
0011
0000
1010
0000
0001
0010
,  // measure 50
0100
0000
1100
0000
0101
0000
1100
0000
0101
0000
1000
0000
1000
0001
1000
0001
,  // measure 51
0100
0000
0100
0010
1000
0000
1000
0100
0010
0000
0010
0001
0100
0000
0100
0010
,  // measure 52
1000
0000
0001
0010
0001
0000
1000
0100
1000
0000
0010
0000
1001
0000
0000
0000
,  // measure 53
0101
0000
0001
0010
0001
0000
0010
0100
1000
0100
0010
0000
0011
0000
1001
0000
,  // measure 54
1100
0000
1000
0010
1000
0000
0010
0100
0001
0100
0010
0000
1010
0000
1001
0000
,  // measure 55
0101
0000
0001
0010
0001
0000
0101
0000
0110
0000
0100
0001
0100
0000
0110
0000
,  // measure 56
1010
0000
0010
0100
0010
0000
1010
0000
1100
0000
1010
0000
1100
0000
0100
1000
,  // measure 57
0001
0000
0100
0001
1000
0000
0010
0100
0001
0100
0010
0000
1000
0100
0010
0001
,  // measure 58
1000
0000
0010
1000
0001
0000
0010
0100
1000
0100
0010
0000
0001
0100
0010
1000
,  // measure 59
0002
0000
0000
0023
0000
0000
0230
0000
,  // measure 60
1300
0000
0000
0000
0010
0000
0000
0000
0100
0000
0000
0000
0001
0000
0000
0000
0000
0000
1000
0000
0000
0000
0000
0000
0001
0000
0000
0010
0000
0000
0100
0000
0000
1000
0000
0000
0010
0000
0000
0000
0000
0000
0100
0000
0000
0000
0000
0000
,  // measure 61
2002
0000
0000
0000
,  // measure 62
3003
0000
0000
0000
;

//---------------dance-single - ----------------
#NOTES:
     dance-single:
     :
     Beginner:
     4:
     0.163311,0.253132,0.117947,0.081656,0.000000,126.000000,113.000000,13.000000,9.000000,0.000000,0.000000,0.163311,0.253132,0.117947,0.081656,0.000000,126.000000,113.000000,13.000000,9.000000,0.000000,0.000000:
// measure 0
0000
0000
0000
0000
,  // measure 1
0000
0000
0000
0000
,  // measure 2
0000
0000
0000
0000
,  // measure 3
0000
0000
0000
0000
,  // measure 4
0000
0000
0000
0000
,  // measure 5
1000
0000
0000
0000
,  // measure 6
0010
0000
0000
0000
,  // measure 7
0100
0000
0000
0000
,  // measure 8
0001
0000
0000
0000
,  // measure 9
0010
0000
0000
0010
,  // measure 10
0010
0000
0000
0000
,  // measure 11
0100
0000
0000
0000
,  // measure 12
1000
0000
0001
0000
,  // measure 13
0100
0000
0000
0100
,  // measure 14
0100
0000
0000
0000
,  // measure 15
0010
0000
0000
0000
,  // measure 16
0001
0000
1000
0000
,  // measure 17
0020
0000
0000
0000
,  // measure 18
0000
0000
0000
0000
,  // measure 19
0000
0000
0000
0000
,  // measure 20
0000
0000
0030
0000
,  // measure 21
1000
1000
1000
0000
,  // measure 22
0001
0001
0001
0000
,  // measure 23
0010
0000
0100
0000
,  // measure 24
0010
0010
0010
0000
,  // measure 25
0100
0100
0100
0000
,  // measure 26
1000
1000
1000
0000
,  // measure 27
0001
0000
0100
0000
,  // measure 28
0010
0010
0010
0000
,  // measure 29
0100
0100
0100
0000
,  // measure 30
0001
0001
0001
0000
,  // measure 31
0010
0000
0100
0000
,  // measure 32
1000
1000
1000
0000
,  // measure 33
0001
0000
0001
0000
,  // measure 34
1000
0000
1000
0000
,  // measure 35
0010
0010
0010
0010
,  // measure 36
0010
0010
0010
0000
,  // measure 37
0100
0100
0100
0000
,  // measure 38
1001
0000
0001
0000
,  // measure 39
0010
0000
0011
0000
,  // measure 40
0100
0000
1100
0000
,  // measure 41
0010
0000
0100
0000
,  // measure 42
1001
0000
1000
0000
,  // measure 43
0010
0000
1000
0000
,  // measure 44
0001
0000
0010
0000
,  // measure 45
0100
0100
0100
0000
,  // measure 46
1001
0000
1000
0000
,  // measure 47
0010
0000
1010
0000
,  // measure 48
0100
0000
0101
0000
,  // measure 49
0010
0000
0100
0000
,  // measure 50
1001
0000
0001
0000
,  // measure 51
0010
0000
0001
0000
,  // measure 52
0100
0100
0100
0000
,  // measure 53
1001
0000
1001
0000
,  // measure 54
0110
0000
0110
0000
,  // measure 55
2000
3000
0002
0003
,  // measure 56
0200
0300
0020
0030
,  // measure 57
1000
1000
1000
0000
,  // measure 58
0001
0001
0001
0000
,  // measure 59
0020
0000
0000
0030
,  // measure 60
0200
0000
0000
0300
,  // measure 61
2002
0000
0000
0000
,  // measure 62
3003
0000
0000
0000
;

//---------------dance-single - ----------------
#NOTES:
     dance-single:
     :
     Easy:
     7:
     0.286443,0.393762,0.281258,0.181457,0.000000,221.000000,190.000000,31.000000,20.000000,0.000000,0.000000,0.286443,0.393762,0.281258,0.181457,0.000000,221.000000,190.000000,31.000000,20.000000,0.000000,0.000000:
// measure 0
0000
0000
0000
0000
,  // measure 1
0000
0000
0000
0000
,  // measure 2
0000
0000
0000
0000
,  // measure 3
0000
0000
0000
0000
,  // measure 4
0000
0000
0000
0000
,  // measure 5
0002
0000
0100
0000
,  // measure 6
1000
0000
0010
0000
,  // measure 7
2003
0000
3200
0000
,  // measure 8
0320
0000
0031
0000
,  // measure 9
1002
0000
0000
1003
,  // measure 10
2000
0000
0002
3003
,  // measure 11
0110
0000
0001
0000
,  // measure 12
0100
0000
0010
0000
,  // measure 13
2001
0000
0000
3001
,  // measure 14
0002
0000
2000
3003
,  // measure 15
0110
0000
1000
0000
,  // measure 16
0100
0000
0010
0000
,  // measure 17
2002
0000
0000
0000
,  // measure 18
0000
0000
0000
0000
,  // measure 19
0000
0000
0000
0000
,  // measure 20
0000
0000
3003
0000
,  // measure 21
0001
0001
0001
0001
,  // measure 22
1000
1000
1000
1000
,  // measure 23
0010
0010
0100
0100
,  // measure 24
0001
0001
0001
0000
,  // measure 25
0010
0010
0010
0010
,  // measure 26
0100
0100
0100
0100
,  // measure 27
1000
1000
0001
0001
,  // measure 28
0010
0010
0020
0030
,  // measure 29
0100
0100
0100
0100
,  // measure 30
1000
1000
1000
1000
,  // measure 31
0010
0010
0100
0100
,  // measure 32
0001
0000
0001
0000
0001
0000
0000
0100
,  // measure 33
0100
0000
0100
0000
0100
0000
0100
0010
,  // measure 34
1000
0000
1000
0000
1000
0000
1000
0100
,  // measure 35
0010
0010
0010
0010
,  // measure 36
0001
1000
0001
1000
0002
0000
0003
0000
,  // measure 37
0100
0100
0100
0100
0100
0000
0011
0000
,  // measure 38
0001
0101
0001
0010
,  // measure 39
0100
1100
1000
1010
,  // measure 40
0010
0110
0100
0001
,  // measure 41
1000
1100
1000
1100
,  // measure 42
1000
1010
1000
0100
,  // measure 43
0010
0011
0001
0101
,  // measure 44
0100
0000
0110
0000
0010
0010
0000
0100
,  // measure 45
0100
1001
0010
1001
,  // measure 46
0100
1001
0001
1000
,  // measure 47
0001
0101
1000
1010
,  // measure 48
0001
0011
1000
1100
,  // measure 49
0001
0110
1000
0110
,  // measure 50
0001
0110
1000
0001
,  // measure 51
0100
0101
0010
1010
,  // measure 52
0110
0000
1001
0000
1000
0001
1000
0000
,  // measure 53
0001
0010
1000
0010
,  // measure 54
0001
0100
1000
0100
,  // measure 55
0002
0013
2000
3010
,  // measure 56
0002
0103
0010
1000
,  // measure 57
0001
0000
0010
0000
0001
0001
0001
0000
,  // measure 58
1000
0000
0010
0000
1000
1000
1000
0000
,  // measure 59
0200
0000
0000
0300
,  // measure 60
1000
0010
0100
0001
,  // measure 61
2002
0000
0000
0000
,  // measure 62
3003
0000
0000
0000
;

//---------------dance-single - ----------------
#NOTES:
     dance-single:
     :
     Medium:
     10:
     0.426424,0.506265,0.598808,0.199603,0.000000,329.000000,263.000000,66.000000,22.000000,0.000000,0.000000,0.426424,0.506265,0.598808,0.199603,0.000000,329.000000,263.000000,66.000000,22.000000,0.000000,0.000000:
// measure 0
0000
0000
0000
0000
,  // measure 1
0000
0000
0000
0000
,  // measure 2
0000
0000
0000
0000
,  // measure 3
0000
0000
0000
0000
,  // measure 4
0000
0000
0000
0000
,  // measure 5
1000
0000
0100
0000
0200
0000
0000
0310
,  // measure 6
0100
1000
0010
0100
,  // measure 7
0002
0013
0020
0130
,  // measure 8
0200
1300
0001
0100
,  // measure 9
0010
0000
1000
0000
2000
0000
0000
3001
,  // measure 10
1000
0100
0010
0001
,  // measure 11
0200
0310
0020
1030
,  // measure 12
2000
3001
0010
0100
,  // measure 13
0010
0000
0001
0000
0002
0000
0000
1003
,  // measure 14
0001
0100
0010
1000
,  // measure 15
0200
0310
0020
0031
,  // measure 16
0002
1003
0010
0100
,  // measure 17
0220
0000
0000
0000
,  // measure 18
0000
0000
0000
0000
,  // measure 19
0000
0000
0000
0000
,  // measure 20
0000
0000
0000
0330
,  // measure 21
1000
0000
1010
0000
1000
0000
1010
1000
,  // measure 22
0001
0000
0101
0000
0001
0000
0101
0001
,  // measure 23
0010
0110
0100
1100
,  // measure 24
1000
0000
1010
0000
1000
0100
1000
0010
,  // measure 25
0100
0000
0101
0000
0100
0000
0101
0100
,  // measure 26
0001
0000
0011
0000
0001
0000
0011
0001
,  // measure 27
1000
1010
0010
0110
,  // measure 28
0100
0101
2002
3003
,  // measure 29
0001
0000
0011
0000
0001
0000
0011
0001
,  // measure 30
0100
0000
0110
0000
0100
0000
0110
0100
,  // measure 31
0010
1010
1000
1001
,  // measure 32
0001
0000
0011
0000
0001
0100
0010
1000
,  // measure 33
0100
0000
1100
0000
0100
0000
0100
1000
,  // measure 34
0010
0000
0110
0000
0010
0010
0100
0010
,  // measure 35
1000
0001
1000
0001
1000
0001
1000
0001
,  // measure 36
0010
0100
0010
0100
0020
0000
0030
0000
,  // measure 37
0100
0100
0100
0100
0100
0000
1100
1000
,  // measure 38
0001
0000
0011
0000
0101
0000
0011
0001
,  // measure 39
0100
0110
0010
1010
,  // measure 40
1000
0000
1100
0000
1010
0010
1000
0100
,  // measure 41
0010
0000
0011
0000
0110
0000
0011
0010
,  // measure 42
0001
0000
0101
0000
0011
0000
0101
0001
,  // measure 43
1000
1100
0100
0110
,  // measure 44
0010
0000
0011
0000
0001
1000
0000
0001
,  // measure 45
1000
0001
1001
0000
1010
0000
0101
0001
,  // measure 46
1000
0000
1100
0000
0011
0001
0100
0010
,  // measure 47
1000
0000
1100
0100
0010
0000
0011
0001
,  // measure 48
0100
0000
0110
0000
1010
1000
0001
0010
,  // measure 49
0100
0000
1100
0000
0101
0000
1100
1000
,  // measure 50
0001
0000
0011
0000
1010
1000
0100
0010
,  // measure 51
0001
0000
0100
0001
0010
0000
0100
1000
,  // measure 52
0010
1000
0100
0010
0001
1000
1001
0000
,  // measure 53
1010
0011
1010
0011
,  // measure 54
1100
0000
0101
0000
1100
0000
0101
0001
,  // measure 55
0010
0000
0010
0100
1000
0000
1000
0010
,  // measure 56
0100
0000
0100
0001
0100
0001
0010
0100
,  // measure 57
1000
0000
0010
1000
0010
1000
0100
0010
,  // measure 58
0001
0000
0100
0001
0100
0001
0010
0100
,  // measure 59
2000
0000
0000
3020
0000
0000
0230
0000
,  // measure 60
0301
0010
0100
1000
,  // measure 61
2002
0000
0000
0000
,  // measure 62
3003
0000
0000
0000
;

//---------------dance-single - ----------------
#NOTES:
     dance-single:
     :
     Hard:
     13:
     0.566405,0.759397,0.326622,0.489934,0.176920,437.000000,401.000000,36.000000,54.000000,0.000000,0.000000,0.566405,0.759397,0.326622,0.489934,0.176920,437.000000,401.000000,36.000000,54.000000,0.000000,0.000000:
// measure 0
0000
0000
0000
0000
,  // measure 1
0000
0000
0000
0000
,  // measure 2
0000
0000
0000
0000
,  // measure 3
0000
0000
0000
0000
,  // measure 4
0000
0000
0000
0000
,  // measure 5
0002
0000
0023
0000
0230
0000
0000
1300
,  // measure 6
0010
0100
0001
0100
0010
0000
2000
0000
,  // measure 7
3002
0023
0230
2300
,  // measure 8
3020
0000
1030
0100
1000
0010
0100
0001
,  // measure 9
0021
0001
0130
1100
,  // measure 10
1100
0000
0000
0000
0000
0000
0000
0000
0001
1000
0001
1000
0001
1000
0001
1000
,  // measure 11
0001
0100
0010
1000
,  // measure 12
2020
3030
0202
0303
,  // measure 13
1200
1000
0310
0011
,  // measure 14
0011
0000
0000
0000
0000
0000
0000
0000
1000
0001
1000
0001
1000
0001
1000
0001
,  // measure 15
1000
0010
0100
0110
,  // measure 16
0110
0000
0010
1000
0001
0010
0100
1000
,  // measure 17
2002
0000
0000
0000
,  // measure 18
0000
0000
0000
0000
,  // measure 19
0000
0000
0000
0000
,  // measure 20
0000
0000
0000
3003
,  // measure 21
0001
0000
0010
0000
0010
0000
0010
0000
0010
0000
0010
0000
0010
0000
0001
0010
,  // measure 22
0001
0010
0010
0010
0010
0001
0010
0001
,  // measure 23
0100
0100
0100
0010
1000
1000
1000
0001
,  // measure 24
0010
0010
0010
0010
0010
0001
0100
0010
,  // measure 25
1000
0000
0100
0000
0100
0000
0100
0000
0100
0000
0100
0000
0100
0000
1000
0100
,  // measure 26
1000
0100
0100
0100
0100
1000
0100
1000
,  // measure 27
0010
0010
0010
0100
0001
0001
0001
1000
,  // measure 28
0100
0100
0100
0100
0220
0000
0330
0000
,  // measure 29
1001
0000
0001
0000
0001
0000
0001
0000
0001
0000
0001
0000
0001
0000
1000
0001
,  // measure 30
1000
0001
0001
0001
0001
1000
0001
1000
,  // measure 31
0100
0100
0100
1000
0010
0010
0010
0100
,  // measure 32
0001
0000
0001
0000
0001
0000
0001
0000
0001
0000
1000
0000
0100
0000
0010
0001
,  // measure 33
1000
0000
1000
0000
1000
0000
1000
0000
1000
0000
1000
0000
1000
0000
0001
1000
,  // measure 34
0001
0000
1000
0000
1000
0000
1000
0000
1000
0000
0001
0000
0001
1000
0001
1000
,  // measure 35
0010
0000
0010
0100
0010
0000
0010
0100
0010
0000
0010
0100
0010
0000
0010
0100
,  // measure 36
0001
1000
0001
1000
0001
1000
0001
2000
0002
0000
0000
0000
3003
0000
0000
0000
,  // measure 37
1001
0000
1001
0000
1001
0000
1001
0000
1002
0000
0013
0000
0010
0000
0001
0010
,  // measure 38
0001
0010
0010
0010
0010
0200
2300
3002
,  // measure 39
0103
0100
0100
0020
1030
0100
1000
0002
,  // measure 40
0013
0010
0010
0100
0010
0002
0203
0320
,  // measure 41
2030
0000
3100
0000
0100
0000
0100
0000
0100
0000
0100
0000
0100
0000
1000
0100
,  // measure 42
1000
0100
0100
0100
0100
0020
0032
2003
,  // measure 43
3010
0010
0010
0200
0301
0010
0001
2000
,  // measure 44
3100
0100
0100
0010
0100
1100
0000
0011
,  // measure 45
1010
0000
0101
0000
1001
0000
0001
0000
0001
0000
0001
0000
1001
0000
1000
0001
,  // measure 46
1000
0001
1001
0001
0001
0200
0320
2030
,  // measure 47
3100
0100
1100
2000
3010
0010
0110
0200
,  // measure 48
0301
0000
0001
0000
0101
0000
0100
0000
0001
0000
2000
0000
3200
0000
0310
0001
,  // measure 49
1000
0000
1000
0000
1001
0000
1000
0000
1000
0000
1000
0000
1001
0000
0001
1000
,  // measure 50
0001
0000
1000
0000
1001
0000
1000
0000
1000
0000
0001
0000
0001
1000
0001
1000
,  // measure 51
0010
0000
0010
0000
1010
0000
2000
0000
3100
0000
0100
0010
0100
0000
0020
0000
,  // measure 52
0031
0000
0001
0010
0001
0000
0001
0010
0001
0000
0101
0000
1010
0000
0000
0000
,  // measure 53
1100
1000
1000
0001
1000
0010
0100
0001
,  // measure 54
0010
0010
0010
0100
0010
0001
0100
0010
,  // measure 55
1000
1000
1000
0200
0310
0010
0010
0002
,  // measure 56
0103
0000
0100
0000
0100
0000
0010
0000
0200
0000
0310
0000
0200
0000
0310
1000
,  // measure 57
0001
0000
0001
0000
0001
0000
0010
0000
0100
0000
1000
0000
0010
0000
0100
0001
,  // measure 58
0010
0010
0010
0001
0100
0010
1000
0001
,  // measure 59
0020
0000
0000
0230
0000
0000
2300
0000
,  // measure 60
3010
0000
0000
0000
0100
0000
0000
0000
0001
0000
0000
0000
1000
0000
0000
0000
0000
0000
0000
0000
0000
0000
0000
0000
0000
0000
0000
0100
0000
0000
0010
0000
0000
0100
0000
0000
0010
0000
0000
0000
0000
0000
0100
0000
0000
0000
0000
0000
,  // measure 61
2002
0000
0000
0000
,  // measure 62
3003
0000
0000
0000
;
