#TITLE:THEME FROM ENTER THE DRAGON (notorious mix);
#SUBTITLE:(SMM-Special);
#ARTIST:B3-PROJECT;
#TITLETRANSLIT:;
#SUBTITLETRANSLIT:;
#ARTISTTRANSLIT:;
#GENRE:;
#CREDIT:;
#BANNER:THEME FROM ENTER THE DRAGON (notorious mix) (SMM-Special).png;
#BACKGROUND:THEME FROM ENTER THE DRAGON (notorious mix) (SMM-Special)-bg.png;
#LYRICSPATH:;
#CDTITLE:cdtitle.png;
#MUSIC:THEME FROM ENTER THE DRAGON (notorious mix) (SMM-Special).ogg;
#OFFSET:0.000000;
#SAMPLESTART:57.047001;
#SAMPLELENGTH:15.000000;
#SELECTABLE:YES;
#DISPLAYBPM:71.000000:142.000000;
#BPMS:0.000000=141.988998
,49.500000=70.994003
,50.250000=141.988998
,127.250000=70.994003
,128.750000=141.988998
;
#STOPS:19.000000=0.423000,
72.750000=0.211000,
73.000000=0.212000,
87.750000=0.211000,
88.000000=0.212000,
111.250000=0.423000,
128.750000=0.423000,
168.250000=0.106000,
183.000000=0.211000,
183.250000=0.212000,
198.000000=0.211000,
198.250000=0.212000
;
#BGCHANGES:;
#KEYSOUNDS:;
#ATTACKS:;

//---------------dance-single - ----------------
#NOTES:
     dance-single:
     :
     Challenge:
     14:
     0.667245,0.658441,0.363278,0.124552,1.188437,450.000000,415.000000,35.000000,12.000000,0.000000,0.000000,0.667245,0.658441,0.363278,0.124552,1.188437,450.000000,415.000000,35.000000,12.000000,0.000000,0.000000:
// measure 0
0000
0000
0000
0000
,  // measure 1
1000
0100
0001
0010
0100
0001
0010
1000
,  // measure 2
1000
0010
0001
0010
0100
1000
0010
0100
,  // measure 3
2000
0010
0001
0010
0100
0010
0001
0100
,  // measure 4
0100
0000
0010
0000
0001
0000
0100
0000
0001
0000
0010
0000
3100
0000
1000
0100
,  // measure 5
0000
0100
1000
0000
0100
0000
0010
0001
0000
0001
0010
0000
0100
0000
0010
1000
,  // measure 6
0000
1000
0010
0000
1000
0000
0100
0000
0010
0001
0010
0000
0100
0000
1000
0010
,  // measure 7
0000
0010
1000
0000
0100
0000
0001
1000
0000
1000
0001
0000
0010
0000
1000
0100
,  // measure 8
0000
0100
1000
0000
0010
0000
1000
0100
1000
0100
0001
0000
0100
0000
0010
0001
,  // measure 9
0000
0001
1000
0000
0100
0000
0010
1000
0000
1000
0100
0000
0001
0000
1000
0100
,  // measure 10
0000
0100
0001
0000
0100
0000
0001
0000
0020
0000
2030
0000
3200
0000
0001
0000
,  // measure 11
0000
1000
0000
0010
0000
1000
0320
0001
,  // measure 12
0000
0000
0000
0000
0100
0000
0000
0000
0000
0000
0000
0000
1030
0100
1000
0100
1000
0000
0100
0000
0000
0000
0001
0000
0000
0000
0100
0000
0000
0000
1000
0000
,  // measure 13
0000
0100
0000
0001
0000
0100
0000
1000
0000
0010
0000
0001
0000
0010
0000
1000
,  // measure 14
0000
0010
0000
0001
0000
0010
0000
1000
0000
0100
0000
0010
0000
0001
0000
0010
,  // measure 15
0000
0100
0000
1000
0000
0100
0000
1000
0000
0100
0000
0010
0000
0001
0000
0010
,  // measure 16
0000
0100
0000
1000
0001
1000
0001
1000
0000
0020
0000
0001
0000
0000
0000
0001
,  // measure 17
0000
0000
0000
1000
0000
0000
0000
1000
1000
0000
0000
0100
0000
0000
0000
0100
,  // measure 18
0000
0030
0000
1100
0011
0110
0000
1000
0000
0100
0000
0010
0000
0100
0000
1000
,  // measure 19
0000
0100
0000
0001
0000
0010
0000
1000
0000
0010
0000
0001
0000
1000
0000
0100
,  // measure 20
0000
0001
0000
1000
0000
0200
0000
0001
0000
0000
0000
0001
0000
0000
0000
1000
,  // measure 21
0000
0000
0000
1000
1000
0000
0000
0010
0000
0000
0000
0010
0000
0300
0000
1010
,  // measure 22
0101
1001
0000
1000
0000
0001
0000
1000
0000
0100
0000
1000
0000
0001
0000
1000
,  // measure 23
0000
0100
0000
0001
0000
0100
0000
1000
0000
0100
0001
0100
0001
0100
1000
0100
,  // measure 24
1000
0020
0000
1000
0000
0100
0000
1000
0000
0100
0000
1000
0000
0100
0000
1000
,  // measure 25
0000
0130
0000
0010
0000
0001
0000
0100
0000
1000
0000
0010
0000
1000
0000
0010
,  // measure 26
0000
0200
0000
0001
0000
0010
0000
0001
0000
0010
0000
0001
0000
0010
0000
0001
,  // measure 27
0000
0310
0000
0100
0000
1000
0000
0010
0000
0001
0000
0100
0000
1001
0000
1100
,  // measure 28
0000
0000
0000
0101
0000
0000
0000
1100
0000
0000
0000
0101
0000
0000
0000
1010
,  // measure 29
0000
0000
0000
0011
0000
0000
0000
1010
0000
0011
0000
0000
0000
0000
0000
1100
,  // measure 30
0000
0000
0000
1010
0000
1000
0000
0100
0000
0000
0000
0110
0000
0001
0000
0010
,  // measure 31
0000
0000
0000
1000
0000
0000
0000
1001
0000
0000
0000
0000
0000
0021
1000
0000
,  // measure 32
0000
0000
0000
0030
0000
1000
0100
0000
0100
1000
0000
0100
0000
0010
0001
0000
,  // measure 33
0001
0010
0000
0100
0000
0010
1000
0000
1000
0010
0000
0100
0000
0001
0010
0001
,  // measure 34
0010
0100
0000
1000
0000
0010
0100
0000
0100
0010
0000
0100
0000
1000
0010
0000
,  // measure 35
0010
1000
0000
0010
0000
0100
0001
0000
0001
0100
0000
0010
1000
0010
1000
0010
,  // measure 36
0001
0010
0001
0100
0000
0010
1000
0000
1000
0100
0000
1000
0000
0100
0001
0000
,  // measure 37
0001
0010
0000
0100
0000
1000
0010
0000
0010
0100
0000
0010
0000
0100
1000
0100
,  // measure 38
1000
0001
0000
0010
0000
1000
0001
0000
0001
1000
0000
0100
0000
0010
0100
0000
,  // measure 39
0100
0010
0000
1000
0000
0001
0010
0000
0100
1001
0000
1000
0010
0100
0001
0001
,  // measure 40
0010
0100
1000
0100
0000
0001
0000
0000
0000
0001
0000
1000
0000
0001
0000
1000
,  // measure 41
0000
0001
0001
0100
0000
0001
0000
0000
0000
0001
0000
0100
0000
0001
0000
0100
,  // measure 42
0000
1001
1001
0000
1000
0000
0000
0000
1000
0000
0100
0000
1000
0000
0100
0000
,  // measure 43
1000
1000
0010
0000
0000
0000
0010
0000
0000
0000
0010
0000
0001
0100
1000
0100
,  // measure 44
0001
0100
2000
0000
0001
0000
0010
0000
0001
0000
0010
0000
0001
0000
0010
0000
,  // measure 45
0001
0000
0100
0000
0001
0000
0100
0000
0001
0000
3100
0000
0011
1100
1001
0000
,  // measure 46
0010
1000
0001
0100
0010
1000
0001
0100
,  // measure 47
0010
0000
1000
0000
0001
0000
0100
1000
0000
1000
0000
0000
0010
0000
0002
0000
,  // measure 48
1000
0100
1000
0100
1000
0100
1000
0010
,  // measure 49
1000
0000
0010
0000
1000
0000
0013
0000
0101
1010
0110
0000
0000
1100
0000
0000
,  // measure 50
0101
0000
0000
0011
0000
0000
1010
0000
0000
0110
0000
0000
1001
0000
0000
0000
;
