#TITLE:Spark in the Dark;
#SUBTITLE:;
#ARTIST:MAN POWER;
#TITLETRANSLIT:;
#SUBTITLETRANSLIT:;
#ARTISTTRANSLIT:;
#GENRE:;
#CREDIT:;
#BANNER:Spark in the Dark.png;
#BACKGROUND:Spark in the Dark-bg.png;
#LYRICSPATH:;
#CDTITLE:cdtitle.png;
#MUSIC:Spark in the Dark.ogg;
#OFFSET:-0.665000;
#SAMPLESTART:76.300003;
#SAMPLELENGTH:15.000000;
#SELECTABLE:YES;
#DISPLAYBPM:155.000000;
#BPMS:0.000000=155.020004
,62.000000=163.000000
,64.000000=155.020004
,96.000000=152.500000
,98.000000=155.050003
,256.000000=158.699997
,258.000000=155.020004
,323.500000=158.800003
,325.500000=155.000000
;
#STOPS:
;
#BGCHANGES:;
#KEYSOUNDS:;
#ATTACKS:;

//---------------dance-single - ----------------
#NOTES:
     dance-single:
     :
     Hard:
     13:
     0.597925,0.733654,0.351978,0.275461,0.198944,547.000000,501.000000,46.000000,36.000000,0.000000,0.000000,0.597925,0.733654,0.351978,0.275461,0.198944,547.000000,501.000000,46.000000,36.000000,0.000000,0.000000:
0000
0000
0000
0000
,
0000
0000
0000
0000
,
0000
0000
0000
0000
,
0000
0000
0000
0000
,
0000
2000
0000
0000
0000
0000
0000
0000
0000
0000
0000
0000
0000
3200
0000
0000
0000
0000
0000
0000
0000
0000
0000
0000
0000
0320
0000
0000
0000
0000
0000
0000
,
0000
0000
0030
0010
,
0020
0000
0000
0032
0000
0000
0013
0000
,
0020
0000
2030
0000
,
3100
0000
0100
0000
0100
1000
0100
1000
,
0100
0000
0100
0000
0100
1000
0100
1000
,
0010
0000
0010
0000
0010
0001
0010
0001
,
0010
0000
0010
0000
0010
0001
0010
0001
,
1000
0100
1000
0100
0010
0001
0010
0100
,
0010
0001
0010
0001
1000
0100
0010
0100
,
1000
0001
1000
0001
0100
0010
0001
0010
,
0200
0000
0320
0000
,
1030
0001
1001
0100
0010
0001
0011
0010
,
0100
0010
0110
1000
0100
0001
0101
0100
,
0010
1000
1010
0001
1000
0100
1100
1000
,
0001
0000
0010
0000
0011
0000
1000
0000
0100
0000
0010
0000
0001
1000
0001
1000
,
0001
1000
1010
0100
0001
0100
0101
0001
,
0100
1000
1100
0010
0001
1000
1001
0001
,
0010
0100
0110
1000
0100
0010
0011
0100
,
2000
0000
3002
0000
,
0003
0000
0000
0000
0000
0000
0000
0000
1000
0001
1000
0010
1000
0001
1000
0000
,
0000
0000
0100
0000
0010
0001
0000
0000
0100
0000
1000
0000
0100
0000
0010
0000
,
0000
0000
1000
0000
0001
0100
0000
0000
0010
0000
1000
0000
0010
0000
0100
0000
,
0000
0000
0001
0000
0100
0010
0000
0000
1000
0000
0100
0000
0010
0000
0001
0000
,
0000
0000
0100
0000
0001
1000
0000
0000
0100
0000
0010
0100
0010
0100
0010
0000
,
0000
0000
0001
0000
1000
0100
0000
0000
0010
0000
1000
0000
0010
0000
0100
0000
,
0000
0000
0010
0000
0001
1000
0000
0000
0001
0000
0100
0000
0010
0000
0100
0000
,
0000
0000
0010
0000
1000
0001
0000
0000
0010
0000
0100
0000
1000
0000
0001
0000
,
0000
0000
0011
0000
0000
1100
0000
0000
0001
0000
1000
0000
0001
0000
0100
0000
,
0010
1000
0010
0100
0010
0001
0010
0100
,
0010
1000
0010
0001
0010
1000
0100
0010
,
0100
0001
0100
1000
0100
0001
0100
0010
,
0001
0100
0010
0000
1000
0000
0100
0010
,
1000
0100
1000
0001
1000
0100
1000
0010
,
1000
0001
1000
0100
1000
0001
1000
0010
,
0001
1000
0001
0100
0001
1000
0001
0010
,
0100
1000
0100
0000
0010
0000
0001
0000
,
0011
1010
0011
1100
,
0101
0000
1100
0000
0100
0010
0011
0000
,
1100
0000
1010
0000
0101
0000
1001
2000
,
0000
3100
0010
0001
0010
0200
0000
1300
,
0010
1000
0001
1000
0100
0010
0001
0010
,
0100
0010
0001
1000
0100
1000
0010
0100
,
0000
0000
0001
0010
0001
0010
0001
0000
0000
0000
1000
0100
1000
0100
1000
0000
,
0000
0000
0010
0100
0010
0100
0010
0000
0000
0000
1000
0001
1000
0001
1000
0000
,
0000
0011
0000
1010
0000
1000
0002
0000
,
0203
0000
0320
0000
2030
0000
3100
1100
,
0000
1001
0000
0101
0000
0001
0200
0000
,
0320
0000
2030
0000
3100
0010
0002
0000
,
0103
0010
0100
0001
1000
0100
0020
0000
,
0001
1030
0011
2010
,
3001
0010
0100
0010
0001
1000
0200
0000
,
1000
0000
0000
0000
0001
0000
0000
0000
1300
0000
0001
0000
0010
0100
0010
0000
,
0000
0011
0000
1100
0000
0001
2000
0000
,
3200
0000
0320
0000
0032
0000
0103
0101
,
0000
0110
0000
1010
0000
1000
0200
0000
,
0320
0000
0032
0000
0103
0010
2000
0000
,
3100
0010
0100
1000
0001
0010
0200
0000
,
1000
0301
1100
0102
,
1003
0010
0100
0010
1000
0001
0110
0000
,
1001
0000
0000
0000
0000
0000
0000
0000
0001
1000
0001
0100
0001
1000
0001
0000
,
0000
0000
1000
0000
0000
0010
0000
0000
0100
0000
0001
0000
0010
0000
0001
0000
,
0000
0000
1000
0000
0000
0100
0000
0000
1000
0000
0010
0000
0100
0000
0001
0000
,
0000
0000
0100
0000
0000
0010
0000
0000
0100
0000
0001
0000
0010
0000
0100
0000
,
0000
0000
1000
0000
0000
0010
0000
0000
1000
0000
0100
0000
1000
0000
1000
0000
,
0000
0000
0001
0000
0000
0100
0000
0000
0010
0000
1000
0000
0100
0000
0010
0000
,
0000
0000
0100
0000
0000
1000
0000
0000
0010
0000
0100
0000
0001
0000
0100
0000
,
0000
0000
0001
0000
0000
0010
0000
0000
0100
0000
1000
0000
0001
0000
0010
0000
,
0000
0000
0001
0000
0000
1000
0000
0000
0100
0000
0010
0000
0001
0000
1001
0000
,
0000
0000
1000
0000
0001
0100
0000
0000
0010
0000
1000
0000
0010
0000
0100
0000
,
0000
0000
0001
0000
0100
0010
0000
0000
0100
0000
1000
0000
0100
0000
0001
0000
,
0000
0000
1000
0000
0010
0100
0000
0000
0001
0000
0010
0000
0100
0000
1000
0000
,
0000
0000
0010
0000
1000
0001
0000
0000
0010
0000
0100
0010
0100
0010
0100
0000
,
0000
0000
1000
0000
0001
0010
0000
0000
0001
0000
0100
0000
0010
0000
0100
0000
,
0000
0000
0001
0000
1000
0100
0000
0000
0010
0000
1000
0000
0010
0000
0001
0000
,
0000
0000
0100
0000
0010
1000
0000
0000
0100
0000
0010
0000
0001
0000
1000
0000
,
0000
0000
1010
0000
0000
0101
0000
0000
1000
0000
0010
0000
0100
0000
0010
0000
,
0000
0000
0000
0000
0000
0000
1000
0001
1000
0001
1000
0001
1000
0001
1000
0000
,
0000
0001
0000
2002
0000
0000
0000
0000
,
0000
0000
0000
3003
0000
0000
0000
0000
;

//---------------dance-single - ----------------
#NOTES:
     dance-single:
     :
     Beginner:
     2:
     0.124613,0.159490,0.000000,0.099472,0.000000,114.000000,114.000000,0.000000,13.000000,0.000000,0.000000,0.124613,0.159490,0.000000,0.099472,0.000000,114.000000,114.000000,0.000000,13.000000,0.000000,0.000000:
0000
0000
0000
0000
,
0000
0000
0000
0000
,
0000
0000
0000
0000
,
0000
0000
0000
0000
,
0000
0000
0000
0000
,
0000
0000
0000
0000
,
0000
0000
0000
0000
,
0000
0000
0000
0000
,
0010
0000
0000
0000
,
0010
0000
0000
0000
,
0001
0000
0000
0000
,
0001
0000
0000
0000
,
1000
0000
0000
0000
,
1000
0000
0000
0000
,
0100
0000
0000
0000
,
0100
0000
0000
0000
,
0010
0000
0010
0000
,
0010
0000
0010
0000
,
0001
0000
0001
0000
,
0001
0000
0001
0000
,
0100
0000
0100
0000
,
0100
0000
0100
0000
,
1000
0000
1000
0000
,
1000
0000
1000
0000
,
0000
0000
0000
0000
0000
0000
0000
0200
,
0000
0000
0000
0000
0000
0300
0000
0020
,
0000
0000
0000
0000
0000
0030
0000
2000
,
0000
0000
0000
0000
0000
3000
0000
0001
,
0000
0000
0000
1000
0000
0000
0000
0020
,
0000
0000
0000
0000
0000
0030
0000
0200
,
0000
0000
0000
0000
0000
0300
0000
0002
,
0000
0000
0000
0000
0000
0003
0000
1000
,
0000
0000
0000
0001
0000
0000
0000
0000
,
0000
0100
0000
0000
0000
0100
0000
0000
,
0000
0010
0000
0000
0000
0010
0000
0000
,
0000
0001
0000
0000
0000
0001
0000
0000
,
0000
1000
0000
0000
0000
1000
0000
0000
,
0000
0001
0000
0000
0000
0001
0000
0000
,
0000
0100
0000
0000
0000
0100
0000
0000
,
0000
0010
0000
0000
0000
0010
0000
0000
,
0000
1000
0000
0000
0000
1000
0000
0000
,
0000
0100
0000
0000
0000
0001
0000
0000
,
0000
0100
0000
0000
0000
1000
0000
0000
,
0000
0010
0000
0000
0000
0001
0000
0000
,
0000
0010
0000
0000
0000
1000
0000
0000
,
0000
0010
0000
0000
0000
0001
0000
0000
,
0000
0100
0000
0000
0000
1000
0000
0100
,
0000
0000
0000
0100
0000
0000
0000
0100
,
0000
0000
0000
0100
0000
0000
0000
0010
,
0000
0000
0000
0010
0000
0000
0000
1000
,
0000
0000
0000
0000
0000
0000
0000
0100
,
0000
0000
0000
0100
0000
0000
0000
0001
,
0000
0000
0000
0000
0000
0000
0000
0100
,
0000
0000
0000
0100
0000
0000
0000
1000
,
0000
0000
0000
0000
0000
0000
0000
0010
,
0000
0000
0000
0010
0000
0000
0000
0100
,
0000
0000
0000
0000
0000
0000
0000
1000
,
0000
0000
0000
1000
0000
0000
0000
0100
,
0000
0000
0000
0000
0000
0000
0000
0001
,
0000
0000
0000
0001
0000
0000
0000
0010
,
0000
0000
0000
0000
0000
0000
0000
1000
,
0000
0000
0000
1000
0000
0000
0000
0010
,
0000
0000
0000
0000
0000
0000
0000
0001
,
0000
0000
0000
0001
0000
0000
0000
1000
,
0000
0000
0000
0000
0000
0000
0000
0100
,
0000
0000
0000
0000
0000
0000
0000
0010
,
0000
0000
0000
0000
0000
0000
0000
0100
,
0000
0000
0000
0000
0000
0000
0000
1000
,
0000
0000
0000
0100
0000
0000
0000
0001
,
0000
0000
0000
0000
0000
0000
0000
1000
,
0000
0000
0000
0000
0000
0000
0000
0001
,
0000
0000
0000
0000
0000
0000
0000
0010
,
0000
0000
0000
0100
0000
0000
0000
2000
,
0000
0000
0000
0000
0000
3000
0000
0002
,
0000
0000
0000
0000
0000
0003
0000
0200
,
0000
0000
0000
0000
0000
0300
0000
0010
,
0000
0000
0000
0100
0000
0000
0000
0002
,
0000
0000
0000
0000
0000
0003
0000
2000
,
0000
0000
0000
0000
0000
3000
0000
0020
,
0000
0000
0000
0000
0000
0030
0000
0100
,
0000
0000
0000
0010
0000
0000
0000
0100
,
0000
0000
0000
0000
0000
0000
0000
0100
,
0000
0100
0000
0200
0000
0000
0000
0000
,
0000
0000
0000
0300
0000
0000
0000
0000
;

//---------------dance-single - ----------------
#NOTES:
     dance-single:
     :
     Easy:
     5:
     0.250320,0.287082,0.007652,0.191292,0.007652,229.000000,228.000000,1.000000,25.000000,0.000000,0.000000,0.250320,0.287082,0.007652,0.191292,0.007652,229.000000,228.000000,1.000000,25.000000,0.000000,0.000000:
0000
0000
0000
0000
,
0000
0000
0000
0000
,
0000
0000
0000
0000
,
0000
0000
0000
0000
,
0000
0010
0000
0000
0000
0000
0000
0000
0000
0000
0000
0000
0000
0000
0000
0000
0000
0000
0000
0000
0000
0000
0000
0000
0000
0020
0000
0000
0000
0000
0000
0000
,
0000
0000
0030
0000
,
0100
0000
0100
0000
,
0200
0300
2000
3000
,
0100
0000
0100
0100
,
0100
0000
0100
0100
,
1000
0000
1000
1000
,
1000
0000
1000
1000
,
0001
0001
0001
0000
,
0001
0001
0001
0000
,
0010
0010
0010
0000
,
0020
0030
0200
0300
,
0010
0001
0010
0001
,
0100
0001
0100
0001
,
1000
0001
1000
0001
,
1000
0010
1000
0010
,
1000
0100
1000
0100
,
0010
0100
0010
0100
,
0010
0001
0010
0001
,
2000
0000
3002
0000
,
0003
0000
0000
0000
0000
0000
0000
1000
,
0000
0100
0000
1000
0000
0000
0000
0010
,
0000
1000
0000
0010
0000
0000
0000
0100
,
0000
0001
0000
0100
0000
0000
0000
0002
,
0000
0003
0000
2000
0000
3000
0000
0010
,
0000
0100
0000
0010
0000
0000
0000
1000
,
0000
0010
0000
1000
0000
0000
0000
0001
,
0000
0100
0000
0001
0000
0000
0000
2000
,
0000
3000
0000
0002
0000
0003
0000
1000
,
0000
0100
0000
1000
0000
0010
0000
0100
,
0000
0001
0000
0100
0000
0010
0000
1000
,
0000
0100
0000
0010
0000
0000
0000
0001
,
0000
1000
0000
0001
0000
0000
0000
0010
,
0000
0001
0000
0010
0000
0100
0000
1000
,
0000
0010
0000
1000
0000
0100
0000
0010
,
0000
0001
0000
1000
0000
0000
0000
0010
,
0000
0100
0000
0010
0000
0000
0000
1000
,
0000
0100
0000
1000
0000
0100
0000
0100
,
0000
0010
0000
0100
0000
0010
0000
0010
,
0000
0001
0000
0010
0000
0001
0000
0001
,
0000
1000
0000
0002
0000
0000
0000
0103
,
0000
0001
0000
0010
0000
0100
0000
1000
,
0000
0010
0000
0100
0000
0001
0000
0200
,
0000
0300
0000
0020
0000
0030
0000
0200
,
0000
0300
0000
0020
0000
0030
0000
1000
,
0000
0100
0000
1000
0000
0000
0001
0000
,
0001
0000
0001
0000
0000
0000
0000
0100
,
0000
0001
0000
0100
0000
0000
0010
0000
,
0010
0000
0010
0000
0000
0000
0000
1000
,
0000
0010
0000
0001
0000
0010
0000
0200
,
0000
0000
0000
0300
0000
0000
0000
0001
,
0000
0010
0000
0100
0000
1000
0000
0020
,
0000
0000
0000
0030
0000
0000
0000
0001
,
0000
0100
0000
0001
0000
0000
1000
0000
,
0100
0000
1000
0000
0000
0000
0000
0010
,
0000
1000
0000
0010
0000
0000
0100
0000
,
0010
0000
0100
0000
0000
0000
0000
0001
,
0000
0100
0000
1000
0000
0100
0000
0020
,
0000
0000
0000
0030
0000
0000
0000
1000
,
0000
0100
0000
0010
0000
0000
0100
0000
,
0100
0000
0000
0000
0000
0000
0000
1000
,
0000
1000
0000
1000
0000
0000
0000
0001
,
0000
0001
0000
0001
0000
0000
0000
0100
,
0000
0100
0000
0100
0000
0000
0000
0010
,
0000
0000
0000
0100
0000
0000
0000
0010
,
0000
0010
0000
0010
0000
0000
0000
0100
,
0000
0100
0000
0100
0000
0000
0000
0001
,
0000
0001
0000
0001
0000
0000
0000
1000
,
0000
0000
0000
0001
0000
0000
0000
1000
,
0000
0010
0000
1000
0000
0000
0000
0100
,
0000
1000
0000
0100
0000
0000
0000
0010
,
0000
0001
0000
0010
0000
0000
0000
0002
,
0000
0003
0000
2000
0000
3000
0000
0100
,
0000
0010
0000
0100
0000
0000
0000
1000
,
0000
0100
0000
1000
0000
0000
0000
0001
,
0000
0010
0000
0001
0000
0000
0000
2000
,
0000
3000
0000
0002
0000
0003
0000
0010
,
0000
0000
0000
0000
0000
0000
0000
0001
,
0000
1000
0000
2002
0000
0000
0000
0000
,
0000
0000
0000
3003
0000
0000
0000
0000
;

//---------------dance-single - ----------------
#NOTES:
     dance-single:
     :
     Medium:
     9:
     0.394609,0.446572,0.130079,0.114775,0.103298,361.000000,344.000000,17.000000,15.000000,0.000000,0.000000,0.394609,0.446572,0.130079,0.114775,0.103298,361.000000,344.000000,17.000000,15.000000,0.000000,0.000000:
0000
0000
0000
0000
,
0000
0000
0000
0000
,
0000
0000
0000
0000
,
0000
0000
0000
0000
,
0000
0010
0000
0000
0000
0000
0000
0000
0000
0000
0000
0000
0000
0010
0000
0000
0000
0000
0000
0000
0000
0000
0000
0000
0000
0200
0000
0000
0000
0000
0000
0000
,
0000
0000
0300
0100
,
0010
0000
0000
0100
0000
0000
0010
0000
,
0020
0000
0032
0000
,
0103
0000
0100
0010
,
0100
0000
0100
0010
,
1000
0000
1000
0001
,
1000
0000
1000
0001
,
0100
0001
0100
0001
,
0010
0100
1000
0100
,
1000
0010
0100
0010
,
2000
0000
3002
0000
,
0103
0101
0001
0101
,
1000
1010
0010
1010
,
1000
0001
0100
0000
0001
1000
0010
0000
,
0100
0001
0010
0000
0002
0000
0000
0000
,
1003
0100
0010
0000
0100
1000
0000
0001
,
0010
0000
0001
2000
0000
0000
0000
0000
,
3010
0100
0001
0000
0010
0100
1000
0000
,
0020
0000
0230
0000
,
0300
0000
0000
0000
0010
0001
1000
0010
,
0000
0000
1000
0000
0000
0100
0000
0000
1000
0000
0010
0000
0000
0000
0100
0000
,
0000
0000
0001
0000
0000
0010
0000
0000
0001
0000
0100
0000
0000
0000
0010
0000
,
0000
0000
1000
0000
0000
0001
0000
0000
0100
0000
0010
0000
0000
0000
0100
0000
,
0000
0000
0001
0000
0000
1000
0000
0000
0001
0000
0010
0000
0100
0000
1000
0000
,
0000
0000
0010
0000
0000
0001
0000
0000
0010
0000
0100
0000
0000
0000
0001
0000
,
0000
0000
0010
0000
0000
1000
0000
0000
0010
0000
0100
0000
0000
0000
0010
0000
,
0000
0000
0001
0000
0000
0100
0000
0000
0010
0000
1000
0000
0000
0000
0001
0000
,
0000
0000
1000
0000
0000
0001
0000
0000
0100
0000
0010
0000
0010
0000
1000
0000
,
0100
0010
1000
0010
,
0001
0100
1000
0100
,
0001
0000
1000
0000
0001
0000
0010
0100
,
1000
0100
1000
0000
0001
0000
1001
0000
,
0010
0100
0001
0100
,
1000
0010
0001
0010
,
1000
0000
0001
0000
1000
0000
0010
0100
,
0001
0100
0001
0000
1000
0000
1001
0000
,
0001
0011
1000
1100
,
0010
0000
1010
0000
0100
0010
0001
0000
,
0100
0101
0010
0120
,
0000
0000
0000
0000
1030
0100
0010
0000
,
0001
1000
0010
0100
,
0001
0000
0010
0000
0100
0000
1000
0010
,
0000
1000
1000
1000
0000
0001
0001
0001
,
0000
0100
0100
0100
0000
0010
0010
0010
,
0000
1000
0000
0010
0000
1000
0100
0000
,
0010
0000
0001
0000
1000
0000
0001
0100
,
0000
0001
0000
0100
0000
0001
0010
0000
,
0100
0000
1000
0000
0000
0001
0100
0000
,
0001
0010
0000
0001
0000
1000
0200
0000
,
0010
0310
1100
0101
,
1000
0100
0000
1000
0000
0001
0020
0000
,
0100
0000
0130
0000
0100
0000
1000
0001
,
0000
0100
0000
0001
0000
0100
0010
0000
,
1000
0000
0100
0000
0010
0000
0100
1000
,
0000
0010
0000
1000
0000
0010
0100
0000
,
0001
0000
0010
0000
0000
0001
0010
0000
,
0001
0100
0000
0001
0000
1000
0020
0000
,
0100
0130
1010
0011
,
1000
0010
0000
1000
0000
0100
0010
0000
,
0110
0000
0000
0000
0100
1000
0001
0100
,
0000
0000
0010
0000
0000
0010
0000
0000
0000
0000
1000
0000
0000
0000
0001
0000
,
0000
0000
0100
0000
0000
0100
0000
0000
0000
0000
0001
0000
0000
0000
0010
0000
,
0000
0000
1000
0000
0000
1000
0000
0000
0000
0000
0010
0000
0000
0000
0100
0000
,
0000
0000
0001
0000
0000
0001
0000
0000
0000
0000
0100
0000
0100
0000
0010
0000
,
0000
0000
0001
0000
0000
0010
0000
0000
0000
0000
0001
0000
0000
0000
1000
0000
,
0000
0000
0100
0000
0000
1000
0000
0000
0000
0000
0010
0000
0000
0000
0100
0000
,
0000
0000
0001
0000
0000
0100
0000
0000
0000
0000
0010
0000
0000
0000
1000
0000
,
0000
0000
0100
0000
0000
0010
0000
0000
0000
0000
0001
0000
0100
0000
0100
0000
,
0000
0000
0010
0000
0000
1000
0000
0000
0100
0000
1000
0000
0000
0000
0010
0000
,
0000
0000
0100
0000
0000
0001
0000
0000
0010
0000
0001
0000
0000
0000
1000
0000
,
0000
0000
0100
0000
0000
0010
0000
0000
0100
0000
1000
0000
0000
0000
0001
0000
,
0000
0000
0010
0000
0000
0100
0000
0000
0010
0000
0001
0000
1000
0000
0100
0000
,
0000
0000
1000
0000
0000
0010
0000
0000
0001
0000
0010
0000
0000
0000
1000
0000
,
0000
0000
0001
0000
0000
0100
0000
0000
1000
0000
0100
0000
0000
0000
0010
0000
,
0000
0000
1000
0000
0000
0100
0000
0000
0010
0000
0001
0000
0000
0000
1000
0000
,
0000
0000
0001
0000
0000
1000
0000
0000
0010
0000
0100
0000
0100
0000
0100
0000
,
0000
0000
0000
0010
0010
0010
0010
0010
,
0000
0100
0000
0220
0000
0000
0000
0000
,
0000
0000
0000
0330
0000
0000
0000
0000
;

//---------------dance-single - ----------------
#NOTES:
     dance-single:
     :
     Challenge:
     15:
     0.746587,0.956940,0.390236,0.329023,0.604484,683.000000,632.000000,51.000000,43.000000,0.000000,0.000000,0.746587,0.956940,0.390236,0.329023,0.604484,683.000000,632.000000,51.000000,43.000000,0.000000,0.000000:
// measure 0
0000
0000
0000
0000
,  // measure 1
0000
0000
0000
0000
,  // measure 2
0000
0000
0000
0000
,  // measure 3
0000
0000
0000
0000
,  // measure 4
0000
0002
0000
0000
0000
0000
0000
0000
0000
0000
0000
0000
0000
0023
0000
0000
0000
0000
0000
0000
0000
0000
0000
0000
0000
0230
0000
0000
0000
0000
0000
0000
,  // measure 5
0000
0000
0300
0100
,  // measure 6
0200
0000
0000
2300
0000
0000
3100
0000
,  // measure 7
0200
0000
0000
0000
0000
0000
0310
0001
2000
0000
0000
0000
0000
0000
3001
0100
,  // measure 8
0020
0000
0000
0000
,  // measure 9
1030
0100
0010
0001
0010
0100
1000
0010
0100
0001
0010
0100
0010
0001
0100
0010
,  // measure 10
2000
0000
0000
0000
0000
0000
0000
0000
0000
0000
3100
0001
0000
0000
0010
0000
,  // measure 11
0002
0000
0000
0000
0000
0000
0000
0000
0000
0000
0103
0000
0000
1000
0000
0000
,  // measure 12
0000
0020
0000
0000
0000
0000
0000
0000
0000
0000
1030
0000
0000
0100
0000
0000
,  // measure 13
0010
0000
0000
1000
0000
0000
0001
0000
0100
0000
0000
1000
0000
0000
0010
0000
,  // measure 14
0200
0000
0000
0000
0000
0000
0000
0000
0000
0000
0310
0000
0000
0100
0000
0000
,  // measure 15
0020
0000
0000
0000
0000
0000
0130
0001
2000
0000
0000
0000
0000
0000
0000
0000
,  // measure 16
3010
0000
0100
0000
0001
0010
0100
0000
1000
0000
0001
0000
1000
0010
0100
0000
,  // measure 17
0001
0000
0010
0000
0100
1000
0010
0000
0100
0000
0010
0000
1000
0001
0100
0000
,  // measure 18
0010
1000
0100
1000
0010
0100
0010
1000
0100
1000
0010
0100
0001
0010
0001
0100
,  // measure 19
0010
0100
0001
0010
0100
1000
0010
0100
0020
0000
0000
0000
0000
0000
0000
0000
,  // measure 20
1030
0000
0100
0000
0010
0001
0010
0000
0100
0000
1000
0010
1000
0000
0100
0000
,  // measure 21
0010
0100
0010
0000
0001
0000
2000
0000
0000
0000
0001
0000
3001
0000
0100
0000
,  // measure 22
1000
0010
0100
0001
0010
0100
1000
0001
0100
0010
1000
0100
0010
0001
1000
0010
,  // measure 23
0100
0001
0010
0100
0010
0001
1000
0100
0020
0000
0000
0000
0000
0000
0000
0000
,  // measure 24
0030
0000
0000
0000
0000
0000
0000
0000
0001
1000
0001
0100
0001
0010
0100
0000
,  // measure 25
0000
0000
1000
0000
0010
0100
0000
0000
0001
0010
0001
0100
0010
1000
0001
0000
,  // measure 26
0000
0000
0010
0000
0100
1000
0000
0000
0010
0100
0001
0100
0010
1000
0100
0000
,  // measure 27
0000
0000
1000
0000
0001
0010
0000
0000
0001
1000
0100
1000
0010
0100
0001
0000
,  // measure 28
0000
0000
0010
0000
0001
0100
0000
0000
0010
1000
0001
0100
0010
0100
0010
0000
,  // measure 29
0000
0000
0100
0000
0010
1000
0000
0000
0001
0010
0100
0010
0001
1000
0100
0000
,  // measure 30
0000
0000
1000
0000
0010
0100
0000
0000
0001
1000
0100
0010
0100
1000
0010
0000
,  // measure 31
0000
0000
0100
0000
0001
1000
0000
0000
0100
0010
0100
1000
0010
0100
0001
0000
,  // measure 32
0000
0000
0011
0000
0000
1100
0000
0000
0101
0000
1010
0000
1001
0000
0001
0000
,  // measure 33
0100
0010
0100
1000
0100
0010
0100
0001
,  // measure 34
0010
0100
0010
1000
0010
0001
0010
0100
,  // measure 35
1000
0010
1000
0100
1000
0001
1000
0010
,  // measure 36
0100
0101
0011
0000
1100
0000
1001
0100
,  // measure 37
0010
1000
0010
0100
0010
0001
0010
0100
,  // measure 38
0001
0010
0001
1000
0001
0100
0001
0010
,  // measure 39
0100
1000
0100
0010
0100
0001
0100
0010
,  // measure 40
1000
1100
1010
0000
0101
0000
1001
1000
,  // measure 41
1100
0100
0110
0010
0011
0001
1001
1000
,  // measure 42
1010
0010
0110
0100
0101
1010
1001
0001
,  // measure 43
0011
0100
1100
0010
0110
1000
1001
0002
,  // measure 44
0000
1000
0010
0100
0013
1000
0100
0110
,  // measure 45
0001
1000
0010
0100
1000
0001
0100
0010
,  // measure 46
0001
1000
0010
0001
1000
0100
0001
0100
,  // measure 47
0000
0000
0010
1000
0100
1000
0010
0000
0000
0000
0100
0010
1000
0010
0100
0000
,  // measure 48
0000
0000
0001
0010
0100
0010
0001
0000
0000
0000
1000
0010
0100
0001
1000
0000
,  // measure 49
0010
1010
1000
1001
0001
0010
0002
0010
,  // measure 50
0023
0100
0230
1000
2300
3001
1000
0011
,  // measure 51
0001
0101
0100
0110
0010
0100
0020
0100
,  // measure 52
0230
0000
0001
0000
0302
0000
1003
0000
0010
0000
0100
0010
0100
0010
0100
0000
,  // measure 53
0010
0000
1000
0000
0001
0000
0010
0000
0001
0000
1000
0000
0200
0010
0000
0000
,  // measure 54
0320
0001
0000
0000
0032
1000
0000
0000
0103
0000
0000
0000
1010
0000
0010
0000
,  // measure 55
1000
0000
0100
0000
0010
0000
0100
0000
1000
0000
0001
0000
0020
0100
0000
0000
,  // measure 56
0230
0010
0000
0000
0320
0001
0000
0000
0130
0000
1000
0000
0001
1000
0001
0000
,  // measure 57
0100
0101
0001
1001
1000
0100
2000
0100
,  // measure 58
3200
0010
0320
0001
0032
1003
0001
1100
,  // measure 59
1000
1010
0010
0110
0100
0010
0200
0010
,  // measure 60
0320
0000
1000
0000
2030
0000
3001
0000
0100
0000
0010
0100
0010
0100
0010
0000
,  // measure 61
0100
0000
0001
0000
1000
0000
0100
0000
1000
0000
0001
0000
0020
0100
0000
0000
,  // measure 62
0230
1000
0000
0000
2300
0001
0000
0000
3010
0000
0000
0000
0101
0000
0100
0000
,  // measure 63
0001
1000
0010
0100
0010
1000
1001
0000
,  // measure 64
1001
0000
0000
0000
0000
0000
0000
0000
1000
0001
1000
0010
1000
0100
0010
0000
,  // measure 65
0000
0000
0001
0000
1000
0100
0000
0000
0010
0001
0010
0000
0100
0000
1000
0000
,  // measure 66
0000
0000
0010
0000
0100
0001
0000
0000
0100
0010
0100
0000
0010
0000
1000
0000
,  // measure 67
0000
0000
0001
0000
0010
0100
0000
0000
1000
0100
1000
0000
0001
0000
0010
0000
,  // measure 68
0000
0000
0100
0000
0010
0001
0000
0000
1000
0010
1000
0000
0100
0000
0100
0000
,  // measure 69
0000
0000
0010
0000
0001
0100
0000
0000
0010
1000
0100
0000
1000
0000
0010
0000
,  // measure 70
0000
0000
0100
0000
0001
0010
0000
0000
0100
1000
0010
0000
1000
0000
0001
0000
,  // measure 71
0000
0000
0010
0000
0100
1000
0000
0000
0010
0100
0001
0000
0010
0000
0100
0000
,  // measure 72
0000
0000
0010
0000
0001
1000
0000
0000
0100
0010
0001
0000
1000
0000
1001
0000
,  // measure 73
0000
0000
0001
0000
0010
0100
0000
0000
1000
0010
1000
0100
0010
0001
1000
0000
,  // measure 74
0000
0000
0010
0000
0100
0001
0000
0000
0010
0100
1000
0100
0010
0001
0100
0000
,  // measure 75
0000
0000
0001
0000
1000
0010
0000
0000
1000
0001
0100
0001
0010
0100
1000
0000
,  // measure 76
0000
0000
0010
0000
1000
0100
0000
0000
0010
0001
1000
0100
0010
0100
0010
0000
,  // measure 77
0000
0000
0100
0000
0010
0001
0000
0000
1000
0010
0100
0010
1000
0001
0100
0000
,  // measure 78
0000
0000
0001
0000
0010
0100
0000
0000
1000
0001
0100
0010
0100
0001
0010
0000
,  // measure 79
0000
0000
0100
0000
1000
0001
0000
0000
0100
0010
0100
0001
0010
0100
1000
0000
,  // measure 80
0000
0000
1010
0000
0000
0101
0000
0000
1100
0000
0011
0000
0110
0000
1001
0000
,  // measure 81
0000
0000
0000
0000
0000
0000
0100
0010
1000
0100
0010
0001
0100
0010
1010
0000
,  // measure 82
0000
0011
0000
2002
0000
0000
0000
0000
,  // measure 83
0000
0000
0000
3003
0000
0000
0000
0000
;
