#TITLE:Shera;
#SUBTITLE:;
#ARTIST:MYUKKE.;
#TITLETRANSLIT:;
#SUBTITLETRANSLIT:;
#ARTISTTRANSLIT:;
#GENRE:;
#CREDIT:;
#BANNER:Shera.png;
#BACKGROUND:Shera-bg.png;
#LYRICSPATH:;
#CDTITLE:cdtitle.png;
#MUSIC:Shera.ogg;
#OFFSET:-0.037000;
#SAMPLESTART:65.637001;
#SAMPLELENGTH:15.000000;
#SELECTABLE:YES;
#BPMS:0.000000=150.000000
;
#STOPS:
;
#BGCHANGES:;
#KEYSOUNDS:;
#ATTACKS:;

//---------------dance-single - ----------------
#NOTES:
     dance-single:
     :
     Beginner:
     4:
     0.168721,0.242032,0.049904,0.108124,0.000000,142.000000,136.000000,6.000000,13.000000,0.000000,0.000000,0.168721,0.242032,0.049904,0.108124,0.000000,142.000000,136.000000,6.000000,13.000000,0.000000,0.000000:
// measure 0
0000
0000
0000
0000
,  // measure 1
0000
0000
0000
0000
,  // measure 2
0000
0000
0000
0000
,  // measure 3
0000
0000
0000
0000
,  // measure 4
0000
0000
0000
0000
,  // measure 5
2000
0000
0000
0000
,  // measure 6
3000
0000
0000
0000
,  // measure 7
0002
0000
0000
0000
,  // measure 8
0003
0000
0000
0000
,  // measure 9
1000
0000
1000
0000
,  // measure 10
0010
0000
0000
0000
,  // measure 11
0001
0000
0001
0000
,  // measure 12
0010
0000
0000
0000
,  // measure 13
1000
0000
0001
0000
,  // measure 14
0100
0010
0100
0010
,  // measure 15
0200
0000
0000
0300
,  // measure 16
2002
0000
0000
3003
,  // measure 17
2000
0000
3000
0000
,  // measure 18
0002
0000
0003
0000
,  // measure 19
0200
0000
0300
0000
,  // measure 20
0010
0000
0100
0000
,  // measure 21
0002
0000
0003
0000
,  // measure 22
2000
0000
3000
0000
,  // measure 23
0200
0000
0300
0000
,  // measure 24
0010
0000
0100
0000
,  // measure 25
2000
0000
3000
0000
,  // measure 26
0010
0000
1000
1000
,  // measure 27
1000
0000
0001
0000
,  // measure 28
0000
1001
0000
0000
,  // measure 29
1001
0000
0001
0001
,  // measure 30
0001
0000
1000
1000
,  // measure 31
1000
0000
0010
0010
,  // measure 32
0010
0000
0100
0000
,  // measure 33
0001
0000
0001
0000
,  // measure 34
0001
0000
0000
0000
,  // measure 35
1000
0000
1000
0000
,  // measure 36
1000
0000
0000
0000
,  // measure 37
0001
1000
0001
0000
,  // measure 38
1000
0001
1000
0000
,  // measure 39
0010
0100
0010
0100
,  // measure 40
0020
0000
0030
0000
,  // measure 41
1000
0100
0010
0000
,  // measure 42
0001
0100
0010
0000
,  // measure 43
1000
0000
0001
0000
,  // measure 44
0010
0100
0010
0001
,  // measure 45
1000
0000
0000
1000
,  // measure 46
0000
0000
1000
0000
,  // measure 47
0001
0000
0100
0000
,  // measure 48
0010
0000
1000
0000
,  // measure 49
0001
0010
0100
0000
,  // measure 50
1000
0010
0100
0000
,  // measure 51
0001
0000
1000
0000
,  // measure 52
0100
0000
0010
0000
,  // measure 53
1001
0000
0000
0110
,  // measure 54
0000
0000
1001
0000
,  // measure 55
1000
0000
0010
0000
,  // measure 56
0100
0000
0001
0000
,  // measure 57
1000
0000
1000
0000
,  // measure 58
0001
0000
0001
0000
,  // measure 59
0100
0000
0100
0000
,  // measure 60
0010
0000
0010
0000
,  // measure 61
1000
1000
1000
0000
,  // measure 62
0001
0001
0001
0000
,  // measure 63
1000
0000
0001
0000
,  // measure 64
0100
0010
0100
0000
,  // measure 65
0001
0000
0001
0000
,  // measure 66
0001
0000
0001
0010
,  // measure 67
0100
0000
0100
0000
,  // measure 68
0100
0000
0100
1000
,  // measure 69
0010
0000
0010
0000
,  // measure 70
0010
0000
0010
0100
,  // measure 71
0001
0000
0001
0000
,  // measure 72
0001
0000
0001
1000
;

//---------------dance-single - ----------------
#NOTES:
     dance-single:
     :
     Hard:
     14:
     0.616665,0.727344,0.091490,0.615477,0.370118,519.000000,508.000000,11.000000,74.000000,0.000000,0.000000,0.616665,0.727344,0.091490,0.615477,0.370118,519.000000,508.000000,11.000000,74.000000,0.000000,0.000000:
// measure 0
0000
0000
0000
0000
,  // measure 1
0000
0000
0000
0000
,  // measure 2
0000
0000
0000
0000
,  // measure 3
0000
0000
0000
0000
,  // measure 4
0000
0000
0000
0000
,  // measure 5
0002
0000
2003
0000
,  // measure 6
3020
0000
0000
0000
0230
0000
0010
0010
,  // measure 7
0320
0000
2030
0000
,  // measure 8
3002
0000
0000
0000
0203
0000
0001
0001
,  // measure 9
0301
0010
0100
1000
0100
0010
0001
1000
,  // measure 10
0010
0000
0100
0000
0001
0000
0100
0000
0010
0000
1000
0100
1000
0000
0001
0010
,  // measure 11
0001
1000
0100
0010
0001
0010
0100
1000
,  // measure 12
0001
0000
0100
0000
0010
0000
1000
0000
0010
0000
0100
0000
0001
0000
0010
0100
,  // measure 13
0010
0010
0001
0001
1000
1000
0100
0100
,  // measure 14
1000
0010
1000
0000
0010
0100
0010
0000
0100
0001
0100
0000
0001
1000
0001
0000
,  // measure 15
0220
0000
0000
0330
,  // measure 16
2002
0000
0000
0000
0000
0000
0000
0000
0000
0000
0000
0000
3003
0000
1000
0010
,  // measure 17
0200
0000
0000
0000
0000
0000
0301
0010
0001
0000
1000
0000
0100
0000
0020
0000
,  // measure 18
0000
0000
0001
0000
0230
1000
1300
0002
,  // measure 19
0000
0000
0000
0000
0100
0103
0020
2030
,  // measure 20
3200
0000
0000
0000
0000
0000
0310
0100
0020
0000
0000
0000
1000
0000
0000
0000
,  // measure 21
0032
0000
0000
0203
0320
2030
3002
0023
,  // measure 22
0000
0000
0100
0000
0032
1000
1003
0200
,  // measure 23
0000
0000
0000
0010
0010
0320
0032
0203
,  // measure 24
0320
0000
0000
0000
1000
0000
1000
0000
2030
0000
0000
0001
0000
0000
0001
0000
,  // measure 25
3002
0000
0000
0100
0103
0001
0010
0200
,  // measure 26
0000
0000
0000
0000
0000
0000
1000
0000
1300
0001
1000
0001
1000
0000
0020
0000
,  // measure 27
0000
0000
0100
0000
2030
0100
0100
3100
,  // measure 28
0010
0000
0021
0000
0130
1200
0000
0310
,  // measure 29
0120
0000
0000
0000
0001
0000
0001
0000
0031
1000
0001
1000
0001
0000
0200
0000
,  // measure 30
0000
0000
0010
0010
0320
2030
3200
0320
,  // measure 31
0000
0000
0001
0001
0032
0000
2003
3020
,  // measure 32
0230
0000
0000
0000
0000
0000
0301
0100
0002
0000
0000
1000
0000
0000
1000
0000
,  // measure 33
1003
0100
1100
0000
0001
0010
0011
0000
,  // measure 34
0100
0001
0101
0000
0010
1000
1000
1000
,  // measure 35
0001
0001
0011
0000
1000
1000
1100
0000
,  // measure 36
0010
0010
0110
0000
1000
0001
0000
0001
,  // measure 37
1000
0000
0000
1000
0100
0000
0000
0100
0010
0000
0000
0010
1000
0000
0000
1000
,  // measure 38
0001
0000
0000
0001
0100
0000
0000
0100
0010
0000
0000
0010
0001
0000
0000
0001
,  // measure 39
1000
0100
1000
0000
0001
0010
0001
0000
0100
0010
0100
0010
0100
0010
0100
0010
,  // measure 40
0200
0000
0320
0000
,  // measure 41
1030
0000
0100
0000
0010
0000
0001
0000
0100
0000
0010
0000
1000
0001
1000
0000
,  // measure 42
0100
0000
0010
0000
1000
0000
0001
0000
0100
0010
0100
0000
1000
0000
0002
0000
,  // measure 43
0103
0000
0010
0000
0001
0000
1000
0000
0100
0000
0001
2000
0000
3001
1000
0000
,  // measure 44
0100
0000
0010
0001
0010
0001
0000
0100
0010
0000
1000
0001
0020
0000
0230
0000
,  // measure 45
1300
0000
0010
0100
0010
0000
0001
0000
0010
0100
0010
0000
1000
0000
0100
0010
,  // measure 46
0100
0000
0001
0000
0100
0010
0100
0000
1000
0000
0010
0000
0100
0001
0010
0000
,  // measure 47
0100
1000
0010
0100
1000
0100
0010
0001
,  // measure 48
0010
0100
0001
0010
0002
0000
2003
0000
,  // measure 49
3100
0000
0010
0000
0001
0000
0100
0000
0010
0000
1000
0000
0100
0010
0100
0000
,  // measure 50
0001
0000
1000
0000
0010
0000
0100
0000
1000
0001
1000
0000
0010
0000
0200
0000
,  // measure 51
1300
0000
0001
0000
0010
0000
0100
0000
0001
0000
0010
0200
0000
0310
0100
0000
,  // measure 52
2000
3010
0020
0130
0200
0301
0002
1003
,  // measure 53
1000
0100
0000
0010
0001
0000
0100
0000
0100
0010
0100
0000
0001
0100
0000
0010
,  // measure 54
1000
0000
0100
0000
0100
0010
0100
0000
1000
0100
0000
0010
0001
0000
0100
0000
,  // measure 55
0010
0100
0001
0010
0100
1000
0100
0010
,  // measure 56
0001
1000
0010
0100
0020
0000
0000
0000
,  // measure 57
2030
0000
3001
0100
0000
0001
0010
0000
0100
1000
0000
0010
1000
0000
0001
0000
,  // measure 58
0020
0000
0130
1000
0000
0010
0100
0000
0010
1000
0000
0100
0010
0000
0001
0000
,  // measure 59
0200
0000
0310
1000
0000
0100
1000
0000
0010
0100
0000
0001
0010
0000
0100
0000
,  // measure 60
0020
0000
0031
0100
0000
0010
1000
0000
0001
0010
0000
0100
0010
0000
0001
0000
,  // measure 61
2000
0000
3001
0100
0000
0100
0010
0000
0010
1000
0000
1000
0100
0000
0010
0000
,  // measure 62
0002
0000
1003
0100
0000
0100
0010
0000
0010
0001
0000
0001
0100
0000
0010
0000
,  // measure 63
2000
0000
3100
0000
0010
0100
0010
0000
0002
0000
0103
0000
0010
0100
0010
0000
,  // measure 64
1000
0001
1000
0001
1000
0001
1000
0001
2000
0000
0000
0000
0000
0000
0000
0000
,  // measure 65
3001
0010
0100
0010
0001
0010
0100
1000
,  // measure 66
0010
0000
0100
0000
0001
0000
0100
0000
0010
0000
0100
0000
0001
0000
0010
0100
,  // measure 67
1000
0010
0100
0010
1000
0010
0100
0001
,  // measure 68
0010
0000
0100
0000
1000
0000
0100
0000
0010
0000
0100
0000
1000
0000
0001
0100
,  // measure 69
0010
1000
0100
1000
0010
1000
0100
0010
,  // measure 70
0001
0000
0100
0000
0010
0000
0100
0000
0001
0000
0100
0000
0010
0000
1000
0100
,  // measure 71
0010
0001
0100
0001
0010
0001
0100
0010
,  // measure 72
1000
0100
0010
0100
1000
0100
0010
0001
;

//---------------dance-single - ----------------
#NOTES:
     dance-single:
     :
     Challenge:
     17:
     0.816279,1.030404,0.224566,0.598842,0.927374,687.000000,660.000000,27.000000,72.000000,0.000000,0.000000,0.816279,1.030404,0.224566,0.598842,0.927374,687.000000,660.000000,27.000000,72.000000,0.000000,0.000000:
// measure 0
0000
0000
0000
0000
,  // measure 1
0000
0000
0000
0000
,  // measure 2
0000
0000
0000
0000
,  // measure 3
0000
0000
0000
0000
,  // measure 4
0000
0000
0000
0000
,  // measure 5
2000
0000
0002
3000
,  // measure 6
0200
0000
0003
0000
0320
0000
0100
0100
,  // measure 7
0200
0030
0002
0300
,  // measure 8
2000
0000
0000
0000
0003
0000
0000
0000
3020
0000
0000
0000
1000
0000
1030
0010
,  // measure 9
1000
0100
0010
0001
0100
1000
0001
0010
,  // measure 10
1000
0000
0001
0000
0010
0000
1000
0000
0010
0000
0001
0100
0010
0000
1000
0100
,  // measure 11
0010
0001
1000
0010
0001
1000
0100
0001
,  // measure 12
1000
0000
0100
0000
0001
0000
0100
0000
1000
0000
0010
0000
0100
0000
0010
1000
,  // measure 13
0001
0001
0100
0100
0010
0010
1000
1000
,  // measure 14
0001
0010
0100
0001
0100
0010
0100
1000
0010
0100
1000
0100
0010
0100
0001
1000
,  // measure 15
0020
0000
0000
0030
,  // measure 16
2002
0000
0000
0000
0000
0000
0000
0000
0000
0000
0000
0000
3003
0000
1000
0100
,  // measure 17
0020
0000
0000
0000
0000
0000
0031
0100
0101
0000
0001
0000
1000
0000
0200
0000
,  // measure 18
0000
0000
0000
0000
0010
0000
0000
0300
2100
0000
0001
0000
3001
0000
0020
0000
,  // measure 19
0000
0000
0000
0000
0000
0000
0000
0030
0110
0000
0100
0000
2000
0000
3020
0000
,  // measure 20
0230
0000
0000
0000
0000
0000
0310
1000
1020
0000
0000
0000
0001
0000
0000
0000
,  // measure 21
0230
0000
0000
2300
3002
0023
0230
0302
,  // measure 22
0000
0000
0000
0003
0011
0000
0000
0000
0020
0000
0100
0000
0130
0000
2000
0000
,  // measure 23
0000
0000
0000
3001
0101
0200
0320
2030
,  // measure 24
3002
0000
0000
0000
0013
0000
0100
0000
1100
0000
0000
0011
0000
0000
1001
0000
,  // measure 25
2000
0000
0010
3010
1010
1000
0001
0020
,  // measure 26
0000
0000
0000
0000
0000
0000
0130
0000
1000
0010
0100
0001
1000
0000
0200
0000
,  // measure 27
0000
0000
0000
0300
0110
0000
0000
0000
0010
0000
0011
0000
0001
0000
0100
0000
,  // measure 28
0010
0000
1020
0000
0130
0201
0000
0301
,  // measure 29
1002
0000
0000
0003
0011
0000
0010
0000
0001
0100
0010
1000
0001
0000
0020
0000
,  // measure 30
0000
0000
0000
0030
0110
0000
0100
0000
2000
0000
3020
0000
0230
0000
0302
0000
,  // measure 31
0000
0000
0000
0003
1001
0000
1000
0000
0200
0000
0000
0000
0302
0000
2003
0000
,  // measure 32
3020
0000
0000
0000
0000
0030
0100
1000
1001
0000
0000
0101
0000
0000
1010
0000
,  // measure 33
0001
0010
0001
0010
0001
0000
0000
0000
1000
0100
1000
0100
1000
0000
0000
0000
,  // measure 34
0010
1000
0010
1000
0010
0000
0000
0000
0100
0000
0101
0000
1001
0000
1010
0000
,  // measure 35
0001
0010
0001
0010
0001
0000
0100
0000
0010
1000
0010
1000
0010
0000
1000
0000
,  // measure 36
0100
0010
0100
0010
0100
0000
1000
0000
0001
0000
0011
0000
0000
0000
1100
0000
,  // measure 37
1000
0000
1000
0010
0100
0000
0100
0001
0010
0000
0010
0100
1000
0000
0010
0100
,  // measure 38
0001
0000
0001
0010
0100
0000
0100
1000
0010
0000
0010
0100
0001
0000
0010
0100
,  // measure 39
1000
0010
0100
0001
1000
0100
0010
0001
0100
0010
0100
0010
0100
0010
0100
0010
,  // measure 40
2000
0000
0000
0000
0002
0000
0000
3003
,  // measure 41
0001
0000
0010
0000
0100
0000
1000
0000
0001
0000
0100
0000
0010
0000
1000
0000
0100
0000
0010
0000
0100
0000
1000
0000
0001
1000
0000
0000
0100
0000
0010
0000
,  // measure 42
0001
0000
1000
0000
0010
0000
0100
0000
0001
0000
1000
0000
0100
0000
0010
0000
0001
1000
0001
0000
0010
0000
0100
0000
0010
0000
0001
0000
2000
0000
0000
0000
,  // measure 43
3010
0100
0001
1000
0100
0010
0001
0010
0100
1000
0001
0200
0000
0310
1000
0010
,  // measure 44
0100
0000
0001
0000
1000
0001
1000
0000
0100
0000
0010
0000
0010
0000
0100
0000
0100
0000
1000
0000
0001
0000
0010
0001
0020
0000
0000
0000
0230
0000
0000
0000
,  // measure 45
1300
0001
0100
0100
0010
0100
1000
0001
0100
0100
0010
0100
1000
0001
0100
0100
,  // measure 46
0010
0000
0100
0000
1000
0000
0001
0000
0100
0000
0100
0000
0010
0000
0100
0000
1000
0000
0001
0000
0100
0000
0010
0000
0100
0010
0100
0000
0001
0000
1000
0000
,  // measure 47
0100
0010
0001
1000
0010
0100
0001
0010
0100
1000
0001
1000
0100
0010
0001
0100
,  // measure 48
0010
1000
0001
0010
0001
1000
0100
1000
0002
0000
0203
0000
0320
0000
2030
0000
,  // measure 49
3100
0000
0010
0000
0001
0000
1000
0000
0010
0000
0100
0000
0001
0000
0100
0000
0010
0000
1000
0000
0001
0000
0010
0000
0100
0010
0000
0000
0001
0000
0100
0000
,  // measure 50
0010
0000
1000
0000
0001
0000
0010
0000
0100
0000
1000
0000
0001
0000
0100
0000
0010
0100
0010
0000
1000
0000
0010
0000
0100
0000
0001
0000
0020
0000
0000
0000
,  // measure 51
0031
1000
0010
0100
0001
0010
0100
1000
0001
0100
0010
2000
0000
3100
0010
0001
,  // measure 52
0200
0000
0310
1000
0002
0000
0013
0100
2000
0000
3001
0100
0020
0000
0032
0000
,  // measure 53
1003
0100
0000
0010
0001
0000
1000
0100
0001
0010
1000
0000
0001
0100
0000
0010
,  // measure 54
1000
0000
0001
0100
1000
0010
0001
0000
1000
0100
0000
0010
0001
0000
1000
0000
,  // measure 55
0100
0010
1000
0001
0010
0100
1000
0001
0100
0010
1000
0010
0100
0001
1000
0100
,  // measure 56
0010
0001
1000
0010
0100
0001
0010
0100
0020
0000
0000
0000
0000
0000
0000
0000
,  // measure 57
0032
0000
0103
0010
0100
1000
0100
0010
0100
0010
0001
0010
0100
0001
0010
0100
,  // measure 58
2000
0000
3100
0010
0100
0001
0100
0010
0100
0010
1000
0010
0100
1000
0001
0100
,  // measure 59
0020
0000
1030
0001
1000
0100
1000
0001
1000
0001
0100
0001
0010
0100
1000
0010
,  // measure 60
0200
0000
0301
1000
0001
0010
0001
1000
0001
1000
0010
1000
0100
0010
0001
0100
,  // measure 61
0020
0000
0100
0001
0000
0001
0100
0000
0100
0001
0000
0001
0100
0000
0130
0001
,  // measure 62
0020
0000
0100
1000
0000
1000
0100
0000
0100
1000
0000
1000
0100
0000
0130
1000
,  // measure 63
0002
0000
1003
0010
1000
0100
0010
0001
2000
0000
3001
0010
0001
0100
0010
1000
,  // measure 64
0100
0010
0100
0001
0100
0010
0100
1000
0010
0100
0010
0100
0001
0010
0100
1000
,  // measure 65
0001
0100
0010
0100
0001
0100
0010
1000
,  // measure 66
0100
0000
0010
0000
0001
0000
0010
0000
0100
0000
0010
0000
0001
0000
0100
0010
,  // measure 67
1000
0100
0010
0100
1000
0100
0010
0001
,  // measure 68
0100
0000
0010
0000
1000
0000
0010
0000
0100
0000
0010
0000
1000
0000
0001
0010
,  // measure 69
0100
1000
0010
1000
0100
1000
0010
0100
,  // measure 70
0001
0000
0010
0000
1000
0000
0010
0000
0001
0000
0010
0000
1000
0000
0001
0100
,  // measure 71
0010
0001
0100
0001
0010
0001
0100
0010
,  // measure 72
1000
0100
0001
0100
1000
0100
0001
1000
;

//---------------dance-single - ----------------
#NOTES:
     dance-single:
     :
     Easy:
     8:
     0.319620,0.393978,0.066538,0.349325,0.000000,269.000000,261.000000,8.000000,42.000000,0.000000,0.000000,0.319620,0.393978,0.066538,0.349325,0.000000,269.000000,261.000000,8.000000,42.000000,0.000000,0.000000:
// measure 0
0000
0000
0000
0000
,  // measure 1
0000
0000
0000
0000
,  // measure 2
0000
0000
0000
0000
,  // measure 3
0000
0000
0000
0000
,  // measure 4
0000
0000
0000
0000
,  // measure 5
0002
0000
0000
0000
,  // measure 6
2003
0000
0000
0000
,  // measure 7
3020
0000
0000
0000
,  // measure 8
0230
0000
0000
0000
,  // measure 9
0301
0010
0100
0010
,  // measure 10
0001
0100
0010
1000
,  // measure 11
0100
0010
0100
1000
,  // measure 12
0010
0100
0001
1000
,  // measure 13
0100
0100
0010
0010
,  // measure 14
0001
1000
0001
0000
1000
0001
1000
0000
,  // measure 15
0220
0000
0000
0330
,  // measure 16
2002
0000
0000
3003
,  // measure 17
0002
0000
0000
0000
1003
0000
0000
2000
,  // measure 18
0000
0000
0000
0000
3010
0000
0000
0200
,  // measure 19
0000
0000
0000
0000
0301
0000
0010
0001
,  // measure 20
0020
0000
0230
0000
,  // measure 21
2300
0000
0000
3001
0100
0001
0100
0002
,  // measure 22
0000
0000
0000
0000
0013
0000
0000
0200
,  // measure 23
0000
0000
0000
0000
0000
1300
0010
1000
,  // measure 24
0020
0000
0230
0000
,  // measure 25
0302
0000
0000
0000
0013
0000
0000
0020
,  // measure 26
0000
0000
0000
0000
0130
1000
0100
2000
,  // measure 27
0000
0000
3002
0000
,  // measure 28
1003
0000
0010
0000
0000
0010
0000
0000
,  // measure 29
0020
0000
0000
0000
0130
0001
0100
0002
,  // measure 30
0000
0000
0000
0000
1003
0010
1000
0020
,  // measure 31
0000
0000
0000
0000
0130
0000
0001
0010
,  // measure 32
0002
0000
2003
0000
,  // measure 33
3001
0001
0001
0001
,  // measure 34
1000
0000
1000
0000
1000
0001
1000
0001
,  // measure 35
0010
0010
0010
0010
,  // measure 36
0100
0000
0100
0000
0100
0010
0000
0010
,  // measure 37
0001
0100
0010
1000
,  // measure 38
0001
0010
0100
1000
,  // measure 39
0001
1000
0001
0000
0100
0010
0100
0010
,  // measure 40
0200
0000
0320
0000
,  // measure 41
1030
0000
0100
0000
0010
0001
0010
0000
,  // measure 42
0001
0000
0100
0000
0010
1000
0010
0000
,  // measure 43
0100
0000
0001
0000
0010
0100
0010
0000
,  // measure 44
0001
0010
0001
0010
0100
1000
0100
0000
,  // measure 45
1000
0000
0010
1000
0000
0010
1000
0000
,  // measure 46
0001
0100
0000
0001
0100
0000
0001
0000
,  // measure 47
1000
0100
0010
0001
,  // measure 48
0010
0100
2000
3002
,  // measure 49
0103
0000
0010
0000
1000
0100
1000
0000
,  // measure 50
0100
0000
0010
0000
0001
0010
0001
0000
,  // measure 51
1000
0000
0010
0000
0100
0001
0100
0000
,  // measure 52
0002
0023
0230
1300
,  // measure 53
1010
0000
0000
0101
0000
0000
0011
0000
,  // measure 54
0000
1100
0000
0000
0110
0000
1001
0000
,  // measure 55
0001
0100
0010
1000
,  // measure 56
0010
0100
0020
0000
,  // measure 57
2030
0000
3001
0000
0010
0100
0010
0000
,  // measure 58
0002
0000
1003
0000
0010
0100
0010
0000
,  // measure 59
0200
0000
0301
0000
1000
0100
1000
0000
,  // measure 60
0020
0000
0130
0000
0001
0010
0001
0000
,  // measure 61
0200
0001
0010
1000
,  // measure 62
0320
0100
0001
0100
,  // measure 63
1030
1000
0001
0001
,  // measure 64
0100
0010
0100
0010
0200
0000
0000
0000
,  // measure 65
0301
0010
0001
0100
,  // measure 66
0010
0000
1000
0000
0100
0000
1000
0001
,  // measure 67
1000
0010
1000
0100
,  // measure 68
0010
0000
0001
0000
0100
0000
0001
1000
,  // measure 69
0100
0010
0100
1000
,  // measure 70
0001
0000
0100
0000
0001
0000
0010
0100
,  // measure 71
0010
0100
0010
0001
,  // measure 72
1000
0000
0010
0000
1000
0000
0100
0010
;

//---------------dance-single - ----------------
#NOTES:
     dance-single:
     :
     Medium:
     11:
     0.459825,0.545508,0.074855,0.449132,0.008317,387.000000,378.000000,9.000000,54.000000,0.000000,0.000000,0.459825,0.545508,0.074855,0.449132,0.008317,387.000000,378.000000,9.000000,54.000000,0.000000,0.000000:
// measure 0
0000
0000
0000
0000
,  // measure 1
0000
0000
0000
0000
,  // measure 2
0000
0000
0000
0000
,  // measure 3
0000
0000
0000
0000
,  // measure 4
0000
0000
0000
0000
,  // measure 5
2000
0000
3002
0000
,  // measure 6
0203
0000
0320
0000
,  // measure 7
0230
0000
0302
0000
,  // measure 8
2003
0000
3020
0000
,  // measure 9
1030
0100
0001
0100
,  // measure 10
1000
0000
0010
0000
0100
0001
0010
0100
,  // measure 11
1000
0001
0100
1000
,  // measure 12
0100
0000
0001
0000
0010
0000
0100
1000
,  // measure 13
0001
0100
0001
0000
1000
0010
1000
0000
,  // measure 14
0100
1000
0100
1000
0001
0010
0001
0010
,  // measure 15
0200
0000
0000
0300
,  // measure 16
2002
0000
0000
0000
0000
0000
3003
0001
,  // measure 17
0020
0000
0000
0000
0031
0100
0001
2000
,  // measure 18
0000
0000
0010
0000
3200
1000
0000
0320
,  // measure 19
0000
0000
0000
0000
0130
1000
0010
0100
,  // measure 20
0002
0000
0000
1000
2003
0000
0100
0000
,  // measure 21
3020
0000
0000
0130
0001
0010
0100
2000
,  // measure 22
0000
0000
0010
0000
3002
1000
0000
0023
,  // measure 23
0000
0000
0000
0000
0130
1000
0010
1000
,  // measure 24
0002
0000
0000
0000
0000
0000
0000
0000
1003
0000
0000
1000
0000
0000
1000
0000
,  // measure 25
0020
0000
0000
0000
1030
0001
1000
0200
,  // measure 26
0000
0000
0000
0000
1300
0010
0100
0002
,  // measure 27
0000
0010
2003
0100
,  // measure 28
3001
0000
0011
0000
0000
1100
0000
0000
,  // measure 29
2001
0000
0100
0000
3001
0010
0100
2000
,  // measure 30
0000
0000
0010
0000
3001
0100
0001
0020
,  // measure 31
0000
0000
0100
0000
0032
0000
1003
0010
,  // measure 32
2000
0000
0000
0000
0000
0000
0000
0000
3001
0000
0000
0001
0000
0000
0001
0000
,  // measure 33
1000
0100
1000
0000
0001
0010
0001
0000
,  // measure 34
0100
0001
0100
0000
0010
1000
1000
1000
,  // measure 35
0001
0010
0100
0000
1000
0010
0100
0000
,  // measure 36
0010
1000
0001
0000
0100
0001
0000
0001
,  // measure 37
1000
0100
1000
0010
1000
0100
0010
0001
,  // measure 38
0100
0001
0010
0001
1000
0010
0001
0010
,  // measure 39
1000
1000
0100
0100
0010
0010
0001
0001
,  // measure 40
0200
0000
0320
0000
,  // measure 41
1030
0100
0010
0001
0100
0001
2000
0000
,  // measure 42
3001
0010
0100
1000
0010
1000
0002
0000
,  // measure 43
0013
0100
1000
0010
0100
0001
0100
0010
,  // measure 44
1000
0001
0010
1000
0010
0001
0200
0000
,  // measure 45
0310
1000
1000
0100
0010
0010
0001
0100
,  // measure 46
0100
0010
1000
1000
0001
0010
0001
1000
,  // measure 47
0010
0100
0001
1000
0100
0010
0100
1000
,  // measure 48
0001
0100
0010
0100
0002
0000
2003
0000
,  // measure 49
3010
0100
0001
0010
0100
1000
0020
0000
,  // measure 50
0130
0010
1000
0100
0010
0001
0200
0000
,  // measure 51
0301
1000
0010
0100
0001
0010
0100
0010
,  // measure 52
0002
0203
0320
2030
,  // measure 53
3001
0000
0011
0010
0000
1100
0100
0000
,  // measure 54
1010
1000
0000
0101
0001
0000
1001
1000
,  // measure 55
0100
0010
0001
1000
0010
0100
0010
1000
,  // measure 56
0001
0010
0100
0010
0200
0000
0000
0000
,  // measure 57
2300
0000
3010
0100
0010
0001
0010
0100
,  // measure 58
0002
0000
0013
0100
0010
1000
0010
0100
,  // measure 59
0020
0000
0031
0100
0001
1000
0001
0010
,  // measure 60
0200
0000
1300
0010
1000
0001
1000
0100
,  // measure 61
2000
0000
0001
0001
0001
0010
0010
0010
,  // measure 62
3002
0000
1000
1000
1000
0010
0010
0010
,  // measure 63
2003
0000
3001
0100
0002
0000
1003
0100
,  // measure 64
0010
0010
0100
0100
0020
0000
0000
0000
,  // measure 65
0031
0100
0010
0000
1000
0100
0010
0000
,  // measure 66
0100
1000
0010
0000
0100
0001
0010
0100
,  // measure 67
1000
0001
0100
0000
0001
1000
0100
0000
,  // measure 68
0010
0001
1000
0000
0010
1000
0001
0010
,  // measure 69
0100
1000
0010
0000
0100
0001
0010
0000
,  // measure 70
0001
0100
0010
0000
1000
0100
0010
0001
,  // measure 71
0100
0010
1000
0000
0100
0010
0001
0000
,  // measure 72
1000
0001
0010
0000
0001
1000
0010
0100
;
