#TITLE:世界の果てに約束の凱歌を;
#SUBTITLE:(STARDOM Remix);
#ARTIST:BEMANI Sound Team "JYUNN";
#TITLETRANSLIT:Sekai no hate ni yakusoku no gaika wo;
#SUBTITLETRANSLIT:;
#ARTISTTRANSLIT:;
#GENRE:;
#CREDIT:;
#BANNER:Sekai no hate ni yakusoku no gaika wo (STARDOM Remix).png;
#BACKGROUND:Sekai no hate ni yakusoku no gaika wo (STARDOM Remix)-bg.png;
#LYRICSPATH:;
#CDTITLE:cdtitle.png;
#MUSIC:Sekai no hate ni yakusoku no gaika wo (STARDOM Remix).ogg;
#OFFSET:-0.043000;
#SAMPLESTART:74.587997;
#SAMPLELENGTH:15.000000;
#SELECTABLE:YES;
#BPMS:0.000000=132.000000
;
#STOPS:
;
#BGCHANGES:;
#KEYSOUNDS:;
#ATTACKS:;

//---------------dance-single - ----------------
#NOTES:
     dance-single:
     :
     Beginner:
     3:
     0.153050,0.229001,0.080351,0.000000,0.000000,120.000000,111.000000,9.000000,0.000000,0.000000,0.000000,0.153050,0.229001,0.080351,0.000000,0.000000,120.000000,111.000000,9.000000,0.000000,0.000000,0.000000:
0000
0000
0000
0000
,
0000
0000
0000
0000
,
0000
0000
0000
0000
,
0000
0000
0000
0000
,
0000
0000
0000
0000
,
1000
0000
0000
0000
,
0001
0000
0000
0000
,
1000
0000
0000
0000
,
0001
0000
0000
0000
,
1000
0000
1000
0000
,
0010
0000
0010
0000
,
0100
0000
0100
0000
,
0001
0000
0001
0000
,
1001
0000
1001
0000
,
0110
0000
0110
0000
,
0010
0010
0010
0010
,
0000
0000
0000
0000
,
1000
0000
1000
0000
,
0001
0010
0001
0000
,
0100
0000
0100
0000
,
0010
1000
0010
0000
,
0001
0000
0001
0000
,
1000
0010
1000
0000
,
0100
0000
0100
0000
,
0010
0000
0000
0000
,
0001
0000
0001
0100
,
0010
0000
0010
0000
,
1000
0000
1000
0100
,
0010
0000
0010
0000
,
0100
0000
0100
1000
,
0001
0000
0001
0000
,
0010
0000
0010
0001
,
1000
0000
0000
0000
,
0001
0000
0001
0000
,
0100
0000
0100
0000
,
0010
0000
0010
0000
,
1000
0000
1000
0000
,
1001
0000
1001
0000
,
0110
0000
0110
0000
,
0100
0100
0100
0100
,
0000
0000
0000
0000
,
0001
0000
0001
0000
,
1000
0100
1000
0000
,
0010
0000
0010
0000
,
0100
0001
0100
0000
,
1000
0000
1000
0000
,
0001
0100
0001
0000
,
0010
0000
0010
0000
,
0100
0000
0000
0000
,
1000
0000
1000
0010
,
0100
0000
0100
0000
,
0001
0000
0001
0010
,
0100
0000
0100
0000
,
0010
0000
0010
0001
,
1000
0000
1000
0000
,
0100
0000
0100
1000
,
0001
0000
0000
0000
,
1001
0000
0000
0000
;

//---------------dance-single - ----------------
#NOTES:
     dance-single:
     :
     Easy:
     7:
     0.276766,0.381669,0.232126,0.124991,0.000000,217.000000,191.000000,26.000000,14.000000,0.000000,0.000000,0.276766,0.381669,0.232126,0.124991,0.000000,217.000000,191.000000,26.000000,14.000000,0.000000,0.000000:
0000
0000
0000
0000
,
0000
0000
0000
0000
,
0000
0000
0000
0000
,
0000
0000
0000
0000
,
0000
0000
0000
0000
,
0000
1000
0000
1000
,
0000
0001
0000
0001
,
0000
0100
0000
0100
,
0000
0010
0000
0010
,
1000
1000
0100
0000
,
0001
0001
0100
0000
,
0010
0010
0001
0100
,
0010
0010
1000
0100
,
1001
0010
1001
0100
,
1001
0010
1001
0100
,
1001
1001
0110
0110
,
0000
0000
0000
0000
,
1000
0000
0010
0100
0001
0000
1001
0000
,
1000
0100
1000
0000
,
0001
0000
0010
0100
1000
0000
1001
0000
,
0001
0100
0001
0000
,
0010
0000
0001
0100
0010
0000
0110
0000
,
0100
0001
0100
0000
,
0010
0000
1000
0100
0010
0000
0110
0000
,
0100
0000
0000
0000
,
2000
0000
0001
0000
0010
0000
3001
0100
,
0002
1000
0010
1003
,
0020
0000
0100
0000
1000
0000
0130
0001
,
0200
0010
0001
0310
,
0002
0000
1000
0000
0010
0000
1003
0100
,
2000
0001
0010
3001
,
0020
0000
0100
0000
0001
0000
0130
1000
,
0100
0000
0000
0000
,
1000
1000
0010
0000
,
0001
0001
0010
0000
,
0100
0100
0001
0010
,
0100
0100
1000
0010
,
1001
0100
1001
0010
,
1001
0100
1001
0010
,
1001
1001
0110
0110
,
0000
0000
0000
0110
,
1000
0100
0010
1001
,
0001
0010
0100
0000
0010
0000
0010
0000
,
0001
0100
0010
1001
,
1000
0010
0100
0000
0001
0100
0010
0000
,
0100
0001
1000
0110
,
0010
1000
0100
0000
0010
0000
0010
0000
,
0100
1000
0001
0110
,
0010
0000
0000
0000
,
0002
0000
1000
0000
0100
0000
1003
0010
,
0200
0001
0010
0301
,
0020
0000
0100
0000
0001
0000
0130
1000
,
0002
0010
1000
0013
,
2000
0000
0001
0000
0100
0000
3001
0010
,
0200
1000
0010
1300
,
0020
0000
0100
0000
1000
0000
0130
0001
,
1000
0000
0000
0000
,
1001
0000
0000
0000
;

//---------------dance-single - ----------------
#NOTES:
     dance-single:
     :
     Medium:
     10:
     0.411960,0.432558,0.169631,0.133919,0.098207,323.000000,304.000000,19.000000,15.000000,0.000000,0.000000,0.411960,0.432558,0.169631,0.133919,0.098207,323.000000,304.000000,19.000000,15.000000,0.000000,0.000000:
0000
0000
0000
0000
,
0000
0000
0000
0000
,
0000
0000
0000
0000
,
0000
0000
0000
0000
,
0000
0000
0000
0000
,
2000
0000
0000
3002
0000
0000
0000
0000
,
0013
0100
0000
0020
0000
0000
0000
0000
,
0031
0000
0100
0000
0010
1000
0000
0100
,
0000
0010
0000
0200
0000
0000
0000
0000
,
1300
1000
0010
0010
,
0100
0100
0001
0001
,
0010
0010
0001
0001
,
0100
0000
0100
0000
0010
0000
0010
1000
,
1001
0000
0000
0001
0000
0000
0001
0000
1001
0000
0000
1000
0000
0000
1000
0000
,
0110
0000
0000
0010
0000
0000
0010
0000
0110
0000
0000
0100
0000
0000
0100
0000
,
0001
0010
0001
0010
0100
1000
0100
1000
,
0000
0001
0200
0000
0320
0000
2030
0000
,
3001
0000
0010
0100
1000
0000
1001
0000
,
0001
0010
0100
1000
0100
0010
0001
0000
,
1000
0000
0010
0100
0001
0000
1001
0000
,
1000
0010
0100
0001
0100
0010
1000
0000
,
0100
0000
0010
0001
0100
0000
0110
0000
,
0010
1000
0001
0010
0100
1000
0001
0000
,
0100
0000
0010
1000
0100
0000
0110
0000
,
0010
0100
0000
0100
0000
0100
0000
0100
,
1000
0010
1000
0100
1000
0010
1000
0200
,
0310
0001
0010
0100
0010
0001
0010
0000
,
0001
0100
0001
0010
0001
0100
0001
0020
,
0130
1000
0100
0010
0100
1000
0100
0000
,
0010
0100
0010
0001
0010
0100
0010
0002
,
1003
0100
1000
0010
1000
0100
1000
0000
,
0100
0010
0100
1000
0100
0010
0100
2000
,
3001
0010
0000
0010
0000
0010
0000
0010
,
0001
0001
0100
0100
,
0010
0010
1000
1000
,
0100
0100
1000
1000
,
0010
0000
0010
0000
0100
0000
0100
0001
,
1001
0000
0000
1000
0000
0000
1000
0000
1001
0000
0000
0001
0000
0000
0001
0000
,
0110
0000
0000
0100
0000
0000
0100
0000
0110
0000
0000
0010
0000
0000
0010
0000
,
1000
0100
1000
0100
0010
0001
0010
0001
,
0100
0100
0100
1001
,
1000
0000
0000
0001
0000
0100
0000
0000
0010
0000
0000
0000
1001
0000
0000
0000
,
0001
0000
0010
0000
0100
0000
0010
0000
0001
0000
0000
0100
0000
0100
0000
0000
,
0001
0000
0000
1000
0000
0100
0000
0000
0010
0000
0000
0000
1001
0000
0000
0000
,
1000
0000
0010
0000
0100
0000
0010
0000
1000
0001
0000
0010
0000
0000
0110
0000
,
0100
0000
0000
0010
0000
0001
0000
0000
1000
0000
0000
0000
0110
0000
0000
0000
,
0010
0000
0100
0000
1000
0000
0100
0000
0010
0000
0000
0001
0000
0001
0000
0000
,
0100
0000
0000
0010
0000
1000
0000
0000
0001
0000
0000
0000
0110
0000
0000
0000
,
0010
0100
0000
0100
0000
0100
0000
0100
,
0001
0010
0001
0100
0001
0010
0001
0200
,
0310
1000
0010
0100
0010
1000
0010
0000
,
1000
0100
1000
0010
1000
0100
1000
0020
,
0130
0001
0100
0010
0100
0001
0100
0000
,
0010
0100
0010
1000
0010
0100
0010
2000
,
3001
0100
0001
0010
0001
0100
0001
0000
,
0100
0010
0100
0001
0100
0010
0100
0002
,
1003
0010
0000
0010
0000
0010
0000
0010
,
1001
0000
0000
0000
;

//---------------dance-single - ----------------
#NOTES:
     dance-single:
     :
     Hard:
     13:
     0.567562,0.712449,0.366045,0.339261,0.410685,445.000000,404.000000,41.000000,38.000000,0.000000,0.000000,0.567562,0.712449,0.366045,0.339261,0.410685,445.000000,404.000000,41.000000,38.000000,0.000000,0.000000:
0000
0000
0000
0000
,
0000
0000
0000
0000
,
0000
0000
0000
0000
,
0000
0000
0000
0000
,
0000
0000
0000
0000
,
1000
0002
0000
0203
0000
0000
0000
0000
,
0310
0100
0001
2000
0000
0000
0000
0000
,
3200
0000
0320
0000
1030
0002
0000
0203
,
0000
2300
0000
3020
0000
0000
0000
0000
,
1030
0000
0000
0100
1000
0000
0100
0000
0010
0000
0000
0000
0100
0000
0010
0000
,
0001
0000
0000
0100
0001
0000
0100
0000
0010
0000
0000
0000
0100
0000
0002
0000
,
0010
0000
0000
2003
0100
0000
3200
0000
0010
0000
0000
2300
0001
0000
3002
0000
,
0100
0000
0000
0203
0010
0000
0320
0000
0001
0000
0030
0000
0110
0000
0010
0100
,
0010
0000
0000
1010
0000
0000
1100
0000
0011
0000
0000
0101
0000
0000
1000
0100
,
1000
0000
0000
1010
0000
0000
0101
0000
0011
0000
0000
1100
0000
0000
0001
0100
,
0001
0010
0001
0010
0100
1000
0100
1000
0001
0100
0001
0100
0010
1000
0010
1000
,
0000
0000
0100
1000
0100
0000
0010
0001
0010
0000
0100
0000
1000
0000
0001
0000
,
1001
0000
0000
0000
1000
0000
0001
0000
0011
0000
0000
0000
1100
0000
0001
0100
,
0001
0000
1000
0020
0000
0000
0230
0000
0301
0000
0010
0000
1000
0000
0010
0000
,
0011
0000
0001
0100
0101
0000
1010
0000
,
0001
0000
0100
0020
0000
0000
2030
0000
3100
0000
0001
0000
0100
0000
1000
0000
,
1001
0000
0000
0000
0001
0000
1000
0000
1010
0000
0000
0000
0101
0000
1000
0100
,
1000
0000
0001
0020
0000
0000
0230
0000
1300
0000
0010
0000
0001
0000
0010
0000
,
1010
0000
1000
0100
1100
0000
0011
0000
,
1000
0000
0100
0010
0000
0000
0001
0100
0000
0000
0010
1000
0000
0000
0010
0100
,
0001
0000
0010
0000
0100
0000
0010
0000
1000
0000
0010
0000
0001
0000
0100
0010
,
1000
0000
0100
0000
0010
0000
0100
0000
0001
0000
0100
0000
1000
0010
0100
0010
,
1000
0000
0001
0000
0010
0000
0001
0000
0100
0000
0001
0000
1000
0000
0100
0010
,
0001
1000
0010
1000
0100
1000
0001
0001
,
1000
0000
0010
0000
0100
0000
0010
0000
0001
0000
0010
0000
1000
0000
0100
0010
,
0001
0000
0100
0000
0010
0000
0100
0000
1000
0000
0100
0000
0001
0010
0100
0010
,
0001
0000
1000
0000
0010
0000
1000
0000
0100
0000
1000
0000
0001
0000
0100
0010
,
1000
0000
0100
0000
0000
0000
0100
0000
0000
0000
0100
0000
1000
0010
0100
0001
,
1000
1000
0010
0010
,
0100
0100
0001
0001
,
1000
0100
0010
0000
0010
0100
1000
0000
,
0001
0000
0100
0000
0010
0000
0000
0000
0010
0000
0100
0000
0110
0000
0100
0010
,
0100
0000
0000
0001
0000
0010
0100
0000
1100
0000
0000
1000
0000
0010
0100
0000
,
0101
0000
0000
0001
0000
1000
0010
0000
1010
0000
0000
1000
0000
0001
0010
0000
,
0001
0100
0001
0100
0010
1000
0010
1000
0001
0010
0001
0010
0100
1000
0100
1000
,
0010
0000
0010
0000
0010
0100
0101
0001
,
1001
0000
0000
1000
0000
0100
0010
0000
0022
0000
0033
0000
2200
0000
3300
0000
,
0001
0010
0001
0010
0000
0000
0100
0000
1000
0000
0000
1010
0000
0011
0000
0000
,
1000
0000
0000
0001
0000
0100
0010
0000
2020
0000
3030
0000
0202
0000
0303
0000
,
1000
0010
1000
0010
0100
0000
0001
0000
0010
0001
0000
1000
0000
0000
1100
0000
,
1001
0000
0000
0001
0000
1000
0010
0000
0220
0000
0330
0000
0202
0000
0303
0000
,
1000
0010
1000
0100
0000
0000
0010
0000
0001
0000
0000
0101
0000
1100
0000
0000
,
0001
0000
0000
1000
0000
0001
0010
0000
0220
0000
0330
0000
2200
0000
3300
0000
,
0001
0000
0010
0100
0000
0000
1000
0010
0000
0000
0100
0001
0000
0000
0100
0010
,
1000
0000
0100
0000
0010
0000
0100
0000
0001
0000
0100
0000
1000
0000
0010
0100
,
0001
0000
0010
0000
0100
0000
0010
0000
1000
0000
0010
0000
0001
0100
0010
0100
,
0001
0000
1000
0000
0100
0000
1000
0000
0010
0000
1000
0000
0001
0000
0010
0100
,
1000
0001
0100
0001
0010
0001
1000
1000
,
0001
0000
0100
0000
0010
0000
0100
0000
1000
0000
0100
0000
0001
0000
0010
0100
,
1000
0000
0010
0000
0100
0000
0010
0000
0001
0000
0010
0000
1000
0100
0010
0100
,
1000
0000
0001
0000
0100
0000
0001
0000
0010
0000
0001
0000
1000
0000
0010
0100
,
0001
0000
0010
0000
0000
0000
0010
0000
0000
0000
0010
0000
0001
0100
0010
1000
,
0001
0000
0000
0000
;

//---------------dance-single - ----------------
#NOTES:
     dance-single:
     :
     Challenge:
     12:
     0.378799,0.483448,0.223198,0.214270,0.000000,297.000000,272.000000,25.000000,24.000000,28.000000,0.000000,0.378799,0.483448,0.223198,0.214270,0.000000,297.000000,272.000000,25.000000,24.000000,28.000000,0.000000:
// measure 0
0000
0000
0000
0000
,  // measure 1
0000
0000
0000
0000
,  // measure 2
0000
0000
0000
0000
,  // measure 3
0000
0000
0000
0000
,  // measure 4
0000
0000
0000
0000
,  // measure 5
1001
0000
0000
1000
0200
0000
0000
0000
,  // measure 6
1000
1000
0010
1300
,  // measure 7
1000
0010
0001
0100
0001
0010
1000
0100
,  // measure 8
1000
0100
0001
0100
1000
0100
0001
0100
,  // measure 9
2000
0100
3002
0100
,  // measure 10
2003
0010
3002
0010
,  // measure 11
1003
0100
0010
0000
0010
0100
1000
0000
,  // measure 12
2000
0000
0010
0000
3001
0100
0010
0100
,  // measure 13
0001
1001
0100
0110
,  // measure 14
0010
0110
1000
1001
,  // measure 15
MMMM
1001
MMMM
1001
MMMM
0110
MMMM
0110
,  // measure 16
1001
0000
0000
0000
,  // measure 17
0001
0100
1000
0100
0001
0010
0001
0000
,  // measure 18
0001
0100
0010
1000
0001
0100
1000
0000
,  // measure 19
0001
0100
1000
0100
0001
0010
0001
0000
,  // measure 20
1000
0100
0010
0001
1000
0100
0001
0000
,  // measure 21
0200
0010
0010
0301
,  // measure 22
1000
0100
0010
0100
1000
0100
0010
0001
,  // measure 23
0200
0010
0010
1000
,  // measure 24
0301
0000
0000
MMMM
,  // measure 25
0201
1000
0001
0001
,  // measure 26
0320
0001
1000
1000
,  // measure 27
1030
0010
0001
0100
0001
0010
1000
0100
,  // measure 28
1000
0100
0001
0100
1000
0100
0001
0100
,  // measure 29
0020
0001
0001
0001
,  // measure 30
0230
1000
1000
1000
,  // measure 31
0310
0100
0001
0100
0010
0100
0001
0100
,  // measure 32
1000
0000
0000
0000
,  // measure 33
0020
0001
0230
1000
,  // measure 34
0301
0100
1000
0100
0101
0000
1010
0000
,  // measure 35
2000
0010
0001
0100
,  // measure 36
3002
0010
1000
0103
,  // measure 37
0011
1000
0011
1000
,  // measure 38
0011
1000
0011
1000
,  // measure 39
0011
0010
1010
0010
0011
0010
1010
0010
,  // measure 40
2000
0000
3001
MMMM
,  // measure 41
1010
0100
0010
0001
0100
0001
0100
0000
,  // measure 42
2000
0010
3001
MMMM
,  // measure 43
0011
0100
0010
1000
0100
1000
0100
0000
,  // measure 44
0002
0010
2003
0100
,  // measure 45
3001
0100
0010
0100
0001
0100
0010
0100
,  // measure 46
0001
0010
1000
0010
0001
0010
1000
0000
,  // measure 47
1000
0100
0010
0100
1000
0100
0010
0100
,  // measure 48
1000
0010
0001
0010
1000
0010
0001
0010
,  // measure 49
2000
0100
0010
0001
,  // measure 50
3002
0100
0010
1000
,  // measure 51
1003
0100
0010
0001
1000
0100
0010
0001
,  // measure 52
2000
0010
0100
0001
,  // measure 53
3001
0100
0010
1000
0001
0100
0010
1000
,  // measure 54
0002
0010
0100
1000
,  // measure 55
1003
0010
0001
0100
0001
0010
1000
0100
,  // measure 56
1001
0000
0000
0000
,  // measure 57
1001
0000
0000
0000
;
