#VERSION:0.83;
#TITLE:Samba de Janeiro;
#SUBTITLE:;
#ARTIST:Bellini;
#TITLETRANSLIT:;
#SUBTITLETRANSLIT:;
#ARTISTTRANSLIT:;
#GENRE:;
#ORIGIN:;
#TAGS:;
#CREDIT:;
#BANNER:Samba de Janeiro.png;
#BACKGROUND:Samba de Janeiro-bg.png;
#PREVIEWVID:;
#JACKET:Samba de Janeiro-jacket.png;
#CDIMAGE:;
#DISCIMAGE:;
#LYRICSPATH:;
#CDTITLE:cdtitle.png;
#MUSIC:Samba de Janeiro.ogg;
#OFFSET:1.016000;
#SAMPLESTART:28.285999;
#SAMPLELENGTH:15.000000;
#SELECTABLE:YES;
#DISPLAYBPM:133.000000;
#BPMS:0.000000=133.000000
,4.000000=133.800003
,6.000000=132.699997
,7.000000=132.800003
,8.000000=132.899994
,9.000000=133.500000
,10.000000=132.500000
,11.000000=133.000000
,12.000000=132.600006
,13.000000=133.399994
,14.000000=133.100006
,15.000000=133.000000
,16.000000=132.800003
,17.000000=133.600006
,18.000000=132.300003
,19.000000=132.800003
,20.000000=133.300003
,22.000000=132.600006
,23.000000=133.100006
,24.000000=140.199997
,25.000000=133.500000
,26.000000=132.399994
,27.000000=133.199997
,28.000000=132.500000
,29.000000=133.899994
,30.000000=132.399994
,31.000000=132.600006
,32.000000=133.300003
,33.000000=132.500000
,34.000000=132.699997
,35.000000=132.899994
,36.000000=134.300003
,36.500000=133.899994
,37.000000=133.500000
,37.500000=134.100006
,38.500000=131.100006
,39.000000=134.399994
,39.500000=128.399994
,40.000000=133.500000
,40.500000=136.699997
,41.000000=131.699997
,41.500000=133.399994
,42.500000=132.699997
,43.000000=135.300003
,43.500000=127.500000
,44.000000=134.699997
,44.500000=134.600006
,45.000000=148.500000
,45.500000=114.000000
,46.000000=134.500000
,46.500000=139.100006
,47.000000=133.899994
,47.500000=133.300003
,48.000000=131.399994
,48.500000=123.599998
,49.000000=145.699997
,49.500000=125.700005
,50.000000=140.600006
,50.500000=124.100006
,51.000000=134.399994
,51.500000=133.500000
,52.000000=141.100006
,52.500000=126.699997
,53.000000=140.699997
,53.500000=128.100006
,54.000000=147.399994
,54.500000=119.099998
,55.000000=149.500000
,55.500000=120.900009
,56.000000=138.300003
,56.500000=132.899994
,57.000000=133.899994
,57.500000=125.300003
,58.000000=140.600006
,58.500000=133.199997
,59.000000=133.000000
,59.500000=130.899994
,60.000000=133.000000
,68.000000=133.699997
,69.000000=133.000000
,71.000000=133.199997
,72.000000=132.699997
,73.000000=132.899994
,74.000000=133.199997
,75.000000=133.600006
,76.000000=132.100006
,77.000000=133.100006
,78.000000=133.199997
,79.000000=133.500000
,80.000000=131.699997
,81.000000=133.399994
,83.000000=132.800003
,85.000000=133.399994
,86.000000=133.000000
,88.000000=132.800003
,89.000000=132.899994
,90.000000=133.300003
,91.000000=132.399994
,92.000000=133.500000
,93.000000=132.800003
,94.000000=133.199997
,95.000000=132.600006
,97.000000=133.800003
,98.000000=133.000000
,99.000000=132.699997
,104.000000=134.000000
,105.000000=132.600006
,106.000000=133.500000
,107.000000=133.199997
,108.000000=132.399994
,109.000000=133.000000
,110.000000=133.399994
,112.000000=132.399994
,113.000000=132.600006
,114.000000=133.500000
,116.000000=131.399994
,117.000000=134.000000
,118.000000=133.000000
,119.000000=133.199997
,120.000000=132.699997
,121.000000=133.100006
,122.000000=133.300003
,123.000000=132.800003
,124.000000=132.699997
,126.000000=133.500000
,127.000000=132.899994
,129.000000=132.600006
,130.000000=133.800003
,131.000000=133.600006
,132.000000=132.300003
,135.000000=132.699997
,136.000000=133.399994
,137.000000=133.500000
,138.000000=133.300003
,139.000000=134.000000
,140.000000=131.600006
,141.000000=133.300003
,142.000000=133.000000
,143.000000=133.899994
,144.000000=131.500000
,145.000000=133.600006
,146.000000=133.100006
,147.000000=133.699997
,148.000000=131.899994
,149.000000=132.600006
,150.000000=134.100006
,151.000000=131.100006
,152.000000=133.899994
,153.000000=133.100006
,154.000000=132.899994
,155.000000=133.399994
,156.000000=132.199997
,157.000000=133.500000
,158.000000=132.899994
,159.000000=133.199997
,160.000000=132.699997
,161.000000=133.100006
,162.000000=133.300003
,163.000000=133.399994
,164.000000=133.000000
,165.000000=132.500000
,166.000000=132.899994
,167.000000=132.600006
,168.000000=133.000000
,169.000000=133.500000
,170.000000=132.899994
,171.000000=133.899994
,172.000000=131.800003
,173.000000=133.199997
,174.000000=132.800003
,175.000000=133.100006
,176.000000=132.899994
,177.000000=133.199997
,178.000000=132.600006
,179.000000=133.800003
,180.000000=132.300003
,181.000000=133.100006
,183.000000=132.699997
,184.000000=132.199997
,185.000000=133.300003
,186.000000=133.399994
,187.000000=134.300003
,188.000000=131.399994
,189.000000=133.000000
,190.000000=133.199997
,191.000000=133.699997
,192.000000=132.199997
,193.000000=132.699997
,194.000000=133.199997
,195.000000=134.500000
,196.000000=131.500000
,197.000000=133.100006
,198.000000=133.000000
,199.000000=133.399994
,200.000000=132.399994
,201.000000=132.800003
,202.000000=133.500000
,203.000000=134.000000
,204.000000=131.699997
,205.000000=133.199997
,206.000000=132.899994
,207.000000=133.800003
,208.000000=132.199997
,209.000000=134.500000
,210.000000=131.600006
,211.000000=133.699997
,212.000000=133.000000
,213.500000=132.899994
,214.000000=133.000000
,215.500000=127.099998
,216.000000=136.000000
,217.000000=140.500000
,218.000000=132.000000
,218.500000=119.500000
,219.000000=133.000000
,222.000000=134.100006
,223.000000=132.399994
,224.000000=133.699997
,225.000000=133.100006
,226.000000=132.699997
,227.000000=132.000000
,228.000000=134.000000
,229.000000=133.199997
,230.000000=132.800003
,231.000000=132.399994
,232.000000=133.600006
,233.000000=133.399994
,234.000000=131.899994
,235.000000=133.000000
,236.000000=133.699997
,237.000000=132.600006
,238.000000=133.500000
,239.000000=132.600006
,240.000000=133.300003
,242.000000=132.800003
,243.000000=132.199997
,244.000000=133.500000
,245.000000=132.399994
,246.000000=133.399994
,247.000000=132.600006
,248.000000=133.800003
,249.000000=131.699997
,250.000000=134.199997
,251.000000=133.699997
,252.000000=132.899994
,253.000000=128.300003
,254.000000=133.600006
,258.000000=134.399994
,259.000000=132.100006
,260.000000=133.699997
,261.000000=133.199997
,263.000000=132.000000
,264.000000=133.899994
,265.000000=133.300003
,266.000000=132.699997
,267.000000=131.899994
,268.000000=133.899994
,269.000000=133.199997
,270.000000=132.199997
,271.000000=133.300003
,272.000000=132.899994
,273.000000=133.399994
,274.000000=133.100006
,275.000000=132.800003
,276.000000=133.500000
,277.000000=132.699997
,279.000000=132.300003
,280.000000=133.600006
,281.000000=132.800003
,282.000000=133.500000
,283.000000=132.000000
,284.000000=134.100006
,285.000000=132.500000
,286.000000=133.399994
,287.000000=132.300003
,288.000000=133.500000
,289.000000=131.800003
,290.000000=132.800003
,291.500000=135.000000
,292.000000=136.100006
,293.000000=132.000000
,294.000000=133.000000
;
#STOPS:;
#DELAYS:;
#WARPS:;
#TIMESIGNATURES:0.000000=4=4
;
#TICKCOUNTS:0.000000=4
;
#COMBOS:0.000000=1
;
#SPEEDS:0.000000=1.000000=0.000000=0
;
#SCROLLS:0.000000=1.000000
;
#FAKES:;
#LABELS:0.000000=Song Start
;
#BGCHANGES:;
#KEYSOUNDS:;
#ATTACKS:
;

//---------------dance-single - ----------------
#NOTEDATA:;
#CHARTNAME:;
#CHARTHASH:4157570546;
#STEPSTYPE:dance-single;
#BANNER:;
#DESCRIPTION:;
#CHARTSTYLE:;
#DIFFICULTY:Beginner;
#METER:2;
#METERF:0.000000;
#LASTSECONDHINT:131.598267;
#RADARVALUES:0.121851,0.162136,0.058825,0.058825,0.000000,116.000000,108.000000,8.000000,8.000000,0.000000,0.000000,0.000000,0.000000,0.000000,0.121851,0.162136,0.058825,0.058825,0.000000,116.000000,108.000000,8.000000,8.000000,0.000000,0.000000,0.000000,0.000000,0.000000;
#CREDIT:Supra G.L.;
#DISPLAYBPM:133.000000;
#NOTES:
0000
0000
0000
0000
,
0000
0000
0000
0000
,
0000
0000
0000
0000
,
0000
0000
0000
0000
,
0000
0000
0000
0000
,
0001
0000
0000
0000
,
1000
0000
0000
0000
,
0010
0000
0000
0000
,
0100
0000
0000
0000
,
1001
0000
0000
0000
,
1001
0000
0000
0000
,
0110
0000
0000
0000
,
0110
0000
0000
0000
,
0001
0000
0001
0000
,
1000
0000
1000
0000
,
0100
0000
0100
0000
,
0100
0000
0000
0000
,
1000
0000
0001
0000
,
0010
0000
0000
0000
,
0001
0000
1000
0000
,
0010
0000
0000
0000
,
0100
0000
0010
0000
,
1000
0000
0000
0000
,
0100
0000
0010
0000
,
2002
0000
0000
0000
,
3003
0000
0000
0000
,
0001
0000
1000
0000
,
0010
0000
0010
0000
,
1000
0000
0001
0000
,
0010
0000
0010
0000
,
0100
0000
0010
0000
,
0001
0000
0001
0000
,
0100
0000
0010
0000
,
2002
0000
0000
3003
,
1000
0000
1000
0000
,
0001
0000
0001
0000
,
0100
0000
0100
0000
,
0010
0000
0010
0000
,
1000
0000
0000
0000
,
1000
0000
1000
0000
,
0001
0000
0000
0000
,
0001
0000
0001
0000
,
0010
0000
0000
0000
,
0010
0000
0010
0000
,
0100
0000
0000
0000
,
0100
0000
0100
0000
,
1000
0000
0000
0000
,
0001
0000
1000
0000
,
0001
0000
0000
0000
,
1000
0000
0001
0000
,
0010
0000
0000
0000
,
0100
0000
0010
0000
,
0100
0000
0000
0000
,
0010
0000
0010
0000
,
0010
0010
0010
0000
,
0000
0000
0001
0000
,
1000
0000
0100
0000
,
0000
0000
1000
0000
,
0001
0000
0100
0000
,
0000
0000
0010
0000
,
0100
0000
0001
0000
,
0000
0000
0010
0000
,
0100
0000
2002
0000
,
0000
0000
3003
0000
,
0000
0000
1000
0000
,
0001
0000
0100
0000
,
0100
0000
0001
0000
,
1000
0000
0100
0000
,
0100
0000
0010
0000
,
0100
0000
1000
0000
,
1000
0000
0010
0000
,
0100
0000
2002
0000
,
0000
3003
0010
0000
,
0010
0010
0010
0000
;

//---------------dance-single - ----------------
#NOTEDATA:;
#CHARTNAME:;
#CHARTHASH:4126592815;
#STEPSTYPE:dance-single;
#BANNER:;
#DESCRIPTION:;
#CHARTSTYLE:;
#DIFFICULTY:Easy;
#METER:5;
#METERF:0.000000;
#LASTSECONDHINT:131.598267;
#RADARVALUES:0.232148,0.297249,0.213240,0.058825,0.000000,221.000000,192.000000,29.000000,8.000000,0.000000,0.000000,0.000000,0.000000,0.000000,0.232148,0.297249,0.213240,0.058825,0.000000,221.000000,192.000000,29.000000,8.000000,0.000000,0.000000,0.000000,0.000000,0.000000;
#CREDIT:Supra G.L.;
#DISPLAYBPM:133.000000;
#NOTES:
0000
0000
0000
0000
,
0000
0000
0000
0000
,
0000
0000
0000
0000
,
0000
0000
0000
0000
,
0000
0000
0000
0000
,
1000
0000
1000
0000
,
0001
0000
0001
0000
,
0100
0000
0100
0000
,
0010
0100
0001
1000
,
1001
0000
0000
0000
,
0110
0000
0000
0000
,
1001
0000
0110
0000
,
1001
0000
0110
0000
,
1000
0000
0001
0000
,
1000
0001
1000
0001
,
0100
0100
0100
0100
,
0100
0000
0000
0000
,
0001
0010
0100
0010
,
0001
0000
0001
0000
,
1000
0010
0100
0010
,
1000
0000
1000
0000
,
0100
0010
0001
0010
,
0100
0000
0100
0000
,
0010
0100
1000
0001
,
2002
0000
0000
0000
,
3003
0000
0000
0000
,
1000
0100
0010
0100
,
1000
1000
0001
0001
,
0100
0010
1000
0010
,
0100
0100
0010
0010
,
1000
0001
0010
0001
,
0100
0100
0001
0001
,
0010
0100
1000
0001
,
2002
0000
0000
3003
,
1010
0000
0101
0000
,
0011
0000
1100
0000
,
1010
0000
1100
0000
,
0101
0000
0011
0000
,
1001
0000
1000
0000
,
0001
0010
0001
0010
,
0100
0000
1000
0000
,
0010
0100
0010
0100
,
0001
0000
0010
0000
,
0001
1000
0001
1000
,
0100
0000
0010
0000
,
0100
1000
0100
1000
,
1001
0000
0001
0000
,
1000
0010
0100
0010
,
1000
0000
0001
0000
,
0010
0100
1000
0100
,
0010
0000
0100
0000
,
1000
0001
0010
0001
,
0100
0000
0010
0000
,
1001
0000
0110
0000
,
1001
1001
1001
0000
,
0000
0000
1000
0100
,
0010
0100
1000
0000
,
1000
0000
0001
0100
,
0010
0100
0001
0000
,
0001
0000
0010
0100
,
1000
0100
0010
0000
,
0010
0000
0100
0010
,
0001
1000
2002
0000
,
0000
0000
3003
0000
,
0000
0000
0001
0010
,
0100
0010
0001
0001
,
1000
1000
0010
0100
,
0001
0100
0010
0010
,
0100
0100
0001
1000
,
0100
1000
0010
0010
,
1000
1000
0100
0010
,
0001
1000
2002
0000
,
0000
3003
0110
0000
,
1001
1001
1001
0000
;

//---------------dance-single - ----------------
#NOTEDATA:;
#CHARTNAME:;
#CHARTHASH:350619558;
#STEPSTYPE:dance-single;
#BANNER:;
#DESCRIPTION:;
#CHARTSTYLE:;
#DIFFICULTY:Medium;
#METER:9;
#METERF:0.000000;
#LASTSECONDHINT:131.598267;
#RADARVALUES:0.403370,0.405340,0.213240,0.117650,0.029412,384.000000,355.000000,29.000000,16.000000,0.000000,0.000000,0.000000,0.000000,0.000000,0.403370,0.405340,0.213240,0.117650,0.029412,384.000000,355.000000,29.000000,16.000000,0.000000,0.000000,0.000000,0.000000,0.000000;
#CREDIT:Supra G.L.;
#DISPLAYBPM:133.000000;
#NOTES:
0000
0000
0000
0000
,
0000
0000
0000
0000
,
0000
0000
0000
0000
,
0000
0000
0000
0000
,
0000
0000
0000
0000
,
0001
0100
0001
1000
,
0100
1000
0010
0100
,
0001
0010
0001
1000
,
0010
0100
0010
0100
0001
1000
0001
0000
,
1001
0010
0010
0010
,
1001
0100
0100
0100
,
1001
0010
1001
0100
,
1010
1100
0101
0011
,
0001
1000
0010
0100
,
0001
0010
0001
0000
1000
0100
1000
0000
,
0010
0100
0010
0100
0010
0010
0100
0100
,
0010
0000
2000
0000
3200
0000
0000
0310
,
0001
0000
1000
0010
0100
0000
0001
0010
,
0100
0000
1000
0000
0001
0000
0010
0001
,
1000
0000
0010
0100
0001
0000
0010
0100
,
1000
0000
0010
0000
0100
0000
0001
0010
,
0100
0000
1000
0001
0010
0000
0001
1000
,
0010
0000
0100
0000
0001
0000
0010
0100
,
1000
0000
0000
0000
0010
0000
0100
0000
0001
0000
0000
0000
1000
0000
0000
2002
,
0000
0000
0000
3003
,
1000
0000
0002
0000
0203
0000
0000
0310
,
1000
0000
0001
0010
0100
0000
1000
0010
,
0100
0000
0101
0000
1010
0000
0010
1000
,
0001
0000
0010
0100
1000
0000
0010
0100
,
0001
0000
1100
0000
0011
0000
1000
0010
,
0100
0000
0001
1000
0010
0000
1000
0001
,
0010
0000
0011
0000
1010
0000
0010
0100
,
0001
0000
0000
0000
0010
0000
0100
0000
1000
0000
0000
0000
0001
0000
0000
2002
,
0000
0000
3003
1001
,
0001
0010
0001
0000
1000
0010
1000
0000
,
0100
1000
0100
0000
0010
0001
0010
0000
,
0001
0100
0001
0000
1000
0100
1000
0000
,
0010
1000
0010
0000
0100
0000
0001
1000
,
1001
0000
0001
0000
0010
0100
0010
0000
,
0001
0010
0001
0010
0001
0000
1000
0010
,
0100
0000
0010
0000
1000
0001
1000
0000
,
0100
1000
0100
1000
0100
0000
0010
0001
,
0100
0000
0010
0000
1000
0100
1000
0000
,
0001
0100
0001
0100
0001
0000
0010
0100
,
1000
0000
0010
0000
0100
0001
0100
0000
,
0010
1000
0010
1000
0010
0000
1000
0001
,
1001
0000
1000
0000
0100
0010
0001
0000
,
1000
0100
0010
0100
1000
0000
0001
0100
,
0010
0000
0100
0000
0001
0010
0100
0000
,
1000
0001
0010
0001
1000
0000
0010
0100
,
0001
0000
0010
0000
0100
1000
0001
0000
,
0010
0100
1000
0100
0010
0000
0001
1000
,
0010
0000
0100
0000
0010
1000
0001
0000
,
1001
0000
0000
0001
1000
0000
0000
0001
,
1000
0000
0000
0000
1000
0000
0010
0000
0000
0000
0010
0000
0100
0000
0000
0100
0000
0000
0002
0000
0000
0000
0000
0000
,
0023
0000
0000
0130
1000
0000
0001
0100
,
0010
0000
1000
0100
0010
0000
0001
0000
,
1000
0000
0100
1000
0001
0000
0100
0010
,
1000
0000
0100
0010
0001
0000
0100
0000
,
0010
0000
1000
0100
0010
0000
0001
1000
,
0100
0000
1000
0001
0100
0000
0010
0000
,
1000
0000
0100
0010
0001
0000
0100
0010
,
1000
0000
0000
0000
0001
0000
0000
2002
0000
0000
0000
0000
0000
0000
0000
0000
,
0000
3003
0001
2000
,
3020
0000
0000
0130
0001
0000
1000
0100
,
0010
0000
0001
0100
0010
0000
1010
0000
,
0101
0000
0100
0001
1000
0000
0100
0010
,
0001
0000
0100
0010
1000
0000
0011
0000
,
1100
0000
0001
0100
0010
0000
1000
0001
,
0100
0000
0001
1000
0100
0000
1100
0000
,
0101
0000
0100
0010
1000
0000
0100
0010
,
0001
0000
0000
0000
1000
0000
0000
2002
0000
0000
0000
0000
0000
0000
0000
0000
,
0000
0000
3003
0000
1001
0000
0000
1000
,
0001
0000
0001
0010
0000
0010
0100
0000
0000
0000
0000
0000
;

//---------------dance-single - ----------------
#NOTEDATA:;
#CHARTNAME:;
#CHARTHASH:3473807602;
#STEPSTYPE:dance-single;
#BANNER:;
#DESCRIPTION:;
#CHARTSTYLE:;
#DIFFICULTY:Hard;
#METER:12;
#METERF:0.000000;
#LASTSECONDHINT:131.598267;
#RADARVALUES:0.529423,0.594498,0.360302,0.235299,0.224270,504.000000,455.000000,49.000000,32.000000,0.000000,0.000000,0.000000,0.000000,0.000000,0.529423,0.594498,0.360302,0.235299,0.224270,504.000000,455.000000,49.000000,32.000000,0.000000,0.000000,0.000000,0.000000,0.000000;
#CREDIT:Supra G.L.;
#DISPLAYBPM:133.000000;
#NOTES:
// measure 0
0000
0000
0000
0000
,  // measure 1
0000
0000
0000
0000
,  // measure 2
0000
0000
0000
0000
,  // measure 3
0000
0000
0000
0000
,  // measure 4
0000
0000
0000
0000
,  // measure 5
1000
0100
0010
0000
0001
0100
0010
0000
,  // measure 6
0100
0001
1000
0000
0100
1000
0001
0000
,  // measure 7
1000
0010
0001
0000
1000
0100
0001
0000
,  // measure 8
0010
0000
0100
0000
1000
0010
0000
0100
0000
0001
0000
0100
0000
0010
1000
0000
,  // measure 9
1001
0100
0000
0100
0000
0100
0000
0100
,  // measure 10
1001
0010
0000
0010
0000
0010
0000
0010
,  // measure 11
1001
0100
0000
0100
1001
0010
0000
0010
,  // measure 12
1001
1000
1100
0100
0110
0010
0011
0001
,  // measure 13
1000
0010
0001
0010
0100
1000
0100
0001
,  // measure 14
0010
0010
0100
0100
1000
1000
0001
0001
,  // measure 15
0100
0000
0100
0000
0100
0000
0100
0000
0100
0010
0100
0010
0100
0010
0100
0010
,  // measure 16
0100
0000
0002
0000
0023
0000
0000
0130
,  // measure 17
2000
0000
0000
0000
3001
0000
0100
0000
0020
0000
0000
0000
0130
0001
0000
0000
,  // measure 18
0010
0000
0000
0000
0011
0000
0000
0000
1001
0000
0000
0000
1100
0000
0100
0020
,  // measure 19
0000
0000
0000
0000
0130
0000
1000
0000
0002
0000
0000
0000
0103
0010
0000
0000
,  // measure 20
1000
0000
0000
0000
1010
0000
0000
0000
0110
0000
0000
0000
0101
0000
0001
0020
,  // measure 21
0000
0000
0000
0000
0031
0000
1000
0000
0200
0000
0000
0000
0310
0000
0001
1000
,  // measure 22
0000
0000
0000
0000
1010
0000
0000
0000
0101
0000
0000
0000
0011
0000
0000
1200
,  // measure 23
0000
0000
0000
0000
1300
0000
0001
0000
0020
0000
0000
0000
0130
0000
0000
2002
,  // measure 24
0000
0000
0000
3003
,  // measure 25
0001
0000
2000
0000
3020
0000
0000
0130
,  // measure 26
0001
0000
1000
0000
0010
0000
1000
0000
0100
0000
0010
0000
0001
1000
0001
0000
,  // measure 27
0100
0000
0010
0000
1000
0000
0100
0000
0001
0000
0100
0000
0010
0000
0001
1000
,  // measure 28
0000
0000
0010
0000
0100
0000
0010
0000
1000
0000
0001
0000
0010
0100
0010
0000
,  // measure 29
0001
0000
0100
0000
1000
0000
0100
0000
0010
0000
1000
0000
0001
0000
0010
0100
,  // measure 30
0000
0000
1000
0000
0001
0000
0100
0000
0010
0000
0100
0000
0001
0000
0010
0100
,  // measure 31
1000
0000
0010
0000
0100
0000
1000
0000
0001
0000
0010
0000
0100
0000
0001
1000
,  // measure 32
0000
0000
0100
0000
0010
0000
0001
0000
1000
0000
0010
0000
0100
0000
0000
2002
,  // measure 33
0000
0000
3003
1001
,  // measure 34
1000
0000
0100
0000
0010
0001
0000
0010
0001
0000
0100
0000
0010
1000
0000
0010
,  // measure 35
1000
0000
0001
0000
1000
0100
0000
1000
0100
0000
0010
0000
0001
0100
0000
0001
,  // measure 36
0100
0000
0100
0000
0010
1000
0000
1000
0010
0000
0010
0000
0100
0001
0000
0001
,  // measure 37
1000
0000
1000
0000
0001
0010
0000
0010
0001
0000
0001
0000
1000
0001
1000
0000
,  // measure 38
1001
0000
0101
0001
1000
0010
0000
0100
,  // measure 39
0001
0010
0001
0010
0001
0010
0100
1000
,  // measure 40
0010
0000
0110
0100
0001
0010
0000
0100
,  // measure 41
1000
0010
1000
0010
1000
0010
0100
0001
,  // measure 42
1000
0000
1100
0100
0010
0001
0000
0100
,  // measure 43
0010
1000
0010
1000
0010
1000
0100
0010
,  // measure 44
0001
0000
0101
0100
0010
1000
0000
0001
,  // measure 45
0010
0000
0100
0000
0010
0000
0100
0000
0010
0000
0001
1000
0001
0000
1000
0000
,  // measure 46
1001
0000
0011
0001
1000
0100
0000
0010
,  // measure 47
0001
0100
0001
0010
0001
0100
0010
1000
,  // measure 48
0100
0000
0110
0010
0001
0100
0000
0010
,  // measure 49
1000
0100
1000
0010
1000
0100
0010
0001
,  // measure 50
1000
0000
1010
0010
0100
0001
0000
0010
,  // measure 51
0100
1000
0100
0010
0100
1000
0010
0100
,  // measure 52
0001
0000
0011
0010
0100
1000
0000
0001
,  // measure 53
0101
0000
0000
1000
1010
0000
0000
0001
,  // measure 54
0010
0000
0100
0000
1000
0000
0010
0000
0100
0000
0001
0000
1001
0000
0000
1001
0000
0000
2000
0000
0000
0000
0000
0000
,  // measure 55
3200
0000
0000
0310
0002
0000
1003
0010
,  // measure 56
0200
0000
0000
0000
0310
1000
0000
0000
0100
0000
0000
0000
1100
0000
0000
0000
,  // measure 57
1001
0000
0000
0000
0011
0000
0010
0200
0000
0000
0000
0000
0310
0000
0001
0000
,  // measure 58
2000
0000
0000
0000
3010
0100
0000
0000
0001
0000
0000
0000
0101
0000
0000
0000
,  // measure 59
0110
0000
0000
0000
1010
0000
1000
0200
0000
0000
0000
0000
1300
0000
0001
0000
,  // measure 60
0020
0000
0000
0000
0130
0000
1000
0001
0000
0000
0000
0000
0101
0000
0000
0000
,  // measure 61
1010
0000
0000
0000
1100
0000
0000
0021
0000
0000
0000
0000
0031
0000
1000
0000
,  // measure 62
0200
0000
0000
0000
0310
0000
0000
2002
0000
0000
0000
0000
0000
0000
0000
0000
,  // measure 63
0000
3003
1000
0002
,  // measure 64
0203
0000
0000
0310
1000
0001
0100
0001
,  // measure 65
0010
0000
0100
0000
1000
0001
1000
0000
0010
0000
0100
0000
0001
0000
0010
0000
,  // measure 66
1000
0000
0010
0000
0100
0000
1000
0001
0000
0000
0100
0000
0010
0000
0100
0000
,  // measure 67
0001
0000
1000
0000
0100
0010
0100
0000
1000
0000
0010
0000
0001
0000
0010
0000
,  // measure 68
0100
0000
0001
0000
1000
0000
0100
0010
0000
0000
0001
0000
1000
0000
0010
0000
,  // measure 69
0100
0000
0010
0000
1000
0000
0100
0010
0001
0000
0100
0000
0010
0000
0001
0000
,  // measure 70
1000
0000
0100
0000
0010
0000
1000
0001
0000
0000
0010
0000
0100
0000
1000
0000
,  // measure 71
0001
0000
0100
0000
0010
0000
0000
2002
0000
0000
0000
0000
0000
0000
0000
0000
,  // measure 72
0000
0000
3003
0000
1001
0000
0000
1000
,  // measure 73
0100
0010
0001
0100
0010
1000
1001
0000
0000
0000
0000
0000
;
