#VERSION:0.83;
#TITLE:SEXY PLANET (FROM NONSTOP MEGAMIX);
#SUBTITLE:(Supra's Edit);
#ARTIST:Crystal Aliens;
#TITLETRANSLIT:;
#SUBTITLETRANSLIT:;
#ARTISTTRANSLIT:;
#GENRE:;
#ORIGIN:;
#CREDIT:;
#BANNER:SEXY PLANET (FROM NONSTOP MEGAMIX) (Supra's Edit).png;
#BACKGROUND:SEXY PLANET (FROM NONSTOP MEGAMIX) (Supra's Edit)-bg.png;
#PREVIEWVID:;
#JACKET:SEXY PLANET (FROM NONSTOP MEGAMIX) (Supra's Edit)-jacket.png;
#CDIMAGE:;
#DISCIMAGE:;
#LYRICSPATH:;
#CDTITLE:cdtitle.png;
#MUSIC:SEXY PLANET (FROM NONSTOP MEGAMIX) (Supra's Edit).ogg;
#OFFSET:0.000000;
#SAMPLESTART:24.000000;
#SAMPLELENGTH:15.000000;
#SELECTABLE:YES;
#DISPLAYBPM:180.000000;
#BPMS:0.000=180.000;
#STOPS:;
#DELAYS:;
#WARPS:;
#TIMESIGNATURES:0.000=4=4;
#TICKCOUNTS:0.000=4;
#COMBOS:0.000=1;
#SPEEDS:0.000=1.000=0.000=0;
#SCROLLS:0.000=1.000;
#FAKES:;
#LABELS:0.000=Song Start;
#BGCHANGES:3.500=SEXY PLANET (FROM NONSTOP MEGAMIX) (Supra's Edit).avi=1.000=1=0=0=StretchNoLoop==CrossFade==,
99999=-nosongbg-=1.000=0=0=0 // don't automatically add -songbackground-
;
#KEYSOUNDS:;
#ATTACKS:
;

//---------------dance-single - ----------------
#NOTEDATA:;
#CHARTNAME:;
#STEPSTYPE:dance-single;
#DESCRIPTION:;
#CHARTSTYLE:;
#DIFFICULTY:Challenge;
#METER:10;
#RADARVALUES:0.527143,0.618375,0.780000,0.110000,0.000000,369.000000,291.000000,78.000000,11.000000,0.000000,0.000000,0.000000,0.000000,0.000000,0.527143,0.618375,0.780000,0.110000,0.000000,369.000000,291.000000,78.000000,11.000000,0.000000,0.000000,0.000000,0.000000,0.000000;
#CREDIT:;
#DISPLAYBPM:180.000000;
#NOTES:
0000
0000
0000
0000
,
0000
0000
0000
0000
,
0000
0000
0000
0000
,
0000
0000
0000
1000
,
1000
0000
0001
0000
0001
0000
0001
1000
,
0010
0000
0010
0000
0010
0000
0010
0100
,
0001
0000
0001
0000
,
0002
1000
1003
1001
,
0100
0000
0100
0000
0100
0000
0100
0001
,
1000
0000
1000
0000
1000
0000
1000
0010
,
0100
0101
1000
1100
,
0001
0011
1000
1010
,
0100
0101
1100
0101
,
1100
0101
1100
0101
,
1000
0000
1100
0100
0010
0000
0011
0001
,
1000
0010
0100
0000
1000
0010
0100
0000
,
0001
1000
0001
1000
0001
1000
0001
1000
,
0010
0100
0010
0100
0010
0100
0010
0010
,
1000
0001
0100
0010
,
1000
0000
1000
0000
1000
0001
1000
0000
,
0010
0010
0100
0100
,
0001
0011
1100
0011
,
1000
0010
0100
0001
,
0010
0000
0100
0000
0010
0100
0010
0000
,
0001
1000
0001
1000
,
0010
1010
0101
1010
,
0100
0101
0100
0101
,
0100
0101
0100
0101
,
0100
0101
0100
0101
,
1100
0000
0101
0000
1000
0001
0100
0000
,
0010
1010
0010
1010
,
0010
1010
0010
1010
,
0010
1010
0010
1010
,
1100
0000
1010
0000
0100
0001
0100
0001
,
2000
0000
0010
0000
0010
0000
3010
0200
,
0000
0001
0301
1001
,
1000
0000
0010
0000
0100
0000
0001
1000
,
0010
1000
0010
0000
0100
0000
1001
0000
,
2000
0000
3000
1001
,
0200
0000
0300
0110
,
0100
0000
0001
0000
1000
0000
0010
0010
,
0100
0001
0100
0000
0001
0000
1001
0000
,
1000
1000
1000
1000
,
2000
0000
3000
1001
,
0010
0010
0010
0010
,
0020
0000
0030
0110
,
0100
0001
1000
0000
1000
0010
0100
0000
,
1000
0000
1000
0000
1000
0100
0001
0000
,
1000
0010
0100
0000
0001
0100
0010
0000
,
1000
0010
0100
0001
1000
0000
1001
0000
,
1010
0000
0110
0000
,
1010
0000
0110
0000
,
1010
0110
1010
0110
,
1001
2002
3003
1001
,
0001
1000
0010
0100
,
0001
0000
0001
0000
0001
1000
0001
0000
,
0100
0100
0010
0010
,
1000
1100
0011
1100
,
0001
0100
0010
1000
,
0100
0000
0010
0000
0100
0010
0100
0000
,
1000
0001
1000
0001
,
0100
0101
1010
0101
,
0010
1010
0010
1010
,
0010
1010
0010
1010
,
0010
1010
0010
1010
,
0011
0000
1010
0000
0001
1000
0010
0000
,
0100
0101
0100
0101
,
0100
0101
0100
0101
,
0100
0101
0100
0101
,
0011
0000
0101
0000
0010
1000
0010
1000
,
0001
0100
0000
0100
,
0000
2002
0000
0000
,
0000
0000
0000
3003
;

//---------------dance-double - ----------------
#NOTEDATA:;
#CHARTNAME:;
#STEPSTYPE:dance-double;
#DESCRIPTION:;
#CHARTSTYLE:;
#DIFFICULTY:Challenge;
#METER:9;
#RADARVALUES:0.432857,0.574000,0.600000,0.110000,0.000000,303.000000,243.000000,60.000000,11.000000,0.000000,0.000000,0.000000,0.000000,0.000000,0.432857,0.574000,0.600000,0.110000,0.000000,303.000000,243.000000,60.000000,11.000000,0.000000,0.000000,0.000000,0.000000,0.000000;
#CREDIT:;
#DISPLAYBPM:180.000000;
#NOTES:
00000000
00000000
00000000
00000000
,
00000000
00000000
00000000
00000000
,
00000000
00000000
00000000
00000000
,
00000000
00000000
00000000
00000000
,
10000000
01000000
00010000
00001000
,
00000100
00000100
00000010
00001001
,
00001100
00000000
00000000
01001000
,
00100000
10000000
00100000
01000000
,
00001000
00000000
00001000
00000000
,
00001000
00000000
00010000
00000000
00001000
00010000
00001000
00010000
,
00000010
00000000
00000000
00000000
00000000
00000100
00000001
00001000
,
00000010
00000000
00000000
00000000
00000000
00010000
00000000
01000000
,
10000000
00000000
00000000
00000000
00000000
00010000
00000000
00000010
,
00000001
00000000
00000000
00000000
00000000
00001000
00000000
00000010
,
00010000
00000000
00001000
00000000
,
01000000
00000000
00100000
00000000
,
10000000
10000000
10000000
10000000
,
10000000
00100000
10000000
00100000
10000000
00100000
01000000
00001000
,
00020000
00000000
00000000
00000000
,
00000000
00000000
00030000
00010100
,
00000100
00001000
00000010
00000100
,
00000001
00001000
00000001
00001001
,
00000100
00000000
00000100
00011000
,
00100000
00011000
00100000
00110000
,
02000000
00000000
00000000
03100000
,
10000000
00000000
00010000
00000000
10000000
00000000
00010000
01000000
,
00001000
01001000
00100000
00101000
,
00001000
00011000
01000000
01001000
,
00001000
00011000
00010000
00010010
,
00001000
00001010
00000100
00000100
,
00000001
00000101
00001000
00001100
,
00000100
00010100
00010000
00011000
,
00010000
00110000
01000000
01010000
,
10000000
11000000
10000000
10010000
,
02000000
00200000
03300000
10010000
,
01000000
00001000
00010000
00000010
,
00002000
00000002
00003003
00000110
,
00000001
00001000
00000010
00000000
,
00001000
00001000
00001000
00000010
,
00020000
00000100
00030100
00010100
,
00001000
01000000
00001000
01000000
,
00100000
01100000
01100000
00000000
,
10000000
01000000
00100000
00001000
,
00010000
00000010
00001000
00000001
,
00000100
00000010
00001000
00000100
,
00010000
00001000
01000000
00100000
,
10000000
10000000
10000000
00000000
10000000
10000000
10000000
00000000
,
10000000
01000000
00010000
00000000
10000000
01000000
00010000
00000000
,
01000000
00010000
00001000
00000100
,
00000020
00000000
00000000
00000030
,
00001001
00000000
00000110
00000000
,
00001001
00000000
00000110
00000000
,
00001001
00000110
00001001
00000110
,
00000010
00000000
00010000
00000000
00001000
00010000
00001000
01000000
,
00020000
00000000
00000000
00000000
,
00000000
00000000
00030000
00110000
,
00001000
00010000
00000010
00000100
,
00000001
00001000
00000001
00001001
,
00000100
00000000
00000100
00011000
,
00100000
00011000
00100000
00110000
,
02000000
00000000
00000000
03100000
,
10000000
00000000
00010000
00000000
10000000
00000000
00010000
01000000
,
00001000
01001000
00100000
00101000
,
00001000
00011000
01000000
01001000
,
00001000
00011000
00010000
00010010
,
00001000
00001010
00000100
00000100
,
00000001
00000101
00001000
00001100
,
00000100
00010100
00010000
00011000
,
00010000
00110000
01000000
01010000
,
10000000
11000000
00010000
01010000
,
11000000
01010000
11000000
01010000
,
00000000
20000000
00000000
00000000
00000000
00000000
30000000
00000000
;

//---------------dance-single - ----------------
#NOTEDATA:;
#CHARTNAME:;
#STEPSTYPE:dance-single;
#DESCRIPTION:;
#CHARTSTYLE:;
#DIFFICULTY:Hard;
#METER:14;
#RADARVALUES:0.738571,0.805750,0.700000,0.230000,0.000000,517.000000,447.000000,70.000000,23.000000,0.000000,0.000000,0.000000,0.000000,0.000000,0.738571,0.805750,0.700000,0.230000,0.000000,517.000000,447.000000,70.000000,23.000000,0.000000,0.000000,0.000000,0.000000,0.000000;
#CREDIT:;
#DISPLAYBPM:180.000000;
#NOTES:
// measure 0
0000
0000
0000
0000
,  // measure 1
0000
0000
0000
0000
,  // measure 2
0000
0000
0000
0000
,  // measure 3
0000
0000
0000
0000
,  // measure 4
1000
0100
0010
0001
0100
0010
1000
0100
,  // measure 5
0010
0100
1000
0001
0010
0100
0010
0001
,  // measure 6
0100
0000
0000
0100
0010
0000
0000
0010
,  // measure 7
2000
0001
3100
1001
,  // measure 8
0001
0010
0100
1000
0010
0100
0001
0010
,  // measure 9
0100
0010
0001
1000
0100
0010
0100
1000
,  // measure 10
1010
0010
0000
0100
0001
0010
0100
0010
,  // measure 11
0011
0001
0000
1000
0010
0100
0001
1000
,  // measure 12
1100
0100
0000
1000
0001
0010
0100
1000
,  // measure 13
1010
0010
0000
0100
0001
1000
0100
0010
,  // measure 14
0011
0001
0000
1000
1010
0100
0000
0010
,  // measure 15
0101
0001
0000
0100
1001
0010
0000
1000
,  // measure 16
0110
0001
0110
1000
0110
0001
0110
1000
,  // measure 17
0100
0100
0100
0200
0010
0310
0100
0100
,  // measure 18
1000
0001
0010
0100
0001
0100
1000
0001
,  // measure 19
1000
0010
0100
0001
1000
1000
0001
1000
,  // measure 20
0100
1000
0010
0100
0001
0010
0100
1000
,  // measure 21
0002
0100
2003
0100
3002
0010
2003
0010
,  // measure 22
3001
1000
0100
0010
0001
0100
1000
0100
,  // measure 23
0001
0010
0100
1000
0001
0001
1000
0001
,  // measure 24
0100
0010
1000
0100
0010
0100
1000
0001
,  // measure 25
0011
0010
0110
0100
1100
1000
1001
0001
,  // measure 26
1000
0010
0110
0000
0001
0010
0110
0000
,  // measure 27
0100
1000
1001
0000
0100
0001
1001
0000
,  // measure 28
0010
1000
1100
0000
0010
0001
0101
0000
,  // measure 29
0010
1000
0100
0010
0001
1000
1001
0000
,  // measure 30
0001
1000
0110
0000
1000
0001
0110
0000
,  // measure 31
0001
0100
1010
0000
1000
0100
0011
0000
,  // measure 32
0100
1000
0101
0000
0010
0001
1100
0000
,  // measure 33
0001
1000
0010
0100
0001
1000
0001
1000
,  // measure 34
0100
0000
1000
0001
0010
0001
0101
0000
,  // measure 35
0001
0010
0100
1000
1010
0000
0011
0000
,  // measure 36
0110
0000
0001
1000
0010
1000
1100
0000
,  // measure 37
0010
0100
0001
0010
0011
0000
1100
0000
,  // measure 38
2010
0000
3001
0010
0100
0010
0002
0000
,  // measure 39
1003
0100
0010
0100
1100
0000
0011
0000
,  // measure 40
0201
0000
0301
1000
0010
0100
0120
0000
,  // measure 41
1030
0001
0010
0100
1100
0000
1001
0000
,  // measure 42
0001
0000
0001
2000
0001
0000
0001
0000
,  // measure 43
0001
0000
0001
3002
0000
0103
0020
0000
,  // measure 44
1030
0000
1000
0002
1000
0000
1000
0000
,  // measure 45
1000
0000
1000
2003
0000
3100
0020
0000
,  // measure 46
0031
0000
1000
0001
0100
0000
0010
1000
,  // measure 47
0100
0000
1000
0001
0010
0100
1000
0000
,  // measure 48
0010
0000
0100
0001
0010
0000
0001
1000
,  // measure 49
0010
0000
0100
0001
1000
0001
0010
0100
,  // measure 50
0110
0100
1001
1000
,  // measure 51
1010
0010
0101
0001
,  // measure 52
0011
1100
0110
1001
,  // measure 53
0010
0010
0010
0020
0100
0130
0010
0010
,  // measure 54
0001
1000
0100
0010
1000
0010
0001
1000
,  // measure 55
0001
0100
0010
1000
0001
0001
1000
0001
,  // measure 56
0010
0001
0100
0010
1000
0100
0010
0001
,  // measure 57
2000
0010
3002
0010
2003
0100
3002
0100
,  // measure 58
1003
0001
0010
0100
1000
0010
0001
0010
,  // measure 59
1000
0100
0010
0001
1000
1000
0001
1000
,  // measure 60
0010
0100
0001
0010
0100
0010
0001
1000
,  // measure 61
1100
0100
0110
0010
0011
0001
1001
1000
,  // measure 62
0001
0100
0110
0000
1000
0100
0110
0000
,  // measure 63
0010
0001
1001
0000
0010
1000
1001
0000
,  // measure 64
0100
0001
0011
0000
0100
1000
1010
0000
,  // measure 65
0100
0001
0010
0100
1000
0001
1001
0000
,  // measure 66
1000
0001
0110
0000
0001
1000
0110
0000
,  // measure 67
1000
0010
0101
0000
0001
0010
1100
0000
,  // measure 68
0010
0001
1010
0000
0100
1000
0011
0000
,  // measure 69
1000
0001
0100
0010
1000
0001
1000
0001
,  // measure 70
0010
0000
0100
1000
0010
0000
0100
0001
,  // measure 71
0010
2002
0000
0000
,  // measure 72
0000
0000
0000
0000
,  // measure 73
0000
3003
0000
0000
;
