#VERSION:0.83;
#TITLE:Ringside;
#SUBTITLE:;
#ARTIST:Asuka Ito, Masami Yone, Shinji Ushiroda;
#TITLETRANSLIT:;
#SUBTITLETRANSLIT:;
#ARTISTTRANSLIT:;
#GENRE:;
#ORIGIN:;
#TAGS:;
#CREDIT:;
#BANNER:Ringside.png;
#BACKGROUND:Ringside-bg.png;
#PREVIEWVID:;
#JACKET:Ringside-jacket.png;
#CDIMAGE:;
#DISCIMAGE:;
#LYRICSPATH:;
#CDTITLE:cdtitle.png;
#MUSIC:Ringside.ogg;
#OFFSET:-0.521000;
#SAMPLESTART:67.639999;
#SAMPLELENGTH:15.000000;
#SELECTABLE:YES;
#BPMS:0.000000=118.000000
;
#STOPS:;
#DELAYS:;
#WARPS:;
#TIMESIGNATURES:0.000000=4=4
;
#TICKCOUNTS:0.000000=4
;
#COMBOS:0.000000=1
;
#SPEEDS:0.000000=1.000000=0.000000=0
;
#SCROLLS:0.000000=1.000000
;
#LABELS:0.000000=Song Start
;
#BGCHANGES:0.000=Ringside.mp4=1.000=1=0=1===CrossFade==,
99999.000=-nosongbg-=1.000=0=0=0=StretchNoLoop====,
99999=-nosongbg-=1.000=0=0=0 // don't automatically add -songbackground-
;
#KEYSOUNDS:;
#ATTACKS:
;

//---------------dance-single - ----------------
#NOTEDATA:;
#CHARTNAME:;
#CHARTHASH:1516898191;
#STEPSTYPE:dance-single;
#BANNER:;
#DESCRIPTION:;
#CHARTSTYLE:;
#DIFFICULTY:Beginner;
#METER:2;
#METERF:2.000000;
#LASTSECONDHINT:92.046425;
#RADARVALUES:0.124414,0.191172,0.031862,0.180551,0.000000,82.000000,79.000000,3.000000,17.000000,0.000000,0.000000,0.000000,0.000000,0.000000,0.124414,0.191172,0.031862,0.180551,0.000000,82.000000,79.000000,3.000000,17.000000,0.000000,0.000000,0.000000,0.000000,0.000000;
#CREDIT:Supra the Hedgehog;
#NOTES:
0000
0000
0000
0000
,
0000
0000
0000
0000
,
0000
0000
0000
0000
,
0000
0000
0000
0000
,
2000
0000
0000
3000
,
0002
0000
0000
0003
,
0200
0000
0000
0000
,
0000
0000
0000
0300
,
1000
1000
1000
0000
,
0001
0000
1000
0000
,
0001
0001
0001
0000
,
1000
0000
0001
0000
,
0100
0100
0100
0000
,
0010
0000
0100
0000
,
0010
0010
0010
0000
,
0100
0000
1001
0000
,
1000
0001
1000
0000
,
0100
0000
0010
0000
,
0001
1000
0001
0000
,
0100
0000
0010
0000
,
0100
0010
0100
0000
,
0001
0000
1000
0000
,
0100
0010
0100
0000
,
1000
0000
0110
0000
,
1000
1000
1000
0000
,
0001
0001
0001
0000
,
1000
0000
0001
0000
,
0100
0100
0100
0000
,
0001
0001
0001
0000
,
1000
1000
1000
0000
,
0001
0000
1000
0000
,
0100
0100
0100
0100
,
0200
0000
0000
0300
,
2000
0000
0000
3000
,
0002
0000
0000
0003
,
0200
0000
0000
0300
,
0020
0030
0200
0300
,
0002
0000
0000
0003
,
2000
0000
0000
3000
,
0200
0300
0020
0030
,
0002
0000
0000
0003
,
2000
0000
0000
0000
,
0000
0000
0000
3000
,
2002
0000
0000
0000
,
0000
0000
0000
0000
,
3003
0000
0000
0000
;

//---------------dance-single - ----------------
#NOTEDATA:;
#CHARTNAME:;
#CHARTHASH:1264767016;
#STEPSTYPE:dance-single;
#BANNER:;
#DESCRIPTION:;
#CHARTSTYLE:;
#DIFFICULTY:Easy;
#METER:5;
#METERF:5.000000;
#LASTSECONDHINT:92.046425;
#RADARVALUES:0.283724,0.310655,0.318620,0.212413,0.000000,187.000000,157.000000,30.000000,20.000000,0.000000,0.000000,0.000000,0.000000,0.000000,0.283724,0.310655,0.318620,0.212413,0.000000,187.000000,157.000000,30.000000,20.000000,0.000000,0.000000,0.000000,0.000000,0.000000;
#CREDIT:Supra the Hedgehog;
#NOTES:
0000
0000
0000
0000
,
0000
0000
0000
0000
,
0000
0000
0000
0000
,
0000
0000
0000
0000
,
0001
1000
0001
1001
,
1000
0001
1000
0001
,
0100
0010
0100
0110
,
0010
0010
2002
3003
,
0001
0010
0100
1001
,
1000
1000
0220
0330
,
1000
0010
0100
1001
,
0001
0000
0001
0000
1000
0001
1000
0000
,
0001
0100
0010
1001
,
1000
0000
1000
0000
0001
1000
0001
0000
,
1000
0100
0010
1001
,
0001
0001
0220
0330
,
0001
1000
0100
0110
,
0010
0010
2002
3003
,
1000
0001
0100
0110
,
0010
0000
0010
0000
0100
0010
0100
0000
,
0001
1000
0010
0110
,
0100
0100
2002
3003
,
1000
0001
0010
0110
,
0100
0000
0100
0000
0010
0100
0010
0000
,
0001
0001
2002
3003
,
1000
0000
1000
0000
0100
0010
0001
0000
,
1000
0010
0100
0210
,
0010
0010
0010
0310
,
1000
1000
2002
3003
,
0001
0000
0001
0000
0100
0010
1000
0000
,
0001
0001
2002
3003
,
1000
0100
0010
0120
,
0100
0100
0100
0130
,
0001
0010
0100
1001
,
1000
0010
0100
1001
,
0001
1000
0100
0110
,
1000
0000
0001
0000
0100
0010
0100
0000
,
0001
0100
0010
1001
,
1000
0100
0010
1001
,
0001
0000
1000
0000
0010
0100
0010
0000
,
1000
1000
1001
0001
,
0001
1001
0100
0100
,
0110
0010
0010
0110
,
2002
0000
0000
0000
,
0000
0000
0000
0000
,
3003
0000
0000
0000
;

//---------------dance-single - ----------------
#NOTEDATA:;
#CHARTNAME:;
#CHARTHASH:1481402429;
#STEPSTYPE:dance-single;
#BANNER:;
#DESCRIPTION:;
#CHARTSTYLE:;
#DIFFICULTY:Hard;
#METER:12;
#METERF:12.000000;
#LASTSECONDHINT:92.046425;
#RADARVALUES:0.449103,0.597413,0.265517,0.743447,0.297379,296.000000,271.000000,25.000000,70.000000,0.000000,0.000000,0.000000,0.000000,0.000000,0.449103,0.597413,0.265517,0.743447,0.297379,296.000000,271.000000,25.000000,70.000000,0.000000,0.000000,0.000000,0.000000,0.000000;
#CREDIT:Supra the Hedgehog;
#NOTES:
0000
0000
0000
0000
,
0000
0000
0000
0000
,
0000
0000
0000
0000
,
0000
0000
0000
0000
,
0002
0000
0000
2003
0000
0000
3020
0000
0230
0000
0000
0000
0302
0000
0000
0000
,
0023
0000
0130
1000
0100
1000
0000
0010
0000
0000
1000
0000
0002
0000
0000
0000
,
0203
0000
0000
0000
0002
0000
0003
0000
0010
0000
0000
0020
0000
0000
0000
0000
,
0030
0000
0000
0000
2000
0000
3000
0000
0010
0000
0000
0020
0000
0000
0030
0000
,
0301
0001
0010
0100
1000
0000
1010
0010
,
0100
0000
0110
0010
1000
0001
2002
3003
,
1000
1000
0010
0100
0001
0000
0011
0010
,
0100
0000
0110
0010
0001
1000
1001
0000
,
0001
0001
0100
0001
0000
0010
0100
1000
,
1010
0000
0101
0000
1100
0100
1002
0000
,
1003
1000
0100
0010
0001
0100
1000
0100
,
0202
0303
2020
3030
0210
0001
0301
0000
,
1000
0000
1000
0100
0010
0000
0001
0000
0100
0000
0000
0000
0101
0000
0001
1000
,
0010
0000
0000
0000
1010
0000
1000
0001
0100
0000
0001
0010
0001
0010
0001
0010
,
0001
0000
0001
0100
0010
0000
1000
0000
0100
0000
0000
0000
1100
0000
1000
0001
,
0010
0000
0000
0000
0011
0000
0001
1000
0100
0000
1000
0000
1000
0010
0100
0001
,
1000
0000
1000
0010
0100
0000
0001
0000
0000
0000
0010
0000
0100
0000
1000
0000
,
1010
0000
0101
0000
0011
0010
2001
0000
,
3001
0001
0100
0010
1000
0100
0001
0100
,
0000
1000
0010
0100
0002
0000
2003
0000
,
3010
0010
0100
0100
0001
0001
1000
1000
,
0100
0000
0100
0000
0100
0000
0100
0000
0010
0000
0000
0000
0011
0000
0000
0100
,
2000
0000
3020
0000
1030
0100
0000
2000
0000
0000
3001
0000
0100
0002
0000
0000
,
0013
0000
0000
0100
0000
0000
0010
0000
0000
0100
0000
0000
0020
0000
0000
0000
0000
0000
0031
0000
0000
0000
0000
0000
1000
0000
0000
0000
0010
0000
0000
0000
1000
0000
0000
0000
0001
0000
0000
0000
0010
0000
0000
0000
0001
0000
0000
0000
,
0100
0100
0010
0010
1000
1000
0001
0001
,
0010
1000
0010
0001
0010
0000
0100
0000
2000
0000
0000
0000
3001
0000
0000
0100
,
0002
0000
0023
0130
2000
3010
0200
0301
,
0011
0000
1100
2000
0000
3010
0200
0301
,
0020
0000
1000
0000
0100
0000
0001
0030
,
2000
0000
0000
3002
0000
0000
0023
0000
0230
0000
0000
0000
2300
0000
0000
0000
,
3020
0000
0130
0001
0100
0001
0000
0010
0000
0000
0001
0000
2000
0000
0000
0000
,
3200
0000
0000
0320
0000
0000
2030
0000
3002
0000
0000
0203
0000
0000
2300
0000
,
3020
0000
0000
0000
0000
0000
0000
0130
0000
0001
0000
1000
0000
0001
0000
0000
,
2000
0000
0000
3020
0000
0000
0230
0000
0302
0000
0000
0000
0023
0000
0000
0000
,
0230
0000
0000
0000
2300
0000
3010
2000
0000
0000
0000
0000
0000
3002
0000
0000
,
0023
0000
0130
2000
0000
3001
0010
0001
0200
0000
0310
2000
0000
3100
0001
0100
,
1000
0010
1000
0000
0100
1000
0100
0000
0010
0001
0010
0000
0001
0100
0001
0000
,
0020
0000
0000
0000
0002
0000
0003
0000
0100
0000
0000
0200
0000
0000
0000
0000
,
0300
0000
0000
0000
2000
0000
3000
0000
0100
0000
0000
0200
0000
0000
0330
0000
,
2002
0000
0000
0000
,
0000
0000
0000
0000
,
3003
0000
0000
0000
;

//---------------dance-single - ----------------
#NOTEDATA:;
#CHARTNAME:;
#CHARTHASH:228746190;
#STEPSTYPE:dance-single;
#BANNER:;
#DESCRIPTION:;
#CHARTSTYLE:;
#DIFFICULTY:Challenge;
#METER:15;
#METERF:15.000000;
#LASTSECONDHINT:92.046425;
#RADARVALUES:0.678206,0.764688,0.509792,0.212413,0.716895,447.000000,399.000000,48.000000,20.000000,0.000000,0.000000,0.000000,0.000000,0.000000,0.678206,0.764688,0.509792,0.212413,0.716895,447.000000,399.000000,48.000000,20.000000,0.000000,0.000000,0.000000,0.000000,0.000000;
#CREDIT:Supra (Unhinged);
#NOTES:
// measure 0
0000
0000
0000
0000
,  // measure 1
0000
0000
0000
0000
,  // measure 2
0000
0000
0000
0000
,  // measure 3
0000
0000
0000
0000
,  // measure 4
1000
0000
0010
0000
0110
0000
0100
0001
0000
0001
0000
0001
0010
0000
0100
0000
,  // measure 5
0010
0000
0001
0000
0101
0000
0100
0010
0000
0010
0000
0010
1000
0000
0001
0000
,  // measure 6
0001
0000
0100
0000
0110
0000
0010
1000
0000
1000
0000
1000
0100
0000
0010
0000
,  // measure 7
0001
1000
0001
0000
1001
0000
1000
0000
0100
0010
0100
0010
0001
0000
0000
0000
,  // measure 8
1000
0000
1000
0000
0100
0000
0010
0001
0010
0000
0011
0000
0001
0000
0100
0000
,  // measure 9
0010
0000
1010
0000
1000
0000
0001
0100
0001
0010
0001
0000
2001
0000
0100
0000
,  // measure 10
3001
0000
0001
0000
0100
0000
0010
1000
0010
0000
1010
0000
1000
0000
0100
0000
,  // measure 11
0010
0000
0011
0000
0001
0000
1000
0000
0100
1000
0010
0000
1002
0000
0100
0000
,  // measure 12
1003
0000
0001
0000
0010
0000
0100
0010
0100
0000
0110
0000
0010
0000
0001
0000
,  // measure 13
0101
0000
1010
0000
0011
0010
2001
0000
,  // measure 14
3001
0000
0001
0000
1000
0000
0010
0100
0010
0000
0110
0000
0100
0000
0001
0000
,  // measure 15
0011
0000
1000
0000
1100
0000
0010
0100
0010
0000
1001
0000
1001
0000
0000
0000
,  // measure 16
0001
0000
0010
0010
0100
0000
1000
0010
0100
0000
0002
0000
0203
0000
0320
0000
,  // measure 17
1030
0100
1000
0100
1000
0100
1000
0100
1000
0000
0001
0100
0001
0010
0001
0100
,  // measure 18
0001
0000
1000
1000
0100
0000
0010
0001
0100
0000
2000
0000
3200
0000
0320
0000
,  // measure 19
0130
0001
0100
0001
0100
0001
0100
0001
0100
0000
0010
0000
0010
1000
0100
0010
,  // measure 20
0001
0000
0100
0100
0010
0000
1000
0001
1000
0001
1000
0001
1000
0001
1000
0001
,  // measure 21
1000
0000
0000
0000
0011
0000
0000
0000
1010
0000
0010
0000
1000
0001
1000
0001
,  // measure 22
1000
0000
1000
0000
0001
0000
0010
0100
0010
0000
0110
0000
0100
0000
1000
0001
,  // measure 23
1000
0000
1010
0000
0101
0000
0011
0000
1200
0000
0010
0000
0320
0100
0100
0000
,  // measure 24
0031
0100
0001
0010
0100
1000
0010
1000
0001
0000
0010
0100
1000
0100
0010
0001
,  // measure 25
1000
0000
0010
0000
0100
0000
0010
0000
0000
0000
1000
0000
0100
0000
0010
0000
0001
0000
0100
0000
0001
0000
0000
0000
0012
0000
0000
0000
0000
0000
1003
0001
,  // measure 26
1000
0000
1010
0000
0010
0100
0000
0102
0000
0000
0013
0000
0100
2100
0000
0000
,  // measure 27
3010
0000
0000
0100
0000
0000
0001
0000
0000
0100
0000
0000
0020
0000
0000
0000
0000
0000
1030
0000
0000
0000
0000
0000
1100
0000
0000
0000
0100
0000
0000
0000
0110
0000
0000
0000
0010
0000
0000
0000
0011
0000
0000
0000
0001
0000
0000
0000
,  // measure 28
1000
0010
1000
0100
0010
0001
0100
0001
1000
0000
0100
0010
0100
1000
0001
0100
,  // measure 29
0001
0000
0000
0000
0010
0000
0100
0000
1000
0000
0100
0000
0010
0000
0001
0000
0100
0000
0010
0000
1000
0000
0001
0000
0000
0000
0000
0000
0010
0000
0100
0010
,  // measure 30
0100
0000
1000
0001
0010
0001
0000
0001
0100
0000
0001
1000
0010
1000
0000
1000
,  // measure 31
1100
0000
0000
0000
0001
0000
0000
0000
0011
0000
0000
0000
0100
0000
0000
0000
0110
0000
0000
0000
0001
1000
0001
1000
0001
0000
0000
0000
0000
0000
0000
0000
,  // measure 32
0000
0000
0000
0000
0000
0000
1000
0000
0001
0000
1000
0000
0010
0000
0000
0010
0000
0000
0100
0000
0000
0100
0000
0000
,  // measure 33
0001
0000
0010
0000
0110
0000
0100
1000
0000
1000
0000
1000
0010
0000
0100
0000
,  // measure 34
0010
0000
1000
0000
1100
0000
0100
0010
0000
0010
0000
0010
0001
0000
1000
0000
,  // measure 35
1000
0000
0100
0000
0110
0000
0010
0001
0000
0001
0000
0001
0100
0000
0010
0000
,  // measure 36
0100
0000
0001
0000
0011
0000
0000
0110
0000
1100
0000
0011
0000
0201
0000
0000
,  // measure 37
0310
0000
1000
0000
1100
0000
0100
0010
0000
0001
0000
0010
0100
0000
1000
0000
,  // measure 38
0010
0000
0100
0000
0101
0000
0001
0010
0000
0100
0000
0010
0001
0000
1000
0000
,  // measure 39
1000
0000
0010
0000
0100
0000
0001
0010
0000
1000
0000
0010
0100
0000
1000
0001
,  // measure 40
1000
0010
0100
0001
1000
0100
0010
0100
1000
0001
0100
0010
1000
0001
0010
0100
,  // measure 41
2000
0000
0001
0000
0100
0000
0001
0001
0000
0010
0000
0010
0000
0000
0001
0000
,  // measure 42
3002
0000
0000
0000
1000
0000
0000
0000
0100
0000
0000
0000
0000
0000
1000
0000
1003
0000
0010
0000
0100
0010
0100
0010
0100
0000
0000
0000
0000
0000
0000
0000
,  // measure 43
2002
0000
0000
0000
,  // measure 44
0000
0000
0000
0000
,  // measure 45
3003
0000
0000
0000
;

//---------------dance-single - ----------------
#NOTEDATA:;
#CHARTNAME:;
#CHARTHASH:2799548321;
#STEPSTYPE:dance-single;
#BANNER:;
#DESCRIPTION:;
#CHARTSTYLE:;
#DIFFICULTY:Medium;
#METER:9;
#METERF:9.000000;
#LASTSECONDHINT:92.046425;
#RADARVALUES:0.342896,0.406241,0.116827,0.223034,0.090276,226.000000,215.000000,11.000000,21.000000,0.000000,0.000000,0.000000,0.000000,0.000000,0.342896,0.406241,0.116827,0.223034,0.090276,226.000000,215.000000,11.000000,21.000000,0.000000,0.000000,0.000000,0.000000,0.000000;
#CREDIT:Supra the Hedgehog;
#NOTES:
0000
0000
0000
0000
,
0000
0000
0000
0000
,
0000
0000
0000
0000
,
0000
0000
0000
0000
,
1000
0000
0000
0001
0000
0000
0010
0000
0100
0000
0000
0000
1000
0000
0000
0000
,
0020
0100
1000
0130
,
0002
0000
0000
0000
1000
0000
0000
0000
0010
0000
0000
0010
0000
0000
0000
0000
,
0000
0000
0000
0000
1000
0000
0000
0000
0100
0000
0000
0100
0003
0000
0000
0000
,
1000
1000
0100
0010
0001
0000
0000
1000
,
0001
0000
0000
0100
0001
0020
0000
0000
,
0031
0001
0100
0010
1000
0000
0000
0001
,
1000
0000
0000
0100
1000
0020
0000
0000
,
0130
0100
0001
0100
0000
0010
1000
0100
,
0010
0001
0100
0210
,
0310
0010
1000
0010
0100
0001
1000
0100
,
1100
0011
2001
3010
,
1000
0100
1000
0010
0100
0000
0001
0010
,
0100
0000
1000
0100
0010
0001
0100
0100
,
0001
0010
0001
0100
0010
0000
1000
0100
,
0010
0000
0001
0010
0100
1000
0010
0010
,
0100
0001
0100
0010
0000
1000
0100
0010
,
0001
0100
0010
0120
,
0130
0100
0001
0100
0010
1000
0001
0010
,
0000
0100
1000
0001
0200
0000
0320
0000
,
1030
0100
1000
0100
1000
0100
1000
0100
,
0010
0001
0010
0001
0100
0000
0002
0000
,
0103
0000
0010
0000
1000
0001
0000
1000
0000
0000
0010
0000
0000
0010
0000
0000
,
0100
0000
0000
0010
0000
0000
1000
0000
0000
0001
0000
0000
0010
0000
0000
0000
0010
0000
0000
0000
0010
0000
0000
0000
,
0001
0100
0001
0100
0001
0100
0001
0100
,
0010
1000
0100
0010
0002
0000
1003
0000
,
0020
0000
0130
0001
0010
1000
0010
0001
,
0101
1010
1100
0011
,
0220
0000
0000
0330
,
0001
0000
0000
1000
0000
0000
0010
0000
0100
0000
0000
0000
0001
0000
0000
0000
,
0020
0100
0001
0130
,
1000
0000
0000
0001
0000
0000
0010
0000
0100
0000
0000
1000
0000
0000
0010
0000
,
0200
0001
0320
1000
,
0130
0000
0000
0001
0000
0000
1000
0000
0010
0000
0000
0000
0100
0000
0000
0000
,
0010
0000
0000
0000
1000
0000
0001
2000
0000
0000
0000
0000
0000
0000
0000
0000
,
3001
0000
0010
0001
0000
0000
0000
0000
1000
0000
0100
1000
0000
0000
0000
0000
,
0001
0010
0100
1000
0001
0100
0010
1000
,
0002
0000
0000
0000
1000
0000
0000
0000
0100
0000
0000
0100
0000
0000
0000
0000
,
0000
0000
0000
0000
1000
0000
0000
0000
0010
0000
0000
0010
0003
0000
0000
0000
,
2002
0000
0000
0000
,
0000
0000
0000
0000
,
3003
0000
0000
0000
;
