#VERSION:0.83;
#TITLE:RAVEVENGE;
#SUBTITLE:(ft. Aram Zero);
#ARTIST:Alex Moukala;
#TITLETRANSLIT:;
#SUBTITLETRANSLIT:;
#ARTISTTRANSLIT:;
#GENRE:;
#ORIGIN:;
#TAGS:;
#CREDIT:;
#BANNER:RAVEVENGE (ft. Aram Zero).png;
#BACKGROUND:RAVEVENGE (ft. Aram Zero)-bg.png;
#PREVIEWVID:;
#JACKET:RAVEVENGE (ft. Aram Zero)-jacket.png;
#CDIMAGE:;
#DISCIMAGE:;
#LYRICSPATH:;
#CDTITLE:cdtitle.png;
#MUSIC:RAVEVENGE (ft. Aram Zero).ogg;
#OFFSET:-0.001000;
#SAMPLESTART:66.462997;
#SAMPLELENGTH:15.000000;
#SELECTABLE:YES;
#BPMS:0.000000=130.000000
;
#STOPS:142.979172=0.461538
;
#DELAYS:;
#WARPS:;
#TIMESIGNATURES:0.000000=4=4
;
#TICKCOUNTS:0.000000=4
;
#COMBOS:0.000000=1
;
#SPEEDS:0.000000=1.000000=0.000000=0
;
#SCROLLS:0.000000=1.000000
;
#FAKES:;
#LABELS:0.000000=Song Start
;
#BGCHANGES:;
#KEYSOUNDS:;
#ATTACKS:
;

//---------------dance-single - ----------------
#NOTEDATA:;
#CHARTNAME:;
#CHARTHASH:2075102539;
#STEPSTYPE:dance-single;
#BANNER:;
#DESCRIPTION:;
#CHARTSTYLE:;
#DIFFICULTY:Beginner;
#METER:3;
#METERF:3.000000;
#LASTSECONDHINT:114.462540;
#RADARVALUES:0.143785,0.181273,0.075487,0.092262,0.000000,120.000000,111.000000,9.000000,11.000000,0.000000,0.000000,0.000000,0.000000,0.000000,0.143785,0.181273,0.075487,0.092262,0.000000,120.000000,111.000000,9.000000,11.000000,0.000000,0.000000,0.000000,0.000000,0.000000;
#CREDIT:Supra G.L.;
#OFFSET:-0.001000;
#BPMS:0.000000=130.000000
;
#STOPS:142.979172=0.461538
;
#DELAYS:;
#WARPS:;
#TIMESIGNATURES:0.000000=4=4
;
#TICKCOUNTS:0.000000=4
;
#COMBOS:0.000000=1
;
#SPEEDS:0.000000=1.000000=0.000000=0
;
#SCROLLS:0.000000=1.000000
;
#FAKES:;
#LABELS:0.000000=Song Start
;
#NOTES:
// measure 0
0000
0000
0000
0000
,  // measure 1
0000
0000
0000
0000
,  // measure 2
0000
0000
0000
0000
,  // measure 3
0000
0000
0000
0000
,  // measure 4
1000
0000
1000
0000
,  // measure 5
0001
0000
0001
0000
,  // measure 6
0100
0000
0100
0000
,  // measure 7
0010
0000
0010
0000
,  // measure 8
1000
0000
0001
0000
,  // measure 9
1000
0000
0200
0000
,  // measure 10
0000
0000
0000
0000
,  // measure 11
0300
0000
0000
0000
,  // measure 12
0001
0000
1000
0000
,  // measure 13
0001
0000
0100
0000
,  // measure 14
0001
0000
0010
0000
,  // measure 15
0200
0000
0000
0300
,  // measure 16
1000
0000
1000
0000
,  // measure 17
0010
0000
0100
0000
,  // measure 18
0001
0001
0001
0001
,  // measure 19
0002
0000
0000
0003
,  // measure 20
0001
0000
0001
0000
,  // measure 21
0010
0000
0100
0000
,  // measure 22
2000
0000
0000
3000
,  // measure 23
0002
0000
0000
0003
,  // measure 24
1001
0000
0000
0000
,  // measure 25
1001
0000
0000
0000
,  // measure 26
0110
0000
0000
0000
,  // measure 27
0110
0000
0000
0000
,  // measure 28
1000
0000
1000
0000
,  // measure 29
1000
0000
0000
0000
,  // measure 30
0001
0000
0001
0000
,  // measure 31
0001
0000
0000
0000
,  // measure 32
0100
0000
0100
0000
,  // measure 33
0100
0000
0100
0000
,  // measure 34
0010
0000
0010
0000
,  // measure 35
0010
0010
0010
0000
,  // measure 36
1000
1000
1000
1000
,  // measure 37
0000
1000
0000
0001
,  // measure 38
0001
0001
0001
0001
,  // measure 39
0000
0001
0000
0100
,  // measure 40
0100
0100
0100
0100
,  // measure 41
0000
0100
0000
0010
,  // measure 42
0010
0010
0010
0010
,  // measure 43
0000
0010
0000
1000
,  // measure 44
0000
1000
1000
0001
,  // measure 45
0000
0001
0001
0010
,  // measure 46
0000
0010
0000
0100
,  // measure 47
0000
0010
0000
0001
,  // measure 48
0000
0001
0001
1000
,  // measure 49
0000
1000
1000
0010
,  // measure 50
0000
0010
0000
0100
,  // measure 51
0000
0010
0000
1000
,  // measure 52
0000
0001
0000
0110
,  // measure 53
0000
2002
0000
0000
,  // measure 54
0000
0000
3003
0100
,  // measure 55
0100
0100
0000
0001
,  // measure 56
0000
1000
0000
0110
,  // measure 57
0000
2002
0000
0000
,  // measure 58
0000
0000
3003
0010
,  // measure 59
0010
0010
0000
2002
,  // measure 60
0000
0000
0000
0000
,  // measure 61
0000
0000
0000
3003
;

//---------------dance-single - ----------------
#NOTEDATA:;
#CHARTNAME:;
#CHARTHASH:2120833155;
#STEPSTYPE:dance-single;
#BANNER:;
#DESCRIPTION:;
#CHARTSTYLE:;
#DIFFICULTY:Easy;
#METER:7;
#METERF:7.000000;
#LASTSECONDHINT:114.462540;
#RADARVALUES:0.291164,0.362547,0.218073,0.226461,0.000000,243.000000,217.000000,26.000000,27.000000,0.000000,0.000000,0.000000,0.000000,0.000000,0.291164,0.362547,0.218073,0.226461,0.000000,243.000000,217.000000,26.000000,27.000000,0.000000,0.000000,0.000000,0.000000,0.000000;
#CREDIT:Supra G.L.;
#OFFSET:-0.001000;
#BPMS:0.000000=130.000000
;
#STOPS:142.979172=0.461538
;
#DELAYS:;
#WARPS:;
#TIMESIGNATURES:0.000000=4=4
;
#TICKCOUNTS:0.000000=4
;
#COMBOS:0.000000=1
;
#SPEEDS:0.000000=1.000000=0.000000=0
;
#SCROLLS:0.000000=1.000000
;
#FAKES:;
#LABELS:0.000000=Song Start
;
#NOTES:
// measure 0
0000
0000
0000
0000
,  // measure 1
0000
0000
0000
0000
,  // measure 2
0000
0000
0000
0000
,  // measure 3
0000
0000
0000
0000
,  // measure 4
1000
1001
0001
1001
,  // measure 5
0010
0110
0100
0110
,  // measure 6
1000
1100
0001
0011
,  // measure 7
1000
0000
1010
0000
0001
0000
0000
0100
,  // measure 8
0002
0000
0000
0103
0002
0000
0000
0103
,  // measure 9
0010
1000
0002
0100
,  // measure 10
1000
0100
1000
0100
,  // measure 11
1003
0000
0001
0000
0010
0000
0000
0100
,  // measure 12
2000
0000
0000
3100
2000
0000
0000
3100
,  // measure 13
0010
0000
0001
0000
2000
0000
0000
3100
,  // measure 14
1000
0010
0100
0001
,  // measure 15
0020
0100
0001
0130
,  // measure 16
0200
0000
0300
1000
0200
0000
0000
1300
,  // measure 17
0001
0100
0010
1000
,  // measure 18
0002
0010
2003
0100
,  // measure 19
3020
0100
1000
0130
,  // measure 20
0200
0000
0000
0301
0200
0000
0000
0301
,  // measure 21
1000
0100
0010
0001
,  // measure 22
2000
0000
0000
0000
,  // measure 23
0002
0000
0000
3003
,  // measure 24
1000
0000
1000
0000
,  // measure 25
1000
0000
2000
0000
,  // measure 26
3001
0000
0001
0000
,  // measure 27
0001
0000
0002
0000
,  // measure 28
1003
0010
1000
0100
,  // measure 29
0010
0000
0001
1000
,  // measure 30
0001
0010
0001
0100
,  // measure 31
0010
0000
1000
0001
,  // measure 32
0010
0100
0010
0001
,  // measure 33
1000
0000
0010
0100
,  // measure 34
0010
0010
0100
0100
,  // measure 35
0001
1000
0001
1000
0001
0000
1000
0000
,  // measure 36
1010
1000
1010
1000
,  // measure 37
0100
0000
0010
0100
0010
0000
0001
0000
,  // measure 38
0011
0001
0011
0001
,  // measure 39
0100
0000
0010
0100
0010
0000
0100
0000
,  // measure 40
0101
0100
0101
0100
,  // measure 41
0010
0000
1000
0001
0010
0000
0100
0000
,  // measure 42
1100
0100
1100
0100
,  // measure 43
0010
0000
0001
1000
0010
0000
1000
0000
,  // measure 44
1100
0100
1100
1000
,  // measure 45
1100
0100
0010
0001
,  // measure 46
0101
0100
0101
0002
,  // measure 47
1000
0100
1003
0001
,  // measure 48
0011
0010
0011
0001
,  // measure 49
0011
0010
0100
1000
,  // measure 50
1010
0010
1010
1000
,  // measure 51
0001
0000
0100
0010
1000
0000
0002
0000
,  // measure 52
0000
0013
0200
0000
0000
1300
0001
0000
,  // measure 53
0100
0020
1000
0100
,  // measure 54
1000
0100
1000
0130
,  // measure 55
0010
0000
1000
0001
1000
0001
2000
0000
,  // measure 56
0000
3100
0020
0000
0000
0031
1000
0000
,  // measure 57
0010
0200
0010
0001
,  // measure 58
0010
0001
0010
0301
,  // measure 59
1000
0000
0100
0010
0001
0000
2002
0000
,  // measure 60
0000
0000
0000
0000
,  // measure 61
0000
0000
0000
3003
;

//---------------dance-single - ----------------
#NOTEDATA:;
#CHARTNAME:;
#CHARTHASH:2147483647;
#STEPSTYPE:dance-single;
#BANNER:;
#DESCRIPTION:;
#CHARTSTYLE:;
#DIFFICULTY:Medium;
#METER:11;
#METERF:11.000000;
#LASTSECONDHINT:114.462540;
#RADARVALUES:0.433750,0.466132,0.402597,0.889068,0.058712,362.000000,314.000000,48.000000,106.000000,0.000000,0.000000,0.000000,0.000000,0.000000,0.433750,0.466132,0.402597,0.889068,0.058712,362.000000,314.000000,48.000000,106.000000,0.000000,0.000000,0.000000,0.000000,0.000000;
#CREDIT:Supra G.L.;
#OFFSET:-0.001000;
#BPMS:0.000000=130.000000
;
#STOPS:142.979172=0.461538
;
#DELAYS:;
#WARPS:;
#TIMESIGNATURES:0.000000=4=4
;
#TICKCOUNTS:0.000000=4
;
#COMBOS:0.000000=1
;
#SPEEDS:0.000000=1.000000=0.000000=0
;
#SCROLLS:0.000000=1.000000
;
#FAKES:;
#LABELS:0.000000=Song Start
;
#NOTES:
// measure 0
0000
0000
0000
0000
,  // measure 1
0000
0000
0000
0000
,  // measure 2
0000
0000
0000
0000
,  // measure 3
0000
0000
0000
0000
,  // measure 4
1000
0001
1001
0000
0001
1000
1001
0000
,  // measure 5
0100
0010
0110
0000
0010
0100
0110
0000
,  // measure 6
1000
0010
1010
0000
0001
0010
0011
0000
,  // measure 7
0010
0001
0101
0000
0010
1000
0100
0010
,  // measure 8
0002
0000
0103
0100
2000
0000
3100
0100
,  // measure 9
0020
2030
3002
0100
,  // measure 10
1000
0100
1000
0100
,  // measure 11
1003
0000
0001
0000
0010
0000
0100
1000
,  // measure 12
2000
0000
3010
0010
0002
0000
0013
0010
,  // measure 13
0200
0000
0302
0000
2003
0000
0010
3010
,  // measure 14
1000
0100
0001
0100
1000
0010
0001
0010
,  // measure 15
2000
0001
0100
3002
,  // measure 16
0203
0000
0310
1000
0020
0000
0130
0001
,  // measure 17
0100
0000
0001
0000
0010
0000
0100
0000
1000
0010
0000
0100
0000
0010
1000
0000
,  // measure 18
0002
0203
0320
2030
,  // measure 19
3002
0010
1000
0023
,  // measure 20
0230
0000
0310
0001
0020
0000
0130
1000
,  // measure 21
0100
0000
1000
0000
0010
0000
0100
0000
0001
0010
0000
0100
0000
0010
0001
0000
,  // measure 22
2000
0100
0001
0010
,  // measure 23
3002
0100
1000
0010
,  // measure 24
1003
0000
1100
0000
,  // measure 25
0011
0000
2010
0000
,  // measure 26
3001
0000
0101
0000
,  // measure 27
1010
0000
0012
0000
,  // measure 28
1003
0100
1000
0010
1000
0100
0010
0001
,  // measure 29
0001
0000
1000
1000
0001
1000
0010
0100
,  // measure 30
0001
0010
0001
0100
0001
0010
0100
1000
,  // measure 31
1000
0000
0001
0100
0010
1000
0100
0010
,  // measure 32
0100
1000
0001
0100
0001
1000
0010
0100
,  // measure 33
0010
0000
1000
0100
0010
0100
1000
0001
,  // measure 34
0100
0000
0100
0000
0010
0000
0010
1000
,  // measure 35
0001
0001
1000
1000
0100
0100
2002
3003
,  // measure 36
2020
0000
3030
0000
0220
0000
0330
0000
0202
0000
0303
0000
0001
0000
0000
1000
,  // measure 37
0001
0010
1000
0010
0001
1000
2002
3003
,  // measure 38
0022
0000
0033
0000
0220
0000
0330
0000
2200
0000
3300
0000
1000
0000
0000
0001
,  // measure 39
1000
0100
0001
0100
1000
0010
0220
0330
,  // measure 40
0202
0000
0303
0000
2002
0000
3003
0000
2200
0000
3300
0000
0100
0000
0000
0010
,  // measure 41
0100
1000
0010
0001
0010
0100
0220
0330
,  // measure 42
2020
0000
3030
0000
2002
0000
3003
0000
0022
0000
0033
0000
0010
0000
0000
0100
,  // measure 43
0010
0001
0100
1000
0100
0010
2020
3030
,  // measure 44
2200
3300
2020
3030
0100
0001
0202
0303
,  // measure 45
0022
0033
0100
1000
0010
1000
2200
3300
,  // measure 46
0022
0000
0033
0000
0202
0000
0303
0000
2020
0000
3030
0000
1000
0000
0000
0001
,  // measure 47
0000
0010
0100
1000
0010
0100
0202
0303
,  // measure 48
0022
0033
0202
0303
0010
1000
2020
3030
,  // measure 49
2200
3300
0010
0001
0100
0001
0022
0033
,  // measure 50
2200
0000
3300
0000
2020
0000
3030
0000
0202
0000
0303
0000
0001
0000
0000
1000
,  // measure 51
0001
0100
0010
1000
0100
0010
0002
0000
,  // measure 52
0103
0010
2000
0000
3010
0100
0002
0000
,  // measure 53
0023
0230
1000
0001
,  // measure 54
1000
0000
0000
0000
0001
0000
0000
0000
1000
0000
0000
0000
0310
0000
0000
0001
,  // measure 55
0010
0100
1000
0001
0100
0001
2000
0000
,  // measure 56
3100
0010
0002
0000
0013
0100
2000
0000
,  // measure 57
3020
0230
0001
1000
,  // measure 58
0001
0000
0000
0000
1000
0000
0000
0000
0001
0000
0000
0000
0310
0000
0000
1000
,  // measure 59
0010
0100
0001
1000
0001
0000
0220
0000
,  // measure 60
0000
0000
0000
0000
,  // measure 61
0000
0000
0000
0330
;

//---------------dance-single - ----------------
#NOTEDATA:;
#CHARTNAME:;
#CHARTHASH:87931930;
#STEPSTYPE:dance-single;
#BANNER:;
#DESCRIPTION:;
#CHARTSTYLE:;
#DIFFICULTY:Hard;
#METER:16;
#METERF:16.000000;
#LASTSECONDHINT:114.462540;
#RADARVALUES:0.687769,0.932263,0.771644,0.662607,0.067099,574.000000,482.000000,92.000000,79.000000,0.000000,0.000000,0.000000,0.000000,0.000000,0.687769,0.932263,0.771644,0.662607,0.067099,574.000000,482.000000,92.000000,79.000000,0.000000,0.000000,0.000000,0.000000,0.000000;
#CREDIT:Supra G.L.;
#OFFSET:-0.001000;
#BPMS:0.000000=260.000000
;
#STOPS:285.875000=0.461538
;
#DELAYS:;
#WARPS:;
#TIMESIGNATURES:0.000000=4=4
;
#TICKCOUNTS:0.000000=4
;
#COMBOS:0.000000=1
;
#SPEEDS:0.000000=1.000000=0.000000=0
;
#SCROLLS:0.000000=1.000000
;
#FAKES:;
#LABELS:0.000000=Song Start
;
#NOTES:
// measure 0
0000
0000
0000
0000
,  // measure 1
0000
0000
0000
0000
,  // measure 2
0000
0000
0000
0000
,  // measure 3
0000
0000
0000
0000
,  // measure 4
0000
0000
0000
0000
,  // measure 5
0000
0000
0000
0000
,  // measure 6
0000
0000
0000
0000
,  // measure 7
0000
0000
0000
0000
,  // measure 8
1000
0100
1001
1000
,  // measure 9
0001
0100
1001
0001
,  // measure 10
0100
0010
0110
1000
,  // measure 11
0100
0010
0110
0001
,  // measure 12
0010
0100
1100
0001
,  // measure 13
0010
0100
1100
1000
,  // measure 14
0010
0100
0101
1000
,  // measure 15
0010
0000
0010
0000
0010
1000
0100
0010
,  // measure 16
0002
0000
0000
0000
0103
0100
1000
0000
,  // measure 17
0002
0000
0000
0000
0013
0010
1000
0000
,  // measure 18
0200
0000
0320
0000
,  // measure 19
0032
1000
0010
1000
,  // measure 20
0000
0100
1000
0100
,  // measure 21
0000
1000
0010
1000
,  // measure 22
0103
0001
1000
0001
,  // measure 23
0010
0000
0001
0000
1000
0001
0100
0010
,  // measure 24
2000
0000
0000
0000
3100
0100
0001
0000
,  // measure 25
2000
0000
0000
0000
3010
0010
0001
0000
,  // measure 26
0200
0000
0320
0000
,  // measure 27
2030
0000
0001
3010
,  // measure 28
1000
0000
0001
0000
0100
0100
1000
0000
,  // measure 29
0010
0000
0100
0000
0001
0010
0100
1000
,  // measure 30
0002
0000
1000
0000
,  // measure 31
0100
0000
0000
0000
0000
0000
0000
0000
1003
0001
1000
0001
1000
0000
0000
0000
,  // measure 32
0200
0000
0000
0000
0310
0010
1000
0000
,  // measure 33
0020
0000
0000
0000
0130
0100
1000
0000
,  // measure 34
0001
0010
0100
0010
,  // measure 35
0001
0100
0000
0100
0000
1000
0001
0010
,  // measure 36
2000
0100
3002
0100
,  // measure 37
2003
0000
0010
0000
3002
0000
0010
0003
,  // measure 38
2000
0001
0100
0001
,  // measure 39
0000
0000
0000
0000
0010
0000
0000
0000
3001
1000
0001
1000
0001
0000
0000
0000
,  // measure 40
0200
0000
0000
0000
0310
0010
0001
0000
,  // measure 41
0020
0000
0000
0000
0130
0100
0001
0000
,  // measure 42
1000
0100
0010
0100
,  // measure 43
1000
0010
0000
0010
0000
0001
1000
0100
,  // measure 44
0002
0000
1000
0000
,  // measure 45
0010
0000
0000
0000
1003
0100
0010
0001
,  // measure 46
2000
0000
0010
0000
,  // measure 47
3001
0100
0001
0100
0001
1000
0001
1000
0010
1000
0010
1000
,  // measure 48
0001
0001
0001
0001
,  // measure 49
1001
1000
1000
1000
,  // measure 50
1100
0100
0100
0100
,  // measure 51
0010
0100
0010
0100
0010
0100
0010
0100
,  // measure 52
1000
1000
1000
1000
,  // measure 53
1001
0001
0001
0001
,  // measure 54
0101
0100
0100
0100
,  // measure 55
0010
0100
0010
0100
0010
0100
0010
0100
,  // measure 56
0110
0000
0001
0000
0010
0000
0100
0100
,  // measure 57
0001
1000
0010
1010
,  // measure 58
0101
0000
0000
0000
1000
0100
0001
0100
,  // measure 59
1000
0001
0010
0100
,  // measure 60
0110
0000
1000
0000
0010
0000
0100
0100
,  // measure 61
1000
0001
0010
0011
,  // measure 62
1100
0000
0000
0000
0001
0100
1000
0100
,  // measure 63
0001
0010
0100
1000
0001
0000
0100
0000
,  // measure 64
0110
0000
0010
0000
0100
0000
0001
1000
,  // measure 65
1001
0001
0010
0100
,  // measure 66
1100
0000
1000
0001
,  // measure 67
0011
0010
0001
0101
,  // measure 68
1010
0000
1100
0000
,  // measure 69
0011
0000
0101
1001
,  // measure 70
1000
0100
1000
0001
1000
0100
1000
0001
,  // measure 71
0100
0100
1002
0013
,  // measure 72
2001
3100
1002
0013
,  // measure 73
2001
0000
3100
0000
1000
0000
0100
0010
,  // measure 74
0100
1100
1010
0110
,  // measure 75
0101
0011
0210
1300
,  // measure 76
0120
0031
0210
1300
,  // measure 77
0120
0000
0031
0000
0010
0000
0001
1000
,  // measure 78
0001
0101
0110
1010
,  // measure 79
1100
0110
0012
1003
,  // measure 80
0021
0130
0012
1003
,  // measure 81
0021
0000
0130
0000
1000
0000
0010
0100
,  // measure 82
0001
0011
1100
1010
,  // measure 83
0101
1001
2010
3001
,  // measure 84
1020
0130
2010
3001
,  // measure 85
1020
0000
0130
0000
1001
0000
0001
0010
,  // measure 86
0100
0000
0110
0000
0010
0001
0100
0010
,  // measure 87
1000
0001
0012
1003
,  // measure 88
2100
3001
0012
1003
,  // measure 89
0100
0100
0100
0000
1200
0000
0310
0000
,  // measure 90
0021
0000
0130
0000
0010
0010
0010
0000
,  // measure 91
0100
0100
0100
0000
2100
0000
3010
0000
,  // measure 92
0102
0013
2100
3010
,  // measure 93
0102
0000
0013
0000
0002
0000
0000
2003
,  // measure 94
0000
0000
3020
0000
0130
0100
0100
0000
,  // measure 95
0001
1000
2010
3001
,  // measure 96
0102
1003
2010
3001
,  // measure 97
0100
0100
0100
0000
0201
0000
0310
0000
,  // measure 98
1020
0000
0130
0000
0010
0010
0010
0000
,  // measure 99
0100
0100
0100
0000
0102
0000
0013
0000
,  // measure 100
2100
3010
0102
0013
,  // measure 101
2100
0000
3010
0000
1001
0000
1000
0100
,  // measure 102
0010
0000
0110
0000
0100
1000
0010
0100
,  // measure 103
0001
1000
2001
0000
,  // measure 104
3100
0010
0021
0000
,  // measure 105
0130
1000
2020
3030
,  // measure 106
0202
0303
0120
1000
,  // measure 107
0100
1000
0000
0001
,  // measure 108
0100
0001
0000
1000
,  // measure 109
0100
0000
0000
1000
0000
0000
0130
0000
0000
0001
1000
0001
,  // measure 110
1000
0010
0100
0000
0110
0000
0010
0000
,  // measure 111
1010
0000
0000
1000
0001
1000
0002
0000
0000
0000
0000
0000
,  // measure 112
0103
0010
1020
0000
,  // measure 113
0130
0001
0022
0033
,  // measure 114
2200
3300
0120
0001
,  // measure 115
0100
0001
0000
1000
,  // measure 116
0100
1000
0000
0001
,  // measure 117
0100
0000
0001
0000
0230
0000
0000
1300
,  // measure 118
0002
0000
0203
0000
0320
0000
1030
0100
,  // measure 119
0100
0010
2002
0000
,  // measure 120
0000
0000
0000
0000
,  // measure 121
0000
0000
0000
0000
,  // measure 122
0000
0000
0000
0000
,  // measure 123
0000
0000
3003
0000
;
