#TITLE:Programmed Universe;
#SUBTITLE:(BOSS EDIT);
#ARTIST:kors k;
#TITLETRANSLIT:;
#SUBTITLETRANSLIT:;
#ARTISTTRANSLIT:;
#GENRE:;
#CREDIT:;
#BANNER:Programmed Universe (BOSS EDIT).png;
#BACKGROUND:Programmed Universe (BOSS EDIT)-bg.png;
#LYRICSPATH:;
#CDTITLE:cdtitle.png;
#MUSIC:Programmed Universe (BOSS EDIT).ogg;
#OFFSET:0.000000;
#SAMPLESTART:80.001999;
#SAMPLELENGTH:15.000000;
#SELECTABLE:YES;
#DISPLAYBPM:37.000000:147.000000;
#BPMS:0.000000=147.541000
,4.000000=146.938995
,32.000000=147.011002
,65.000000=73.505997
,65.500000=147.011002
,79.500000=73.505997
,80.500000=147.011002
,94.500000=73.504997
,95.500000=147.011002
,121.500000=73.170998
,122.500000=36.735001
,123.500000=73.507004
,139.500000=146.996994
,169.000000=73.499001
,169.500000=146.998993
,199.500000=73.500000
,200.500000=146.998993
;
#STOPS:32.000000=0.409000,
32.750000=0.102000,
33.250000=0.103000,
33.500000=0.102000,
33.750000=0.103000,
167.500000=0.204000,
168.000000=0.204000,
168.500000=0.204000
;
#BGCHANGES:;
#KEYSOUNDS:;
#ATTACKS:;

//---------------dance-single - ----------------
#NOTES:
     dance-single:
     :
     Challenge:
     18:
     0.900467,1.109453,0.399503,0.363991,1.287287,710.000000,665.000000,45.000000,41.000000,0.000000,0.000000,0.900467,1.109453,0.399503,0.363991,1.287287,710.000000,665.000000,45.000000,41.000000,0.000000,0.000000:
// measure 0
0000
0000
0000
0000
,  // measure 1
0000
0000
0000
0000
,  // measure 2
0000
0000
0000
0000
,  // measure 3
0000
0000
0000
0000
,  // measure 4
0000
0000
0000
0000
,  // measure 5
0001
0000
0100
0010
1000
0000
0100
0010
0001
0000
0010
0100
1000
0000
0010
0100
,  // measure 6
0001
0000
1000
0100
0010
0000
0100
0010
0001
0000
0010
0001
1000
0000
0001
1000
,  // measure 7
0100
0000
1000
0010
0100
0000
0002
0000
1000
0000
0000
0000
1000
0000
0003
0000
,  // measure 8
2002
3003
0000
0000
0000
0000
0000
0000
1000
0000
0000
0000
0010
0000
0000
0000
0100
0000
0000
0000
0001
0000
0000
0000
0010
0000
0000
0000
0100
0000
0000
0000
1000
0000
0000
0000
0000
0000
0000
0000
0001
0000
0000
0000
0010
0000
0000
0000
0001
0000
0000
0000
0000
0000
0000
0000
0100
0000
0000
0000
0000
0000
0000
0000
,  // measure 9
0010
1000
0010
0000
0100
0000
1001
0000
0010
0000
1000
0100
0010
0000
0100
1000
,  // measure 10
0000
0001
0010
0100
1100
0000
1001
0000
0001
0000
1000
0100
1000
0000
0010
0000
,  // measure 11
0100
0001
0100
0000
0010
0000
1001
0000
0001
1000
0001
0000
0101
0000
0001
0100
,  // measure 12
1000
0100
0010
0000
1010
0000
1001
0000
0011
0000
1000
0010
0001
0000
0010
0000
,  // measure 13
0001
0000
0000
0100
0000
0000
1000
0000
0000
0000
0000
0000
0100
0000
0000
0000
0000
0000
1001
0000
0000
0000
0000
0000
0010
0000
0000
0000
0000
0000
0001
0000
0000
0010
0000
0000
1000
0000
0000
0000
0000
0000
0010
0000
0001
0000
0010
0000
,  // measure 14
0001
0100
0010
1000
1100
0000
1001
0000
0001
0010
1000
0010
1000
0010
0100
1000
,  // measure 15
0100
0001
0100
0001
0100
0010
0001
1000
0100
1000
0001
0010
1000
0010
0001
1000
,  // measure 16
0100
0001
0100
1000
0002
0000
1003
0100
0000
1000
0010
0000
0100
0001
1000
0100
,  // measure 17
0010
0000
0100
0000
1001
0000
0010
0100
1000
0001
0000
0010
0001
0100
1000
0100
,  // measure 18
0010
0000
0100
0010
1001
0000
1000
0010
0100
0000
1001
0000
0010
1000
0001
0010
,  // measure 19
0100
0000
0000
0000
0010
0000
0000
0000
1001
0000
0000
0000
0100
0000
0010
0000
0001
0000
1000
0000
0000
0000
0010
0000
0100
0000
0001
0000
1000
0010
0100
0001
,  // measure 20
0010
0100
1000
0010
0100
0000
0001
0000
0000
0000
0010
0000
1000
0000
0000
0000
0010
0000
0001
0000
1000
0000
0010
0000
0100
0000
0001
0000
0010
0000
0000
0000
,  // measure 21
1001
0000
0000
0000
0100
0000
0001
0000
0010
0000
0100
0000
0000
0000
1000
0000
0010
0000
1000
0000
0001
0000
0010
0000
0100
1000
0100
0000
1000
0000
0000
0000
,  // measure 22
1001
0000
0001
0100
0010
1000
0001
0000
1000
0100
1001
0000
0001
0100
1001
0000
,  // measure 23
1000
0000
0010
0000
1001
0000
0000
0000
1010
0000
0000
0000
0001
0000
0011
0000
0000
0000
1100
0000
1000
0001
0100
0010
1000
0001
0010
0100
2000
0000
0000
0000
,  // measure 24
3010
0100
0002
0000
1003
0100
0020
0000
0130
1000
0002
0000
0013
0001
0200
0000
,  // measure 25
0310
1000
0002
0000
0103
0010
2000
0000
3100
0010
0200
0000
0310
0100
2000
0000
,  // measure 26
3001
0100
0020
0000
1030
0100
0002
0000
0103
1000
0020
0000
0031
0010
2000
0000
,  // measure 27
3100
0010
0002
0000
0103
1000
0200
0000
0301
0100
0020
0000
1030
0001
0200
0000
,  // measure 28
0000
0000
0320
0000
0030
0220
0000
0000
,  // measure 29
0000
0000
0000
0000
0000
0330
0000
2002
,  // measure 30
0000
0000
0000
0000
0000
0000
0000
0000
0000
0000
0000
0000
0000
3003
1000
0000
,  // measure 31
0001
0000
0000
0000
0100
0000
0000
0000
0202
0000
0000
0000
0000
0000
0000
0000
0000
0000
0000
0000
0000
0000
0000
0000
0300
0000
0000
0000
1003
0010
1000
0010
1000
0000
0000
0000
0010
0000
1000
0000
0100
0000
0000
0000
1000
0000
0000
0000
0002
0000
0000
0000
0000
0000
0000
0000
0203
0000
0000
0000
0010
0000
0000
0000
,  // measure 32
0010
0000
0000
0000
0310
0000
0000
0000
1000
0000
0100
0000
1000
0000
0100
0000
1000
0000
0000
0000
0010
0000
1000
0000
0001
0010
0001
0010
0002
0000
0000
0000
0000
0000
0000
0000
1003
0000
0000
0000
1010
0000
0000
0000
0001
0000
0100
0000
0010
0000
0010
0000
0010
0000
0010
0000
0100
0000
0000
0000
0000
0000
0000
0000
,  // measure 33
0001
0000
0000
0000
1000
0000
0000
0000
2200
0000
0000
0000
0000
0000
0000
0000
0000
0000
0000
0000
0300
0000
0000
0000
0010
0000
0000
0000
0000
0000
0000
0000
3100
0000
0000
0000
0000
0000
0000
0000
1001
0000
0000
0000
0001
0000
0100
0000
0002
0000
0000
0000
1003
0000
0000
0000
0010
0000
0000
0000
0100
0001
0100
0001
,  // measure 34
0100
0000
0000
0000
0010
0000
0000
0000
2020
0000
0000
0000
0000
0000
0000
0000
0000
0000
0000
0000
0000
0000
0000
0000
3000
0000
0000
0000
1030
0100
1000
0100
1000
0000
0000
0000
0010
0000
0000
0000
0100
0000
0000
0000
0002
0000
0000
0000
0000
0000
0000
0000
0000
0000
0000
0000
1003
0000
0000
0000
0000
0000
0000
0000
,  // measure 35
0010
0100
0001
0010
1000
0010
0001
1000
,  // measure 36
0100
0000
0001
0000
0100
0000
1000
0000
0010
0000
0100
0000
0001
0000
1000
0100
,  // measure 37
0010
0001
1000
0010
0001
0010
1000
0010
0100
0001
0100
1000
0100
0001
0100
0010
,  // measure 38
1000
0100
0001
0100
1000
0001
0010
1000
0010
0001
1000
0100
0010
0001
1001
0000
,  // measure 39
0100
1000
0100
0001
0100
0010
1000
0010
0100
0010
0001
0100
0010
1000
1001
0000
,  // measure 40
0010
0100
1000
0010
0100
0001
1001
0000
0010
1000
1001
0000
0010
0001
1001
0000
,  // measure 41
0101
0000
1010
0010
0000
1000
1100
0000
0110
0000
0011
0001
0000
0100
0102
0000
,  // measure 42
2003
0000
0000
0000
3002
0000
0000
0000
1003
0100
0010
0001
1000
0000
0010
0000
0000
0000
1000
0000
0100
0000
0000
0000
0010
0000
0001
0000
0000
0000
1000
0000
,  // measure 43
0001
0000
0100
0010
0100
0000
0001
0010
0000
0001
0100
0000
1000
0100
0000
0010
,  // measure 44
1000
0000
0010
0100
0001
0100
0010
0001
0000
0010
1000
0000
0100
1000
0000
0001
,  // measure 45
0010
0000
0100
0010
0001
0000
0100
0010
0000
1000
0001
0000
1000
0010
0100
0001
,  // measure 46
0010
1000
0010
0100
0001
0010
0100
1000
0000
0010
1000
0000
0100
0001
0000
0100
,  // measure 47
0010
0000
0001
1000
0001
0000
1000
0010
0000
0100
0001
0000
1000
0010
0001
0010
,  // measure 48
0100
0001
1000
0000
0010
1000
0100
0010
0000
0100
1000
0000
0001
0100
0010
1000
,  // measure 49
0000
0100
1000
0010
0001
0010
0100
0001
1000
0001
0010
0100
0010
0100
0020
0030
,  // measure 50
0011
1010
1100
1000
1000
0100
0010
0010
0001
1000
1000
0010
0100
0100
0010
1000
,  // measure 51
0001
0000
0100
0001
0001
0010
0100
0100
1000
0001
0001
0100
0010
0010
1000
0100
,  // measure 52
0001
0000
0100
0010
0010
0001
1000
1000
0010
0100
0100
0001
1000
1000
0001
0010
,  // measure 53
1000
0000
0010
0100
1000
0001
0000
0001
0100
1000
0100
0010
1000
0100
0001
0100
,  // measure 54
0010
0000
0001
0100
1000
0001
0010
1000
0001
0100
1000
0001
0010
1000
0001
0100
,  // measure 55
0010
0000
1000
0100
0001
1000
0010
0001
1000
0100
0001
1000
0010
0001
1000
0100
,  // measure 56
0010
0000
0001
0100
0010
1000
0100
0001
0100
1000
0010
0100
0010
0001
0010
0100
,  // measure 57
1000
0000
0010
0000
0100
0000
0001
0000
0010
0000
1000
0000
0010
0000
0001
0000
0100
0000
0010
0000
1000
0001
1000
0000
0100
0000
0001
0000
0100
0000
1000
0000
,  // measure 58
0001
1000
0001
1000
0001
0000
0000
0000
0000
0000
0000
0000
0000
0000
0000
0000
0000
0000
0000
0000
0000
0000
0000
0000
0000
0000
0000
0000
0000
0000
0000
0000
;
