#VERSION:0.83;
#TITLE:Procyon;
#SUBTITLE:(Supra's Edit);
#ARTIST:矢鴇つかさ;
#TITLETRANSLIT:;
#SUBTITLETRANSLIT:;
#ARTISTTRANSLIT:Tsukasa Yatoki;
#GENRE:;
#ORIGIN:;
#CREDIT:;
#BANNER:Procyon (Supra's Edit).png;
#BACKGROUND:Procyon (Supra's Edit)-bg.png;
#PREVIEWVID:;
#JACKET:Procyon (Supra's Edit)-jacket.png;
#CDIMAGE:;
#DISCIMAGE:;
#LYRICSPATH:;
#CDTITLE:cdtitle.png;
#MUSIC:Procyon (Supra's Edit).ogg;
#OFFSET:0.000000;
#SAMPLESTART:35.813000;
#SAMPLELENGTH:15.000000;
#SELECTABLE:YES;
#BPMS:0.000=160.000;
#STOPS:;
#DELAYS:;
#WARPS:;
#TIMESIGNATURES:0.000=4=4;
#TICKCOUNTS:0.000=4;
#COMBOS:0.000=1;
#SPEEDS:0.000=1.000=0.000=0;
#SCROLLS:0.000=1.000;
#FAKES:;
#LABELS:0.000=Song Start;
#BGCHANGES:;
#KEYSOUNDS:;
#ATTACKS:
;

//---------------dance-single - ----------------
#NOTEDATA:;
#CHARTNAME:;
#STEPSTYPE:dance-single;
#DESCRIPTION:;
#CHARTSTYLE:;
#DIFFICULTY:Beginner;
#METER:2;
#RADARVALUES:0.097807,0.153145,0.000000,0.009009,0.000000,76.000000,76.000000,0.000000,1.000000,0.000000,0.000000,0.000000,0.000000,0.000000,0.097807,0.153145,0.000000,0.009009,0.000000,76.000000,76.000000,0.000000,1.000000,0.000000,0.000000,0.000000,0.000000,0.000000;
#CREDIT:;
#NOTES:
0000
0000
0000
0000
,
0000
0000
0000
0000
,
0000
0000
0000
0000
,
0000
0000
0000
0000
,
0000
0000
0000
0000
,
0000
0000
0000
0000
,
0001
0000
0000
0000
,
0001
0000
0100
0000
,
0001
0000
0000
0000
,
0001
0000
0010
0000
,
0001
0000
0000
0000
,
0001
0000
0100
0000
,
0001
0000
0000
0000
,
0001
0000
0000
0000
,
1000
0000
0000
0000
,
1000
0000
0000
0000
,
1000
0000
0100
0000
,
1000
0000
0000
0000
,
1000
0000
0010
0000
,
1000
0000
0000
0000
,
1000
0000
0100
0000
,
1000
0000
0000
0000
,
2000
0000
0000
0000
,
3000
0000
0000
0000
,
0001
0000
0010
0000
,
0001
0000
0000
0000
,
0001
0000
0001
0000
,
0100
0000
0000
0000
,
0001
0000
0100
0000
,
0001
0000
0000
0000
,
0001
0000
0001
0000
,
0010
0000
0000
0000
,
1000
0000
0010
0000
,
1000
0000
0000
0000
,
1000
0000
1000
0000
,
0100
0000
0000
0000
,
1000
0000
0100
0000
,
1000
0000
0000
0000
,
1000
0000
1000
0000
,
0010
0000
0000
0000
,
0001
0000
0000
0000
,
0000
0000
0000
0000
,
0100
0000
0000
0000
,
0000
0000
0000
0000
,
1000
0000
0000
0000
,
0000
0000
0000
0000
,
0010
0000
0000
0000
,
0000
0000
0000
0000
,
0001
0000
0001
0000
,
0001
0000
0000
0000
,
1000
0000
1000
0000
,
1000
0000
0000
0000
,
1000
0000
0000
0000
,
0000
0000
0000
0000
,
0010
0000
0000
0000
,
0000
0000
0000
0000
,
0001
0000
0000
0000
,
0000
0000
0000
0000
,
0100
0000
0000
0000
,
0000
0000
0000
0000
,
0001
0001
0001
0000
,
0001
0000
0000
0000
,
0010
0000
0001
0000
,
0100
0000
0000
0000
,
1000
1000
1000
0000
,
1000
0000
0000
0000
,
0010
0000
1000
0000
,
0100
0000
0000
0000
,
0100
0000
0000
0000
,
0000
0000
0000
0000
;

//---------------dance-single - ----------------
#NOTEDATA:;
#CHARTNAME:;
#STEPSTYPE:dance-single;
#DESCRIPTION:;
#CHARTSTYLE:;
#DIFFICULTY:Easy;
#METER:6;
#RADARVALUES:0.272830,0.315298,0.117111,0.099094,0.000000,212.000000,199.000000,13.000000,11.000000,0.000000,0.000000,0.000000,0.000000,0.000000,0.272830,0.315298,0.117111,0.099094,0.000000,212.000000,199.000000,13.000000,11.000000,0.000000,0.000000,0.000000,0.000000,0.000000;
#CREDIT:;
#NOTES:
0000
0000
0000
0000
,
0000
0000
0000
0000
,
0000
0000
0000
0000
,
0000
0000
0000
0000
,
0000
0000
0000
0000
,
0000
0000
0000
0000
,
0001
1000
0001
0100
,
0001
1000
0001
0000
,
1000
0001
1000
0100
,
1000
0001
1000
0000
,
0010
1000
0010
0100
,
0010
1000
0010
0000
,
0100
0001
0100
0010
,
0100
0001
0100
0000
,
0001
0010
0100
1000
,
0100
0010
0001
0000
,
1000
0010
0100
0001
,
0100
0010
1000
0000
,
0001
0100
1000
0000
,
1000
0100
0001
0000
,
1000
0100
0001
0000
,
0001
0100
1000
0000
,
1000
0010
0001
0010
,
2000
0000
0000
3000
,
0001
0010
1000
0100
,
0002
1000
1003
0000
,
1000
0010
0001
0100
,
2000
0001
3001
0000
,
0010
1000
0100
0001
,
0020
0100
0130
0000
,
0100
1000
0010
0001
,
0200
0010
0310
0000
,
1000
0010
1000
0010
,
0001
0100
1000
0010
,
0001
0100
0001
0100
,
1000
0010
0001
0100
,
1000
0100
1000
0100
,
0001
0010
1000
0100
,
0001
0010
0001
0010
,
1000
0100
0001
0000
,
2001
0000
0100
0000
,
3001
0000
0000
0000
,
1002
0000
0100
0000
,
1003
0000
0000
0000
,
0001
1000
0001
0000
0100
0000
0000
0000
,
0010
0100
0010
0000
1000
0000
0000
0000
,
1000
0001
1000
0000
0100
0000
0000
0000
,
0010
0100
0010
0000
0001
0000
0000
0000
,
0010
0100
1001
0000
,
0100
0010
1001
0000
,
0110
0000
1001
0000
,
0220
0000
0000
0330
,
1001
0000
0000
0000
,
0110
0000
0000
0000
,
1001
0000
0110
0000
,
1001
0000
0000
0000
,
0001
0010
0100
0000
,
1000
0010
0100
0000
,
0001
0100
0010
1000
,
0001
1000
0001
0000
,
1000
0100
1000
0100
,
0001
0100
0001
0100
,
1000
0010
1000
0010
,
0001
0010
0001
0010
,
1000
0100
0001
0100
,
1000
0010
0001
0010
,
1000
0100
0010
0001
,
0010
0100
1000
0000
,
2002
0000
0000
0000
,
0000
0000
0000
0000
,
3003
0000
0000
0000
,
0000
0000
0000
0000
;

//---------------dance-single - ----------------
#NOTEDATA:;
#CHARTNAME:;
#STEPSTYPE:dance-single;
#DESCRIPTION:;
#CHARTSTYLE:;
#DIFFICULTY:Medium;
#METER:11;
#RADARVALUES:0.391227,0.536007,0.189179,0.198187,0.054051,304.000000,283.000000,21.000000,22.000000,0.000000,0.000000,0.000000,0.000000,0.000000,0.391227,0.536007,0.189179,0.198187,0.054051,304.000000,283.000000,21.000000,22.000000,0.000000,0.000000,0.000000,0.000000,0.000000;
#CREDIT:;
#NOTES:
0000
0000
0000
0000
,
0000
0000
0000
0000
,
0000
0000
0000
0000
,
0000
0000
0000
0000
,
0000
0000
0000
0000
,
0000
0000
0000
0000
,
1000
0000
0100
0000
0010
0001
0010
0000
,
0001
0100
0010
0000
1010
0000
0000
0000
,
0001
0000
0010
0000
0100
1000
0100
0000
,
1000
0010
0100
0000
0101
0000
0000
0000
,
0010
0000
0100
0000
0001
0010
0001
0000
,
0100
0010
1000
0000
1010
0000
0000
0000
,
0100
0000
0010
0000
1000
0100
1000
0000
,
0101
1100
1001
0000
,
0010
1000
0100
0000
0001
0100
1000
0000
,
0001
0100
0001
0000
1000
0000
0000
0000
,
0100
0001
0010
0000
1000
0010
0001
0000
,
1000
0010
1000
0000
0002
0000
0003
0000
,
0100
1000
0010
0000
0001
0010
1000
0000
,
0001
0010
0001
0000
1000
0000
0000
0000
,
0010
0001
0100
0000
1000
0100
0001
0000
,
1000
0100
1000
0000
0001
0000
0000
0000
,
1001
0000
0000
0000
0001
0010
0100
1000
,
0002
0000
0000
0003
,
1000
0000
0000
0010
0000
0000
0100
0000
0000
0000
0001
0000
0010
0000
0200
0000
,
0000
0000
0000
0000
0300
0000
0010
0100
,
0000
1000
0100
0010
0000
0100
0010
0001
,
1000
0010
1000
0001
1000
0000
0000
0000
,
0001
0000
0000
0010
0000
0000
0100
0000
0000
0000
1000
0000
0010
0000
0200
0000
,
0000
0000
0000
0000
0300
0000
0010
0100
,
0000
0000
0100
0000
0001
0000
0100
0000
0010
0000
0000
1000
0000
0000
0020
0000
,
1000
1000
1000
1030
,
0100
0000
0000
0001
0000
0000
0101
0000
0000
0000
0010
0000
0001
0000
2000
0000
,
0000
0000
0000
0000
3000
0000
0100
0001
,
0000
0100
1000
0001
0000
0001
0010
0001
,
1000
0001
0100
0001
1000
0000
0000
0000
,
0001
0000
0000
0010
0000
0000
0011
0000
0000
0000
0100
0000
1000
0000
0002
0000
,
0000
0000
0000
0000
0003
0000
0010
1000
,
0000
0000
0010
0000
0001
0000
1000
0000
0010
0000
0000
0100
0000
0000
0202
0000
,
0000
0000
0000
0303
,
0020
0000
0230
0000
,
0302
0000
0000
0003
,
0020
0000
0230
0000
,
2300
0000
0000
3000
,
0001
0100
0001
0000
0100
1000
0100
0000
,
0001
0010
0001
0000
0010
1000
0010
0000
,
1000
0010
1000
0000
0010
0001
0010
0000
,
1000
0100
1000
0000
0100
0001
0100
1000
,
0100
0100
1000
1000
,
0001
1000
0001
0000
0010
0000
0010
0000
,
0001
0010
0100
0000
1000
0100
0010
0000
,
2002
0000
0000
3003
,
0010
0000
0000
1000
0000
0000
0001
0000
0000
0000
0000
0000
0010
0000
0200
0000
,
0000
0000
0000
0000
0000
0300
0100
0010
,
0000
0000
0001
0100
0000
0001
0010
0100
,
0000
0000
1000
0000
0010
0000
1000
0001
0000
1000
0001
0000
0000
0000
0010
0000
,
0001
0000
0000
1000
0000
0000
0010
0000
0000
0000
1000
0000
0100
0000
0020
0000
,
0000
0000
0000
0000
0000
0030
0001
0100
,
0000
0000
0010
0000
1000
0000
0001
0000
1000
0000
0000
0100
0000
0000
0020
0000
,
0000
0000
0000
0030
,
1000
0010
0100
0001
0100
0010
1000
0001
,
0010
0100
1000
0100
0010
0001
1000
0000
,
0010
1000
0100
0010
0001
0100
0010
1000
,
0010
0010
1000
1000
0001
0001
0100
0000
,
0110
1010
0101
0101
,
0011
1001
0110
1001
,
1000
0000
0010
0000
0100
0000
0001
0000
1000
0000
0000
0100
0000
0000
0110
0000
,
0000
0010
0100
1000
0010
0100
0001
0000
,
2002
0000
0000
0000
,
0000
0000
0000
0000
,
3003
0000
0000
0000
,
0000
0000
0000
0000
;

//---------------dance-single - ----------------
#NOTEDATA:;
#CHARTNAME:;
#STEPSTYPE:dance-single;
#DESCRIPTION:;
#CHARTSTYLE:;
#DIFFICULTY:Hard;
#METER:15;
#RADARVALUES:0.629310,0.725186,0.162153,0.054051,0.585554,489.000000,471.000000,18.000000,6.000000,0.000000,0.000000,0.000000,0.000000,0.000000,0.629310,0.725186,0.162153,0.054051,0.585554,489.000000,471.000000,18.000000,6.000000,0.000000,0.000000,0.000000,0.000000,0.000000;
#CREDIT:;
#NOTES:
0000
0000
0000
0000
,
0000
0000
0000
0000
,
0000
0000
0000
0000
,
0000
0000
0000
0000
,
0000
0000
0000
0000
,
0000
0000
0000
0000
,
1000
0000
0000
0001
0100
0000
0010
0000
1000
0000
0100
0000
0001
0000
0100
0000
,
1000
0000
0000
0001
0100
0000
0010
0000
1000
0100
1000
0000
0001
0100
0001
0000
,
0010
0000
0000
0100
1000
0000
0001
0000
0010
0000
1000
0000
0010
0000
0001
0000
,
1000
0000
0000
0010
0100
0000
0001
0000
1000
0010
1000
0000
0001
0010
0001
0000
,
0100
0000
0000
0010
1000
0000
0001
0000
0010
0000
0100
0000
0001
0000
0100
0000
,
0010
0000
0000
0001
1000
0000
0010
0000
1000
0010
1000
0000
0100
1000
0100
0000
,
1000
0000
0000
0001
0010
0000
0100
0000
0001
0000
0100
0000
0010
0000
0001
0000
,
1000
0000
0000
0010
0100
0000
0000
0001
1000
0001
1000
0000
0100
0000
0000
0000
,
1000
0010
1000
0010
0100
0001
0100
0010
,
1000
0000
0001
0010
0000
0100
0000
0010
0001
0000
1000
0000
0001
0000
0100
0000
,
0010
1000
0010
1000
0001
0100
0010
0100
,
0001
0000
1000
0100
0000
0010
0000
0100
1000
0000
0001
0000
1001
0000
0000
0000
,
0001
0010
1000
0010
0001
0010
0100
1000
,
0001
0000
0100
0010
0000
1000
0000
0010
0100
0000
0001
0000
0010
0000
0100
0000
,
1000
0010
0001
0010
1000
0010
0100
0001
,
1000
0000
0100
0010
0000
0001
0000
0010
0100
0000
1000
0000
0001
0000
0100
0000
,
0001
0000
0000
0000
0000
0000
0000
0000
1000
0100
0010
0001
1000
0100
0010
0001
,
2000
0000
0000
0000
0000
0000
0000
0000
3000
0000
0000
0000
0001
1000
0001
0000
,
1000
0000
0000
0001
0100
0000
0001
0000
0000
0000
0000
0000
0010
0000
0100
0000
,
1000
0010
0100
0000
0001
0100
0010
0000
1000
0100
0010
0000
0001
0000
0010
0000
,
0000
0000
0001
0100
0000
0001
0010
0100
,
0000
0000
1000
0000
0010
0000
1000
0001
0000
1000
0001
0000
0000
0000
0010
0000
,
0001
0000
0000
1000
0010
0000
1000
0000
0000
0000
0000
0000
0100
0000
0010
0000
,
0001
0100
0010
0000
1000
0010
0100
0000
0001
0010
0100
0000
1000
0000
0100
0000
,
0000
0000
0000
0000
1000
0000
0010
0000
1000
0000
0100
0010
0000
0100
0010
0000
,
0011
0000
0000
0000
1001
0000
0000
0000
0001
0010
0001
0000
1000
0100
1000
0000
,
0001
0000
0000
0100
0010
0000
1000
0000
0000
0000
0000
0000
0010
0000
0100
0000
,
0010
1000
0100
0000
0010
0001
0100
0000
0010
1000
0100
0000
0010
0000
0001
0000
,
0000
0000
1000
0100
0000
0001
0100
1000
,
0000
0000
0001
0000
0100
0000
1000
0100
0000
0001
0100
0000
0000
0000
0010
0000
,
1010
0000
0000
0000
0011
0000
0000
0000
1100
0000
0000
0000
0101
0000
1000
0100
,
0010
0000
0000
0000
0011
0000
0000
0000
0101
0000
0000
0000
1100
0000
0001
0100
,
0010
0000
0000
0000
1100
0000
0001
0010
0100
0000
0000
0101
0000
0000
1000
0010
,
0100
0010
0000
0010
0000
0010
0000
0010
1000
0001
1000
0001
0000
0000
0000
0000
,
0100
0000
0000
0000
0000
0000
0010
0000
1000
0000
0000
1000
0000
0000
2000
0000
,
0001
0000
0000
0001
0000
0000
3001
0000
0000
0000
0100
0000
0000
0000
0100
0010
,
0100
0000
0000
0100
0000
0000
0200
0000
0001
0000
0000
0001
0000
0000
0302
0000
,
0010
0000
0000
0010
0000
0000
0013
0000
0100
1000
0100
1000
0000
0000
0001
0000
,
1000
0100
1000
0100
0001
0100
0001
0100
,
1000
0100
1000
0100
0000
0000
0100
0000
0010
0000
0000
0010
0000
0000
0001
0010
,
0100
0000
0000
1000
0000
0000
0100
0000
0010
0000
0000
0001
0000
0000
1000
0000
,
0010
0000
0000
1000
0000
0000
0010
0000
0100
0000
0000
0001
0000
0000
0010
0000
,
0100
0100
0100
0100
,
1000
0001
1000
0000
0100
0000
0000
0000
0100
0000
0000
0000
0100
0000
0000
0000
,
0001
0000
0010
0000
0001
0000
0010
0000
0100
1000
0100
1000
0100
1000
0100
0010
,
0002
0000
0000
0000
0003
0000
0000
0001
,
1000
1001
0000
0000
0000
0000
0000
0000
,
0010
0110
0000
0000
0000
0000
0000
0000
,
0100
0110
0000
0000
0000
0000
0000
1001
,
0000
0000
0001
0000
0100
0000
0010
1000
0000
0010
0001
0000
0010
0000
0000
0000
,
1000
0000
0000
0100
0010
0000
0100
0000
0000
0000
0000
0000
1000
0000
0001
0000
,
0100
0000
0010
0000
1000
0000
0001
0100
0000
0100
0010
0000
1000
0000
0100
0000
,
0001
0000
0000
0000
0001
0000
0100
0000
1000
0000
0000
1010
0000
0000
0110
0000
,
0000
0000
0010
0000
1000
0000
0100
0000
0010
0001
0010
0000
0100
0000
0000
0000
,
0001
0000
1000
0100
1000
0000
0010
0000
0100
0000
0001
0100
0000
0010
0000
1000
,
0000
0010
0100
0000
0001
0010
0000
0100
0000
1000
0100
0000
0010
0001
0010
0000
,
0001
0000
0100
0000
1000
0000
0001
0100
0000
1000
0000
0001
0100
0000
1000
0100
,
1000
0100
0010
0001
0000
1000
0000
0010
0000
0100
0000
0001
0010
0100
1000
0000
,
0010
0000
0000
0100
0000
0000
0010
0000
1000
0000
0010
0001
0000
0010
1000
0000
,
0000
0000
0010
1000
0010
0100
0010
0100
0001
0100
0001
0100
0001
1000
0001
1000
,
0001
0000
0000
1000
0000
0000
0100
0000
0010
0000
0000
0001
0000
0000
1000
0000
,
0000
0001
0100
0000
0010
1000
0000
0100
0010
0001
1000
0000
0001
1000
0001
1000
,
0002
0000
0000
0000
,
0000
0000
0000
0000
,
0003
0000
0000
0000
;

//---------------dance-double - ----------------
#NOTEDATA:;
#CHARTNAME:;
#STEPSTYPE:dance-double;
#DESCRIPTION:;
#CHARTSTYLE:;
#DIFFICULTY:Easy;
#METER:6;
#RADARVALUES:0.268969,0.315298,0.108102,0.108102,0.000000,209.000000,197.000000,12.000000,12.000000,0.000000,0.000000,0.000000,0.000000,0.000000,0.268969,0.315298,0.108102,0.108102,0.000000,209.000000,197.000000,12.000000,12.000000,0.000000,0.000000,0.000000,0.000000,0.000000;
#CREDIT:;
#NOTES:
00000000
00000000
00000000
00000000
,
00000000
00000000
00000000
00000000
,
00000000
00000000
00000000
00000000
,
00000000
00000000
00000000
00000000
,
00000000
00000000
00000000
00000000
,
00000000
00000000
00000000
00000000
,
00000001
00000010
00000001
00000010
,
00000100
00000010
00000100
00000000
,
00000010
00000100
00000010
00000100
,
00010000
00001000
00010000
00000000
,
00001000
00010000
00001000
00010000
,
01000000
00010000
01000000
00000000
,
00100000
01000000
00100000
01000000
,
10000000
01000000
10000000
00000000
,
00010000
00100000
01000000
10000000
,
01000000
00100000
00010000
00000000
,
10000000
00100000
01000000
00100000
,
10000000
00010000
00100000
00000000
,
00010000
00100000
00001000
00000000
,
00001000
00010000
00000010
00000000
,
00000010
00001000
00000100
00000000
,
00000100
00000010
00000001
00000000
,
00000001
00000100
00001000
00010000
,
00002000
00000000
00000000
00003000
,
00010000
00100000
10000000
01000000
,
20000000
00010000
30010000
00000000
,
10000000
00100000
00010000
00001000
,
00020000
00001000
00031000
00000000
,
00001000
00010000
00001000
00000100
,
00000002
00000100
00000103
00000000
,
00000001
00000100
00000001
00000010
,
00002000
00010000
00013000
00000000
,
00010000
00100000
10000000
00100000
,
10000000
01000000
00010000
01000000
,
00010000
00001000
00000010
00001000
,
00000010
00000001
00000200
00000300
,
00000001
00000100
00001000
00000100
,
00001000
00010000
00100000
00010000
,
00100000
10000000
01000000
10000000
,
01000000
00010000
00001000
00000000
,
00012000
00000000
00010000
00000000
,
00013000
00000000
00000000
00000000
,
00021000
00000000
00001000
00000000
,
00031000
00000000
00000000
00000000
,
00000100
00001000
00000100
00000000
00000010
00000000
00000000
00000000
,
00000001
00000100
00000001
00000000
00000100
00000000
00000000
00000000
,
00001000
00010000
00001000
00000000
00010000
00000000
00000000
00000000
,
00100000
01000000
00100000
00000000
10000000
00000000
00000000
00000000
,
10000000
01000000
00110000
00000000
,
00100000
00010000
00011000
00000000
,
00001100
00000000
00000011
00000000
,
00002002
00000000
00000000
00003003
,
00000110
00000000
00000000
00000000
,
00011000
00000000
00000000
00000000
,
01100000
00000000
00000000
00000000
,
10010000
00000000
00000000
00000000
,
10000000
00100000
00010000
00000000
,
00001000
00000100
00000001
00000000
,
00000001
00000010
00000001
00000010
,
00001000
00010000
00001000
00000000
,
00010000
00100000
10000000
01000000
,
00001000
01000000
00010000
01000000
,
00010000
00010000
00001000
00001000
,
00010000
00001000
00000010
00001000
,
00000010
00000001
00000100
00001000
,
00000100
00010000
00000100
00001000
,
00000100
00000010
00001000
00000100
,
00010000
00001000
00010000
00000000
,
00022000
00000000
00000000
00000000
,
00000000
00000000
00000000
00000000
,
00033000
00000000
00000000
00000000
,
00000000
00000000
00000000
00000000
;

//---------------dance-double - ----------------
#NOTEDATA:;
#CHARTNAME:;
#STEPSTYPE:dance-double;
#DESCRIPTION:;
#CHARTSTYLE:;
#DIFFICULTY:Medium;
#METER:11;
#RADARVALUES:0.386080,0.536007,0.153145,0.171162,0.054051,300.000000,283.000000,17.000000,19.000000,0.000000,0.000000,0.000000,0.000000,0.000000,0.386080,0.536007,0.153145,0.171162,0.054051,300.000000,283.000000,17.000000,19.000000,0.000000,0.000000,0.000000,0.000000,0.000000;
#CREDIT:;
#NOTES:
00000000
00000000
00000000
00000000
,
00000000
00000000
00000000
00000000
,
00000000
00000000
00000000
00000000
,
00000000
00000000
00000000
00000000
,
00000000
00000000
00000000
00000000
,
00000000
00000000
00000000
00000000
,
00000001
00000000
00000010
00000000
00000100
00001000
00000100
00000000
,
00001000
00000100
00010000
00000000
00011000
00000000
00000000
00000000
,
00001000
00000000
00100000
00000000
00010000
00100000
00010000
00000000
,
10000000
00100000
10000000
00000000
10010000
00000000
00000000
00000000
,
10000000
00000000
01000000
00000000
00100000
00010000
00100000
00000000
,
00010000
00100000
00001000
00000000
00011000
00000000
00000000
00000000
,
00010000
00000000
00000100
00000000
00001000
00000100
00001000
00000000
,
00001100
00000110
00001001
00000000
,
00000001
00000010
00000001
00000000
00000100
00000010
00000100
00000000
,
00000010
00001000
00000100
00000000
00010000
00000000
00000000
00000000
,
00001000
00010000
00001000
00000000
01000000
00010000
01000000
00000000
,
00010000
01000000
00100000
00000000
20000000
00000000
30010000
00000000
,
10000000
00100000
10000000
00000000
01000000
00100000
01000000
00000000
,
00100000
00010000
01000000
00000000
00001000
00000000
00000000
00000000
,
00010000
00001000
00010000
00000000
00000100
00001000
00000100
00000000
,
00001000
00000100
00000010
00000000
00000001
00000000
00000000
00000000
,
00000110
00000000
00000000
00000000
00000001
00000010
00000100
00001000
,
00000002
00000000
00000000
00000003
,
00001000
00000000
00000000
00000010
00000000
00000000
00001000
00000000
00000000
00000000
00000100
00000000
00010000
00000000
00002000
00000000
,
00000000
00000000
00000000
00000000
00003000
00000000
00010000
00000100
,
00000000
00001000
00000100
00010000
00000000
00001000
01000000
00010000
,
01000000
00100000
10000000
00100000
01000000
00000000
00000000
00000000
,
00010000
00000000
00000000
01000000
00000000
00000000
00010000
00000000
00000000
00000000
00100000
00000000
00001000
00000000
00020000
00000000
,
00000000
00000000
00000000
00000000
00030000
00000000
00001000
00100000
,
00000000
00000000
00010000
00000000
00100000
00000000
00001000
00000000
00010000
00000000
00000000
00001000
00000000
00000000
00000010
00000000
,
00000001
00000100
00000001
00001000
,
00000001
00000000
00000000
00000010
00000000
00000000
00000100
00000000
00000000
00000000
00001000
00000000
00000100
00000000
00020000
00000000
,
00000000
00000000
00000000
00000000
00030000
00000000
00000100
00001000
,
00000000
00000100
00010000
00001000
00000000
00010000
00001000
00100000
,
00010000
10000000
00100000
10000000
00010000
00000000
00000000
00000000
,
10000000
00000000
00000000
00100000
00000000
00000000
01000000
00000000
00000000
00000000
00010000
00000000
01000000
00000000
00002000
00000000
,
00000000
00000000
00000000
00000000
00003000
00000000
01000000
00010000
,
00000000
00000000
01000000
00000000
00001000
00000000
00010000
00000000
00001000
00000000
00000000
00010000
00000000
00000000
00000010
00000000
,
00000100
00000001
00000010
00000100
00001000
00000000
00000000
00000000
,
00000200
00000000
00020300
00000000
,
00032000
00000000
00000000
00000000
,
00023000
00000000
00032000
00000000
,
00203000
00000000
00300000
00000000
,
01000000
10000000
01000000
00000000
10000000
00100000
10000000
00000000
,
00010000
01000000
00010000
00000000
00100000
00010000
00100000
00000000
,
00001000
00010000
00001000
00000000
00010000
00001000
00010000
00000000
,
00000100
00001000
00000100
00000000
00001000
00000010
00001000
00000000
,
00000100
00000100
00000001
00000001
,
00000010
00000100
00000010
00000000
00000001
00000000
00000001
00000000
,
00001000
00000010
00001000
00000000
00000100
00010000
00001000
00000000
,
00022000
00000000
00000000
00033000
,
00010000
00000000
00000000
00100000
00000000
00000000
01000000
00000000
00000000
00000000
00000000
00000000
00100000
00000000
02000000
00000000
,
00000000
00000000
00000000
00000000
03000000
00000000
01000000
00100000
,
00000000
00000000
10000000
01000000
00000000
00100000
00010000
00100000
,
00000000
00000000
00001000
00000000
00010000
00000000
00001000
00010000
00000000
00001000
00010000
00000000
00000000
00000000
00000000
00000000
,
00001000
00000000
00000000
00000100
00000000
00000000
00000010
00000000
00000000
00000000
00000000
00000000
00000100
00000000
00000020
00000000
,
00000000
00000000
00000000
00000000
00000030
00000000
00000010
00000100
,
00000000
00000000
00000000
00000000
00000001
00000000
00000010
00000000
00000100
00000000
00000000
00001000
00000000
00000000
00000200
00000000
,
00000000
00000000
00000000
00000300
,
00000010
00000001
00001000
00000010
00001000
00000100
00010000
00000000
,
00001000
01000000
00010000
01000000
00100000
10000000
01000000
00000000
,
00100000
00010000
10000000
00100000
01000000
00010000
00100000
00000000
,
00001000
00010000
00000100
00001000
00000010
00000100
00000001
00000000
,
00000110
00000101
00001010
00001100
,
00011000
01010000
01100000
10100000
,
10000000
00000000
01000000
00000000
00100000
00000000
00001000
00000000
00010000
00000000
00000000
00010000
00000000
00000000
00010000
00000000
,
00000000
00000100
00001000
00000100
00000010
00000001
00000010
00000000
,
00000220
00000000
00000000
00000000
,
00000000
00000000
00000000
00000000
,
00000330
00000000
00000000
00000000
,
00000000
00000000
00000000
00000000
;

//---------------dance-double - ----------------
#NOTEDATA:;
#CHARTNAME:;
#STEPSTYPE:dance-double;
#DESCRIPTION:;
#CHARTSTYLE:;
#DIFFICULTY:Hard;
#METER:15;
#RADARVALUES:0.639605,0.725186,0.171162,0.036034,0.590058,497.000000,478.000000,19.000000,4.000000,0.000000,0.000000,0.000000,0.000000,0.000000,0.639605,0.725186,0.171162,0.036034,0.590058,497.000000,478.000000,19.000000,4.000000,0.000000,0.000000,0.000000,0.000000,0.000000;
#CREDIT:;
#NOTES:
00000000
00000000
00000000
00000000
,
00000000
00000000
00000000
00000000
,
00000000
00000000
00000000
00000000
,
00000000
00000000
00000000
00000000
,
00000000
00000000
00000000
00000000
,
00000000
00000000
00000000
00000000
,
00000001
00000000
00000000
00000001
00000100
00000000
00000010
00000000
00001000
00000000
00000100
00000000
00010000
00000000
00001000
00000000
,
00100000
00000000
00000000
00100000
00010000
00000000
01000000
00000000
00100000
10000000
00100000
00000000
10000000
01000000
10000000
00000000
,
01000000
00000000
00000000
01000000
00010000
00000000
01000000
00000000
00100000
00000000
00001000
00000000
00010000
00000000
00001000
00000000
,
00010000
00000000
00000000
00010000
00000100
00000000
00000010
00000000
00000001
00000010
00000001
00000000
00000100
00000001
00000100
00000000
,
00000010
00000000
00000000
00000010
00001000
00000000
00000100
00000000
00000010
00000000
00001000
00000000
00010000
00000000
01000000
00000000
,
00100000
00000000
00000000
00100000
00010000
00000000
10000000
00000000
00010000
00100000
00010000
00000000
01000000
00010000
01000000
00000000
,
00100000
00000000
00000000
00100000
10000000
00000000
01000000
00000000
00010000
00000000
01000000
00000000
00100000
00000000
00001000
00000000
,
00010000
00000000
00000000
00000100
00010000
00000000
00000000
00000100
00000010
00000100
00000010
00000000
00000001
00000000
00000000
00000000
,
00000001
00000010
00000001
00000010
00000100
00001000
00000010
00001000
,
00000100
00000000
00010000
00001000
00000000
00001000
00000000
00001000
00010000
00000000
00000100
00000000
00010000
00000000
00000000
00000000
,
00001000
00100000
00010000
00100000
00001000
01000000
00010000
10000000
,
00100000
00000000
10000000
01000000
00000000
01000000
00000000
01000000
00100000
00000000
00000000
00000000
10010000
00000000
00000000
00000000
,
10000000
01000000
10000000
01000000
00100000
00010000
01000000
00010000
,
00100000
00000000
00001000
00010000
00000000
00010000
00000000
00010000
00001000
00000000
00100000
00000000
00001000
00000000
00000000
00000000
,
00010000
00000100
00001000
00000100
00010000
00000010
00001000
00000001
,
00000100
00000000
00000001
00000010
00000000
00000010
00000000
00000010
00000100
00000000
00001000
00000000
00000100
00000000
00010000
00000000
,
00001000
00000000
00000000
00000000
00000000
00000000
00000000
00000000
00010000
00001000
01000000
00001000
00010000
00001000
01000000
00001000
,
00020000
00000000
00030000
00011000
,
00001000
00000000
00000000
00001000
00000010
00000000
00000001
00000000
00000000
00000000
00000001
00000000
00000010
00000000
00001000
00000000
,
00010000
00000100
00010000
00000000
00001000
00010000
00001000
00000000
00010000
00100000
00010000
00000000
00100000
00000000
10000000
00000000
,
00000000
00000000
01000000
00010000
00000000
00010000
01000000
00100000
,
00000000
00000000
00001000
00000000
01000000
00000000
10000000
01000000
00000000
00010000
01000000
00000000
01100000
00000000
00000000
00000000
,
00010000
00000000
00000000
00010000
01000000
00000000
10000000
00000000
00000000
00000000
10000000
00000000
01000000
00000000
00010000
00000000
,
00001000
00100000
00001000
00000000
00010000
00001000
00010000
00000000
00001000
00000100
00001000
00000000
00000100
00000000
00000001
00000000
,
00000000
00000000
00000000
00000000
00000010
00000000
00001000
00000000
00010000
00000000
00001000
00000010
00000000
00000010
00000100
00000000
,
00001000
00000001
00000100
00000000
00000001
00001000
00000100
00000000
00000010
00000001
00001000
00000000
00001001
00000000
00000000
00000000
,
00000100
00000000
00000000
00000010
00010000
00000000
00001000
00000000
00000000
00000000
00000000
00000000
00010000
00000000
00001000
00000000
,
00010000
00100000
00010000
00001000
00000010
00001000
00010000
00100000
,
10000000
00000000
10000000
01000000
00000000
00010000
00001000
00000010
,
00000000
00000000
00001000
00000000
00010000
00000000
01000000
10000000
00000000
01000000
00010000
00000000
00000000
00000000
00100000
00000000
,
00110000
00000000
00000000
00000000
10100000
00000000
00000000
00000000
11000000
00000000
00000000
00000000
01010000
00000000
10000000
01000000
,
00100000
00000000
00000000
00000000
00110000
00000000
00000000
00000000
00011000
00000000
00000000
00000000
00001100
00000000
00000001
00000100
,
00000010
00000000
00000000
00000000
00001010
00000000
00000100
00010000
00001000
00000000
00000000
00011000
00000000
00000000
00100000
00010000
,
10000000
00100000
00000000
00100000
00000000
00100000
00000000
00100000
02000000
00000000
00000000
00000000
03000000
00000000
00000000
00000000
,
01000000
00000000
00000000
00000000
00000000
00000000
00100000
00000000
00001000
00000000
00000000
00010000
00000000
00000000
00001000
00000000
,
00000100
00000000
00000000
00000001
00000000
00000000
00000100
00000000
00000000
00000000
00001001
00000000
00000000
00000000
00000010
00000100
,
00000010
00000000
00000000
00000010
00000000
00000000
00000010
00000000
00001000
00000000
00000000
00001000
00000000
00000000
00001000
00000000
,
00010000
00000000
00000000
00010000
00000000
00000000
00010000
00000000
01000000
00100000
01000000
00100000
00000000
00000000
10000000
00000000
,
01000000
00100000
01000000
00010000
00001000
00000100
00000010
00001000
,
00000001
00000010
00000001
00000010
00000000
00000000
00000010
00000000
00000100
00000000
00000000
00010000
00000000
00000000
00001000
00010000
,
00001000
00000000
00000000
00100000
00000000
00000000
00010000
00000000
01000000
00000000
00000000
00010000
00000000
00000000
10000000
00000000
,
00100000
00000000
00000000
00010000
00000000
00000000
00001000
00000000
00000100
00000000
00000000
00000001
00000000
00000000
00001000
00000000
,
00000010
00000100
00000010
00000000
00000001
00000100
00001000
00010000
,
00100000
01000000
00100000
00000000
01000000
00000000
00000000
00000000
00100000
00000000
10000000
00000000
01000000
00000000
00000000
00000000
,
10000000
00000000
01000000
00000000
10000000
00000000
01000000
00000000
00100000
00010000
00100000
00001000
00010000
00001000
00010000
00000100
,
00000020
00000000
00000000
00000030
,
00000010
00001001
00000000
00000000
00000000
00000000
00000000
00000000
,
01000000
10010000
00000000
00000000
00000000
00000000
00000000
00000000
,
00001000
00000110
00000000
00000000
00000000
00000000
00010000
01100000
,
00000000
00000000
00100000
00000000
00010000
00000000
00100000
00010000
00000000
00001000
00010000
00000000
00011000
00000000
00000000
00000000
,
00001000
00000000
00000000
00001000
00000010
00000000
00000001
00000000
00000000
00000000
00000001
00000000
00000010
00000000
00001000
00000000
,
00010000
00000100
00010000
00000000
00001000
00010000
00001000
00000000
00010000
00100000
00010000
00000000
00100000
00000000
10000000
00000000
,
00000000
00000000
00000000
00000000
01000000
00000000
00100000
00000000
00010000
00000000
10000000
01000000
00000000
01000000
00100000
00000000
,
00010000
00100000
00010000
00000000
10000000
00100000
10000000
00000000
00010000
00100000
00010000
00000000
10000000
00100000
10000000
00000000
,
00010000
00000000
10000000
00100000
00000000
00010000
00001000
00000000
00010000
00000000
00000100
00000010
00000000
00000001
00000000
00001000
,
00000000
00000001
00000100
00000000
00000001
00000010
00000000
00000100
00000000
00010000
00001000
00000000
00001000
00010000
00001000
00000000
,
00010000
00000000
00100000
00000000
01000000
00000000
00010000
00100000
00000000
01000000
00000000
00010000
10000000
00000000
00100000
00010000
,
00100000
00001000
00010000
00001000
00000000
00010000
00000000
00000010
00000000
00010000
00000000
00001000
00010000
00001000
00010000
00000000
,
00100000
00000000
00000000
01000000
00000000
00000000
00010000
00000000
10000000
00000000
01000000
00010000
00000000
00001000
00000010
00000000
,
00000000
00000000
00000001
00000100
00000010
00001000
00000100
00010000
00001000
00100000
00010000
01000000
00100000
10000000
01000000
00100000
,
00010000
00000000
00000000
01000000
00000000
00000000
00001000
00000000
00010000
00000000
00000000
00000010
00000000
00000000
00001000
00000000
,
00000000
00010000
00001000
00000000
00010000
00001000
00000000
00100000
00001000
00010000
00001000
00000000
00010000
00001000
00010000
01000000
,
20000000
00000000
00000000
00000000
,
00000000
00000000
00000000
00000000
,
30000000
00000000
00000000
00000000
,
00000000
00000000
00000000
00000000
;

//---------------dance-single - ----------------
#NOTEDATA:;
#CHARTNAME:;
#STEPSTYPE:dance-single;
#DESCRIPTION:;
#CHARTSTYLE:;
#DIFFICULTY:Challenge;
#METER:16;
#RADARVALUES:0.796611,1.040484,0.414392,0.216205,0.851305,619.000000,573.000000,46.000000,24.000000,0.000000,0.000000,0.000000,0.000000,0.000000,0.796611,1.040484,0.414392,0.216205,0.851305,619.000000,573.000000,46.000000,24.000000,0.000000,0.000000,0.000000,0.000000,0.000000;
#CREDIT:;
#NOTES:
// measure 0
0000
0000
0000
0000
,  // measure 1
0000
0000
0000
0000
,  // measure 2
0000
0000
0000
0000
,  // measure 3
0000
0000
0000
0000
,  // measure 4
0000
0000
0000
0000
,  // measure 5
0000
0000
0000
0000
,  // measure 6
0001
0000
1000
0100
1000
0000
0010
0100
0000
0001
1000
0000
0100
1000
0001
0000
,  // measure 7
0100
0000
0000
0010
1000
0000
0100
0000
0010
0001
0010
0001
1000
0100
1000
0100
,  // measure 8
0010
0000
0001
0100
0001
0000
0010
0100
0000
1000
0010
0000
1000
0001
0010
0000
,  // measure 9
0100
0010
0100
0010
0100
0000
1000
0001
1000
0100
0010
0001
1000
0010
0100
0001
,  // measure 10
1000
0000
0001
0100
0001
0000
1000
0100
0000
1000
0010
0000
0100
0001
1000
0000
,  // measure 11
0100
0000
0000
0010
0001
0000
0100
0000
0010
1000
0010
1000
0001
0100
0001
0100
,  // measure 12
0010
0000
1000
0100
1000
0000
0010
0001
0000
0010
1000
0000
0100
0010
0001
0000
,  // measure 13
1000
0000
0000
0010
0100
0000
0010
0000
1000
0001
1000
0000
1001
0000
0000
0000
,  // measure 14
0001
0100
0010
1000
0010
0001
1000
0001
,  // measure 15
0010
0000
1000
0100
0000
0010
0000
0100
1000
0000
0001
0000
1000
0000
0010
0000
,  // measure 16
0100
0001
0100
0010
0100
1000
0001
1000
,  // measure 17
0100
0000
0100
0000
0100
0000
0100
0000
0010
1000
0010
0000
0100
0001
0100
0001
,  // measure 18
1000
0010
0100
0001
0100
1000
0001
1000
,  // measure 19
0100
0000
0001
0010
0000
0100
0000
0010
0001
0000
1000
0000
0001
0000
0100
0000
,  // measure 20
0010
1000
0010
0100
0010
0001
1000
0001
,  // measure 21
0010
0000
0100
0001
0000
0010
0000
0001
0100
0000
0010
0000
1000
0000
0100
0010
,  // measure 22
0200
0000
0000
0000
0310
0000
0000
0000
0001
0010
0100
1000
0001
0010
0100
0010
,  // measure 23
0002
0000
0000
0000
0000
0000
0000
0000
0003
0000
0000
0000
1000
0001
1000
0000
,  // measure 24
1001
0000
0000
0101
0000
0000
1100
0000
0000
0000
0010
0000
1000
0000
0001
0000
,  // measure 25
1000
0100
0010
0000
0001
0100
0010
0000
1000
0010
0100
0000
0001
0000
0020
0000
,  // measure 26
0000
0130
1000
0020
0000
1030
0100
0002
,  // measure 27
0000
0000
0103
0000
1000
0000
0001
0100
0000
0010
1000
0000
0001
0000
0100
0010
,  // measure 28
0100
0000
0000
1010
0000
0000
0011
0000
0000
0000
0100
0000
0001
0000
1000
0000
,  // measure 29
0001
0010
0100
0000
1000
0010
0100
0000
0001
0100
0010
0000
1000
0000
0200
0000
,  // measure 30
0000
0000
0310
0000
0001
0000
0100
0000
0010
0000
1000
0100
0000
0010
0001
0000
,  // measure 31
0101
0000
0000
0000
1100
0000
0000
0000
1000
0010
1000
0000
0001
0100
0001
0000
,  // measure 32
1001
0000
0000
0011
0000
0000
1100
0000
0000
0000
0010
0000
1000
0000
0001
0000
,  // measure 33
0100
0010
0100
0010
1000
0000
0100
0010
0100
0010
0001
0000
0100
0000
0020
0000
,  // measure 34
0000
1030
0100
0020
0000
0031
0100
2000
,  // measure 35
0000
0000
3100
0000
0001
0000
1000
0100
0000
0001
0100
0000
1000
0000
0001
0000
,  // measure 36
1000
0010
1000
0010
1000
0100
1000
0100
0010
0001
0010
0001
0100
0001
0100
0001
,  // measure 37
0010
0100
0010
0100
1000
0100
1000
0100
1000
0001
1000
0001
0010
0001
0010
0001
,  // measure 38
1000
0100
0010
0001
1000
0010
0100
0001
0010
0100
1000
0001
0100
0010
1000
0001
,  // measure 39
0100
0010
0000
0110
0000
0110
0000
0010
1000
0001
1000
0001
0000
0000
0000
0000
,  // measure 40
1002
0000
0000
0000
0000
0000
2003
0000
0100
0000
0000
0010
0000
0000
3200
0000
,  // measure 41
0010
0000
0000
1000
0000
0000
0320
0000
0000
0000
0032
0000
0000
0000
0103
0020
,  // measure 42
0100
0000
0000
0100
0000
0000
0230
0000
0001
0000
0000
0001
0000
0000
0302
0000
,  // measure 43
1000
0000
0000
1000
0000
0000
1003
0000
0100
0010
0001
1000
0100
0010
0001
1000
,  // measure 44
0100
1000
0100
1000
0100
0001
0100
0001
,  // measure 45
0100
1000
0100
0000
1000
0000
0001
0100
0000
0010
0100
0000
0001
0000
1000
0100
,  // measure 46
0010
0000
0001
0010
0000
1000
0010
0000
0110
0000
0100
1000
0000
0001
0010
0000
,  // measure 47
0110
0000
0100
0001
0000
0100
1000
0000
0100
0010
0001
0010
0100
1000
0010
0100
,  // measure 48
0001
1000
1100
0010
0101
0010
1100
0001
,  // measure 49
0010
0100
1000
0000
1010
0000
0100
0000
0011
0000
0100
0000
1010
0000
0001
0000
,  // measure 50
0101
0000
1100
0000
0011
0000
1010
0000
0001
0100
0010
1000
0001
0100
0010
1000
,  // measure 51
0002
0000
0000
0000
0000
0000
0000
0000
1003
0100
0010
0001
0010
0100
0010
0001
,  // measure 52
1000
1001
0000
0000
0000
0000
0000
0000
,  // measure 53
1010
0110
0000
0000
0000
0000
0000
0011
,  // measure 54
1100
1001
0000
0000
0000
0000
0000
0110
,  // measure 55
0000
0000
1000
0000
0001
0000
0010
1000
0000
0010
0001
0000
1001
0000
0000
0000
,  // measure 56
1010
0000
0000
0110
0000
0000
0011
0000
0000
0000
0100
0000
1000
0000
0010
0000
,  // measure 57
0100
0001
0010
0100
0010
0001
1000
0010
0100
0010
1000
0100
0010
0000
0100
0000
,  // measure 58
0110
0000
0000
0000
1000
0000
0001
0000
0101
0000
0000
1010
0000
0000
1001
0000
,  // measure 59
0000
0000
0001
0000
1000
0000
0010
0000
0100
0001
0100
0000
0010
1000
0010
0000
,  // measure 60
1001
0000
0001
0010
0100
0000
1000
0000
0010
0000
0100
0001
0000
0010
0000
0001
,  // measure 61
0000
0100
0010
0000
0001
0010
0000
0100
0010
0000
1000
0000
0001
0010
0001
0010
,  // measure 62
0100
0000
1000
0000
0001
0000
0100
0010
0000
1000
0000
0001
0010
0000
0100
1000
,  // measure 63
0010
0100
0001
0010
0000
0100
0000
0010
0000
0001
0000
0100
1000
0010
0001
0000
,  // measure 64
0200
0000
0000
0320
0000
0000
2030
0000
3001
0000
0010
1000
0000
0010
0002
0000
,  // measure 65
0000
0000
0103
0010
1000
0001
0010
0100
0010
0001
1000
0100
0001
0100
1000
0001
,  // measure 66
1000
0000
1000
0001
0000
0001
0010
0000
0110
0000
0000
1100
0000
0000
1001
0000
,  // measure 67
0000
0001
0100
0000
0010
1000
0000
0100
0010
0100
0010
0000
0001
0010
0100
1000
,  // measure 68
2002
0000
0000
0000
,  // measure 69
0000
0000
0000
0000
,  // measure 70
3003
0000
0000
0000
;
