#VERSION:0.83;
#TITLE:Porta Vista;
#SUBTITLE:;
#ARTIST:Hyper Potions;
#TITLETRANSLIT:;
#SUBTITLETRANSLIT:;
#ARTISTTRANSLIT:;
#GENRE:;
#ORIGIN:;
#CREDIT:;
#BANNER:Porta Vista.png;
#BACKGROUND:Porta Vista-bg.png;
#PREVIEWVID:;
#JACKET:Porta Vista-jacket.png;
#CDIMAGE:;
#DISCIMAGE:;
#LYRICSPATH:;
#CDTITLE:cdtitle.png;
#MUSIC:Porta Vista.ogg;
#OFFSET:0.145000;
#SAMPLESTART:129.455002;
#SAMPLELENGTH:15.000000;
#SELECTABLE:YES;
#BPMS:0.000=150.000,
64.500=75.000,
65.500=150.000,
93.500=75.000,
95.500=150.000,
154.500=75.000,
156.500=150.000,
184.500=75.000,
217.000=150.000,
277.000=75.000,
279.000=150.000,
307.000=75.000,
309.000=150.000;
#STOPS:34.000=0.600,
126.500=0.400,
184.500=1.200;
#DELAYS:;
#WARPS:;
#TIMESIGNATURES:0.000=4=4;
#TICKCOUNTS:0.000=4;
#COMBOS:0.000=1;
#SPEEDS:0.000=1.000=0.000=0;
#SCROLLS:0.000=1.000;
#FAKES:;
#LABELS:0.000=Song Start;
#BGCHANGES:;
#KEYSOUNDS:;
#ATTACKS:
;

//---------------dance-single - ----------------
#NOTEDATA:;
#CHARTNAME:;
#STEPSTYPE:dance-single;
#DESCRIPTION:;
#CHARTSTYLE:;
#DIFFICULTY:Hard;
#METER:14;
#RADARVALUES:0.662618,0.947693,0.285749,0.387803,0.517921,909.000000,853.000000,56.000000,76.000000,0.000000,0.000000,0.000000,0.000000,0.000000,0.662618,0.947693,0.285749,0.387803,0.517921,909.000000,853.000000,56.000000,76.000000,0.000000,0.000000,0.000000,0.000000,0.000000;
#CREDIT:;
#NOTES:
// measure 0
0000
0000
0000
0000
,  // measure 1
0000
0000
0000
0000
,  // measure 2
0000
0000
0000
0000
,  // measure 3
0000
0000
0000
0000
,  // measure 4
0000
0000
0000
0000
,  // measure 5
1000
0100
1000
0000
0001
0100
0001
0000
1000
0100
1000
0000
0001
0100
0001
0000
,  // measure 6
1000
0010
1000
0000
0001
0010
0001
0000
1000
0010
1000
0000
0001
0010
0001
0000
,  // measure 7
1000
0001
1000
0000
0010
0100
0010
0000
1000
0001
1000
0000
0100
0010
0100
0000
,  // measure 8
1000
0000
0000
0000
0010
0000
0000
0000
1000
0000
0000
0000
0000
0000
0000
0000
0001
0000
0000
0000
0100
0000
0000
0000
0001
0000
0000
0000
0000
0000
0000
0000
2002
3003
0000
0000
0000
0000
0000
0000
0011
0000
0000
0000
0000
0000
0000
0000
0000
0000
0000
0000
0000
0000
0000
0000
1000
0000
0000
0000
0000
0000
0000
0000
,  // measure 9
0100
1000
0000
0101
0000
1010
0000
0001
,  // measure 10
0010
0000
0100
0000
0000
0000
1000
0000
0001
0010
0001
0000
0000
0000
1000
0000
,  // measure 11
0010
0100
0000
0011
0000
1100
0000
1000
,  // measure 12
0010
0000
1000
0000
0001
0100
0000
0001
0010
0001
1000
0000
0100
0000
0010
0000
,  // measure 13
0001
1000
0010
0001
0010
1000
0001
0100
,  // measure 14
1000
0000
0100
0000
0001
0000
0010
0000
0100
1000
0001
0100
0001
0100
0001
0100
,  // measure 15
0001
0100
0001
1000
0001
1000
0001
1000
0001
1000
0010
1000
0010
1000
0010
1000
,  // measure 16
0010
1000
0000
0000
0010
0100
1001
0000
1000
0000
0100
0000
0010
0001
0010
0000
,  // measure 17
0100
0000
0110
0000
0000
0000
0010
0000
0001
0000
0100
0000
0010
1000
0010
0000
,  // measure 18
1000
0000
1100
0000
0000
0000
0001
0000
1000
0000
0100
0000
0010
0100
0010
0000
,  // measure 19
0001
0000
0101
0000
0000
0000
1000
0000
0100
0000
0011
0000
0001
0100
1000
0000
,  // measure 20
0010
0000
1100
0000
0000
0000
1000
0000
0001
0000
0010
0000
0100
1000
0100
0000
,  // measure 21
0010
0000
0011
0000
0000
0000
0001
0000
1000
0000
0010
0000
0100
0001
0100
0000
,  // measure 22
0010
0000
1010
0000
0000
0000
1000
0000
0001
0000
0100
0000
0010
0100
0010
0000
,  // measure 23
1000
0000
0000
1001
0000
0000
0000
0000
0000
0010
0100
0010
0100
0001
1000
0001
0010
0100
1000
0010
0100
0001
0000
0000
,  // measure 24
1000
0000
0100
0000
0010
0100
0010
0000
0001
0000
0101
0000
0100
0000
0010
0000
,  // measure 25
1000
0000
0100
0000
0010
0100
0010
0000
0001
0000
0011
0000
0000
0000
1000
0000
,  // measure 26
0001
0000
0010
0000
0100
0010
0100
0000
1000
0000
1010
0000
0010
0000
0100
0000
,  // measure 27
0101
0000
1001
0000
0001
0010
0100
0000
1000
0000
1100
0000
0000
0000
0100
0000
,  // measure 28
0010
0000
0001
0000
0100
1000
0100
0000
0001
0000
0011
0000
0000
0000
0010
0000
,  // measure 29
0100
0000
1000
0000
0010
0001
0010
0000
1000
0000
1100
0000
0000
0000
0100
0000
,  // measure 30
1000
0000
0010
0000
0001
0010
1000
0000
0100
0000
0101
0000
0000
0000
0100
0000
,  // measure 31
1100
0000
0000
0000
0000
0000
0000
0000
0011
0000
0000
0000
0000
0000
0000
0000
0001
0000
0000
0000
0010
0000
0000
0000
0100
0000
0000
0000
1000
0000
0000
0000
0010
0000
0000
0000
0100
0000
0000
0000
0020
0030
0000
0000
0000
0000
0000
0000
1000
0000
0000
0000
0100
0000
0000
0000
1000
0000
0000
0000
0000
0000
0000
0000
,  // measure 32
0010
0000
0100
0002
0000
0000
1003
0000
0000
0000
0001
0000
0100
0000
1000
0000
,  // measure 33
0100
0000
0001
2000
0000
0000
3001
0000
0000
0000
1000
0000
0001
0010
0001
0000
,  // measure 34
0100
0000
0010
2000
0000
0000
3001
0000
0000
0000
1000
0000
0010
0000
0001
0000
,  // measure 35
0010
1000
0100
0000
1000
0000
0010
0000
1000
0000
0100
0000
0001
0010
0001
0000
,  // measure 36
0100
0000
0010
2000
0000
0000
3001
0000
0000
0000
1000
0000
0010
0000
0001
0000
,  // measure 37
0010
0000
1000
0002
0000
0000
1003
0000
0000
0000
0001
0000
1000
0100
1000
0000
,  // measure 38
0010
0000
0100
0002
0000
0000
1003
0000
0000
0000
0200
0010
0010
0010
0000
0001
,  // measure 39
0001
1000
0310
0000
0001
0100
0001
0000
0010
0000
0100
1000
0100
1000
0100
0000
,  // measure 40
0000
0000
1000
0000
0001
0000
0010
0000
1000
0000
0010
0001
0010
0001
0010
0000
,  // measure 41
0000
0000
0001
0000
1000
0100
1000
0000
0010
0000
0100
0001
0100
0001
0100
0000
,  // measure 42
0000
0000
0001
0000
1000
0000
0100
0000
0001
0100
1000
0000
0010
1000
0100
0000
,  // measure 43
1000
0000
0010
0000
0100
0001
0100
0000
0010
0000
1000
0100
0010
0100
1000
0000
,  // measure 44
0000
0000
0001
0000
0100
0000
1000
0000
0100
0000
0001
0010
0100
0010
0001
0000
,  // measure 45
0000
0000
1000
0000
0001
0010
0001
0000
0100
0000
0001
1000
0010
1000
0001
0000
,  // measure 46
0000
0000
0000
0000
0000
0000
0000
0000
2002
3003
0000
0000
0000
0000
0000
0000
0020
0000
0000
0000
1000
0000
0000
0000
1000
0000
0000
0000
1000
0000
0000
0000
0100
0000
0000
0000
0100
0000
0000
0000
0230
0000
0000
0000
0001
0000
0000
0000
0000
0000
0000
0000
0010
0000
0000
0000
0010
0000
0000
0000
0001
0000
0000
0000
,  // measure 47
0302
0100
2003
0100
3020
0100
0100
0230
0001
0001
0302
1000
1000
0100
0100
1000
,  // measure 48
2003
0100
3002
0100
1003
0001
0010
0011
0000
1000
0100
1100
0000
0001
0100
0101
,  // measure 49
0000
1000
0010
1000
2010
0000
0100
0000
0001
3001
0002
0010
0010
0000
1000
1000
,  // measure 50
2003
0010
0010
0010
3200
0010
0010
0010
1000
1000
2300
0010
0000
0001
0001
0010
,  // measure 51
3020
1000
0230
0001
0320
1000
1000
2030
0100
0100
3200
0010
0010
0001
0001
0010
,  // measure 52
0320
0001
0230
1000
0310
0001
0100
1010
0000
1000
0100
0011
0000
0001
0010
1100
,  // measure 53
0000
1000
0010
0100
0201
0000
0010
0000
0001
0001
0302
1000
1000
0000
0010
0010
,  // measure 54
1003
0100
0010
0001
1000
0002
0000
0000
0103
0000
0000
0000
1000
0000
0100
0000
,  // measure 55
0001
0020
0000
0000
0031
0000
0000
0000
0100
0000
0000
0000
1000
0000
0100
0000
,  // measure 56
0001
0000
1000
0001
1000
0002
0000
0000
0013
0000
0000
0000
1000
0000
0010
0000
,  // measure 57
0001
0200
0000
0000
0301
0000
0000
0000
0010
0000
0000
0000
1000
0000
0010
0100
,  // measure 58
0010
0000
0010
0000
0001
2000
0000
0000
3010
0000
0000
0000
0001
0000
0010
0000
,  // measure 59
1000
0200
0000
0000
1300
0000
0000
0000
0010
0000
0000
0000
0001
0000
0010
0000
,  // measure 60
1000
0000
0001
1000
0001
2000
0000
0000
3100
0000
0000
0000
0001
0000
0100
0000
,  // measure 61
1000
0020
0000
0000
1030
0000
0000
0000
0100
0000
0000
0000
0001
0000
0100
0000
,  // measure 62
1000
0010
1010
0000
0001
0100
0001
0000
,  // measure 63
1100
0000
0011
0000
1000
0010
0100
0000
,  // measure 64
0001
0000
1000
0010
1000
0000
0000
0000
0001
0000
0010
0000
0100
0000
0000
0000
,  // measure 65
1010
0000
0000
0000
0101
0000
0000
0000
0001
0000
0010
0000
0001
0000
1000
0100
,  // measure 66
0000
1000
0010
1000
0001
0000
0100
0000
0100
0000
0010
0000
1000
0000
1000
0000
,  // measure 67
0001
1000
0100
0010
0010
0001
1000
1000
,  // measure 68
0010
0000
0100
0001
1000
0100
1000
0100
1000
0100
1000
0100
1000
0001
1000
0001
,  // measure 69
1000
0001
1000
0001
0010
0000
0010
0010
0010
0000
0100
0000
1000
0000
0010
0000
,  // measure 70
1000
0000
0000
0000
0001
0020
0000
0000
0031
0000
1000
0000
0100
0000
1000
0000
,  // measure 71
0001
0100
0000
0101
0000
1001
0001
0010
,  // measure 72
0001
0000
0000
0000
1000
0020
0000
0000
1030
0000
0001
0000
0100
0000
0001
0000
,  // measure 73
1000
0000
0100
0010
0100
0000
0010
0001
0000
0000
1010
0000
1000
0000
0100
0000
,  // measure 74
1000
0000
0000
0000
0001
0200
0000
0000
0301
0000
1000
0000
0010
0000
1000
0000
,  // measure 75
0001
0010
0000
0011
0000
1001
0001
0100
,  // measure 76
0001
0000
0000
0000
0000
0000
0000
0000
1100
0000
0000
0000
1000
0000
0000
0000
0001
0000
0000
0000
0010
0000
0000
0000
0001
0010
0100
0010
0001
0010
0100
0010
,  // measure 77
0001
0010
0100
1000
0010
1000
0100
0010
0001
0000
0000
0000
0100
0000
0000
0000
0001
0000
0000
0000
1000
0000
0000
0000
0010
0000
2000
0000
0000
0000
0000
0000
,  // measure 78
3010
0001
0010
1000
0100
0001
0100
1100
,  // measure 79
1000
0000
1010
0000
1000
0000
0100
0000
1000
0000
0001
0000
0010
0002
0000
0000
,  // measure 80
0013
0000
1000
0000
0010
0000
0001
0000
0100
0000
0010
0100
0010
0000
0100
0010
,  // measure 81
1000
0000
1001
0000
0001
0000
0010
0000
0001
0000
1000
0000
0100
2000
0000
0000
,  // measure 82
3100
0001
0100
1000
0010
0001
0010
1010
,  // measure 83
1000
1100
1000
0010
1000
0001
0011
0010
,  // measure 84
0100
1100
1000
0001
0102
0010
0013
2100
,  // measure 85
0010
0000
3010
0000
1002
0000
0000
0000
0000
0000
0000
0000
0000
0000
1003
0010
,  // measure 86
0200
0000
0000
0310
1000
0100
1000
0010
,  // measure 87
1000
0000
0100
0000
0010
0000
0002
0000
0000
0000
0000
0000
0003
0000
1000
0100
,  // measure 88
1000
0000
0010
0000
0100
0000
0001
0000
0010
0100
1000
0002
0000
0000
2003
0000
,  // measure 89
0000
3100
0020
0000
0000
0000
0000
0000
,  // measure 90
0230
0000
0000
0300
1000
0002
0000
0000
,  // measure 91
1003
0020
0000
0000
0000
0000
0030
0000
,  // measure 92
0000
0000
1000
0100
0010
0000
0001
0000
1000
0000
0200
0000
0000
0000
0000
0000
,  // measure 93
2300
3002
0000
0000
,  // measure 94
0203
0000
0000
0320
,  // measure 95
0000
0000
2030
0000
0000
3001
0020
0000
,  // measure 96
0032
0000
0000
0000
0000
0000
1003
0100
2000
0000
0000
0000
0000
0000
0000
0000
,  // measure 97
0000
0000
3020
0000
0000
2030
0000
0000
,  // measure 98
3100
0000
0010
0001
0020
0000
0000
0000
0000
0000
0000
0000
0000
0000
0000
0000
,  // measure 99
0230
0000
0000
0000
0300
0000
0000
0000
0000
0000
0000
1000
0010
0000
0100
0000
,  // measure 100
0001
2000
0000
0000
3020
0000
0000
0230
,  // measure 101
0000
0000
0301
0010
0100
1000
0000
0000
,  // measure 102
0001
0010
0100
1000
0000
0000
0010
1000
,  // measure 103
0100
1000
0001
0100
0010
1000
0000
0000
,  // measure 104
0001
0100
0010
1000
0000
0000
0100
1000
,  // measure 105
0010
1000
1000
0100
0010
0001
0000
0000
,  // measure 106
1000
0100
0010
0001
0000
0000
0100
0001
,  // measure 107
0010
0001
1000
0010
0100
0001
0000
0000
,  // measure 108
1000
0010
0100
0001
0000
0000
0010
0001
,  // measure 109
0100
0010
0100
0000
0000
0000
0000
0000
;

//---------------dance-single - ----------------
#NOTEDATA:;
#CHARTNAME:;
#STEPSTYPE:dance-single;
#DESCRIPTION:;
#CHARTSTYLE:;
#DIFFICULTY:Medium;
#METER:11;
#RADARVALUES:0.495688,0.836199,0.239825,0.280647,0.158183,680.000000,633.000000,47.000000,55.000000,0.000000,0.000000,0.000000,0.000000,0.000000,0.495688,0.836199,0.239825,0.280647,0.158183,680.000000,633.000000,47.000000,55.000000,0.000000,0.000000,0.000000,0.000000,0.000000;
#CREDIT:;
#NOTES:
0000
0000
0000
0000
,
0000
0000
0000
0000
,
0000
0000
0000
0000
,
0000
0000
0000
0000
,
0000
0000
0000
0000
,
1000
0010
1000
0100
1000
0010
1000
0100
,
0010
0001
0010
0100
0010
0001
0010
0100
,
1000
0010
0100
0010
1000
0010
0100
0010
,
1000
0000
0000
0000
0000
0000
0000
0000
0001
0000
0000
0000
0000
0000
0000
0000
0010
0000
0000
0000
0000
0000
0000
0000
0001
0000
0000
0000
0000
0000
0000
0000
2002
3003
0000
0000
0000
0000
0000
0000
1100
0000
0000
0000
0000
0000
0000
0000
0000
0000
0000
0000
0000
0000
0000
0000
0001
0000
0000
0000
0000
0000
0000
0000
,
0010
0001
0000
1010
0000
0101
0000
1000
,
0100
0010
0000
0100
0100
0100
0000
1000
,
0010
0100
0000
0011
0000
1100
0000
0001
,
0100
0000
0010
0000
1000
0001
0000
1000
0001
0000
0100
0000
0010
0000
1000
0000
,
0100
0010
0001
1000
0100
0010
0100
1000
,
0001
0010
0100
0010
0001
1000
0010
0001
,
1000
0100
0001
1000
0001
0010
1000
0010
,
0001
0000
0000
1001
0000
1000
0100
2000
,
0000
3001
0000
0100
0000
0001
0010
0002
,
0000
1003
0000
0100
0000
1000
0010
2000
,
0000
3001
0000
1000
0100
0010
0000
0011
,
0000
1010
0000
1001
0000
0001
0010
0200
,
0000
0310
0000
0001
0000
1000
0100
0020
,
0000
0130
0000
1000
0000
0001
0100
0020
,
0000
0130
0000
0002
0000
0000
0000
1003
,
0000
0001
0010
2000
0000
3010
0000
0001
,
0000
1000
0100
0002
0000
0103
0000
1000
,
0000
0001
0100
2000
0000
3100
0000
0001
,
0010
1000
0000
0010
0001
0100
0000
0001
,
0000
0100
1000
0200
0000
0301
0000
1000
,
0000
0010
0001
0020
0000
1030
0000
0001
,
0000
0010
1000
0020
0000
0031
0000
1000
,
0100
0001
0100
1000
0000
1001
0001
0100
,
0010
2000
0000
3001
0000
1000
0100
0010
,
0100
2000
0000
3001
0000
1000
1000
0010
,
0100
0002
0000
1003
0000
0001
0010
0100
,
0010
1000
0010
0001
0100
0010
1000
0100
,
0010
0002
0000
1003
0000
0001
0100
0010
,
0100
0002
0000
1003
0000
0001
0001
0010
,
0100
2000
0000
3001
0000
0020
0000
0000
,
0000
0031
1000
0010
0100
0002
1000
1003
,
0000
0001
0100
1000
0100
0002
1000
1003
,
0000
0001
0001
0100
0010
2000
0001
3001
,
0000
1000
0100
0010
0100
0001
0100
1000
,
0010
0100
0001
0010
0100
2000
0001
3001
,
0000
1000
0010
0001
0010
2000
0001
3001
,
0000
1000
1000
0100
0010
0002
1000
1003
,
0000
0000
0000
0000
0000
0000
0000
0000
2002
3003
0000
0000
0000
0000
0000
0000
0000
0000
0000
0000
0001
0000
0000
0000
0100
0000
0000
0000
0010
0000
0000
0000
1000
0000
0000
0000
0100
0000
0000
0000
0010
0000
0000
0000
0100
0000
0000
0000
0000
0000
0000
0000
1000
0000
0000
0000
0010
0000
0000
0000
0100
0000
0000
0000
,
0001
0010
0100
0010
0000
0001
1000
0010
0100
0001
0010
0001
0100
0010
1000
0001
,
1000
0100
0010
0001
0000
1000
0100
1000
0000
0001
0100
0001
0000
1000
0010
1000
,
0000
0001
0010
0001
0000
0000
1000
0000
0001
0010
0100
1000
0001
0000
1000
0010
,
0000
1000
0100
0010
0000
0100
1000
0010
0100
0001
0010
0100
0000
0010
0001
0100
,
0010
1000
0100
0010
0000
0100
1000
0001
0010
0100
0010
0001
1000
0100
0010
0100
,
1000
0010
0100
0001
0000
1000
0100
0010
0000
0001
0010
0100
0000
1000
0010
0100
,
0000
0001
0100
0010
0000
0000
1000
0000
0001
0010
0100
1000
0001
0000
1000
0100
,
1000
0010
0100
0001
2000
0000
0000
0000
3100
0000
0000
0000
0010
0000
0100
0000
,
2000
0000
3100
0000
0000
0000
1000
0010
,
0001
0010
2000
0000
3100
0000
0010
0100
,
2000
0000
3100
0000
0000
0000
0100
1000
,
0010
0100
0002
0000
0013
0000
0100
0010
,
0002
0000
0013
0000
0000
0000
0001
0100
,
1000
0100
0002
0000
0013
0000
0100
0010
,
0002
0000
0013
0000
0000
0000
0100
1000
,
0010
0100
0011
0000
1000
0100
1000
0000
,
0101
0000
1010
0000
0001
0010
0100
0000
,
0010
0010
0010
0000
0001
0100
0010
0000
,
1100
0000
0000
0000
0011
0000
0000
0000
1000
0000
0010
0000
0100
0000
0001
1000
,
0000
0001
1000
0000
0010
0000
0100
0000
0001
0000
0010
0000
0100
0000
1000
0000
,
0001
0010
0100
0010
0001
1000
0100
0010
,
0100
1000
0001
0100
1000
0001
0010
1000
,
0001
0100
0010
0000
0000
0000
1000
0000
,
0010
1020
0001
0130
,
0001
0010
0000
0110
0000
0100
1000
0000
,
0001
0021
1000
0130
,
1000
0001
0000
1001
0000
1000
0010
0000
,
0100
0210
1000
0301
,
0010
0100
0000
1100
0000
1000
0010
0000
,
0100
0000
0001
0010
0100
1000
0020
0000
,
0000
0000
1030
0100
1000
0000
0201
0000
,
1000
0000
0310
1000
0100
1000
0010
0001
,
0010
1000
0001
0100
0001
0000
1200
0000
,
0001
0000
0310
0001
0100
0001
0010
0100
,
1000
0010
0100
0001
0100
0000
0120
0000
,
0001
0000
1030
0100
0001
0100
1000
0010
,
0100
0001
0010
0000
0001
0000
1000
0100
,
0010
0001
0010
0000
0012
0000
0103
0210
,
0000
0301
1001
0000
1000
0000
1020
0000
,
0001
0000
0130
0000
0001
0010
0000
0011
,
0000
0110
0000
0000
0001
0000
0201
0000
,
1000
0000
0310
0000
1000
0010
0000
1010
,
0000
1001
0000
0000
1000
0000
2100
0000
,
0001
0000
3010
0000
0001
0100
0000
0101
,
0000
0110
0000
0000
0000
0000
1000
0010
,
0100
0001
0000
0000
0020
0000
0000
0130
,
0000
0010
0001
0021
,
1000
0000
0130
0000
1000
0010
0000
1010
,
0000
0110
0000
0000
1000
0000
1020
0000
,
0001
0000
0130
0000
0001
0010
0000
0011
,
0000
1001
0000
0000
0001
0000
0102
0000
,
1000
0000
0013
0000
1000
0100
0000
1100
,
0000
0110
0000
0000
0000
0000
0001
0010
,
0100
1000
0000
0000
0020
0000
0000
0130
,
0000
0000
0001
0000
0010
0100
0000
0000
,
1000
0000
0010
0100
0000
0000
0001
0010
,
0001
0000
1000
0000
0010
0100
0000
0000
,
0001
0000
0010
0100
0000
0000
1000
0001
,
1000
0010
1000
0000
0100
0010
0000
0000
,
0001
0000
0100
0010
0000
0000
1000
0100
,
1000
0000
0001
0000
0100
0010
0000
0000
,
1000
0000
0100
0010
0000
0000
0001
1000
,
0001
0100
0010
0000
0000
0000
0000
0000
;

//---------------dance-single - ----------------
#NOTEDATA:;
#CHARTNAME:;
#STEPSTYPE:dance-single;
#DESCRIPTION:;
#CHARTSTYLE:;
#DIFFICULTY:Easy;
#METER:7;
#RADARVALUES:0.292310,0.362353,0.040821,0.295955,0.005103,401.000000,393.000000,8.000000,58.000000,0.000000,0.000000,0.000000,0.000000,0.000000,0.292310,0.362353,0.040821,0.295955,0.005103,401.000000,393.000000,8.000000,58.000000,0.000000,0.000000,0.000000,0.000000,0.000000;
#CREDIT:;
#NOTES:
0000
0000
0000
0000
,
0000
0000
0000
0000
,
0000
0000
0000
0000
,
0000
0000
0000
0000
,
0000
0000
0000
0000
,
1000
0100
0001
0100
,
1000
0010
0001
0010
,
1000
0100
0001
0010
,
1000
0000
0000
0000
0000
0000
0000
0000
0000
0000
0000
0000
0000
0000
0000
0000
0100
0000
0000
0000
0000
0000
0000
0000
0000
0000
0000
0000
0000
0000
0000
0000
0020
0030
0000
0000
0000
0000
0000
0000
0001
0000
0000
0000
0000
0000
0000
0000
0000
0000
0000
0000
0000
0000
0000
0000
0001
0000
0000
0000
0000
0000
0000
0000
,
0000
0100
0000
0100
0000
0010
0000
0010
,
0000
1000
0000
1000
0000
0010
0000
0010
,
0000
0100
0000
0100
0000
0001
0000
0001
,
0000
1000
0000
1000
0000
0001
0000
0010
,
0000
0100
0000
1000
0000
0001
0000
0100
,
0000
0010
0000
1000
0000
0001
0010
0001
,
0000
1000
0100
1000
0000
0010
0100
0010
,
0100
0000
0000
1001
0000
0000
1000
0002
,
0000
1003
0000
0100
0000
0000
1000
0020
,
0000
1030
0000
0001
0000
0000
0100
0020
,
0000
0130
0000
0001
0000
0010
0000
0110
,
0000
1001
0000
0100
0000
0000
0001
2000
,
0000
3001
0000
0100
0000
0000
0001
0020
,
0000
0031
0000
1000
0000
0000
0010
0200
,
0000
0310
0000
0100
0000
0000
0000
1001
,
0000
0000
0001
0020
0000
0100
0000
0031
,
0000
0000
1000
0200
0000
0010
0000
1300
,
0000
0000
0001
2000
0000
0100
0000
3001
,
0000
0100
0000
0110
0000
1001
0000
0010
,
0000
0000
1000
0020
0000
0001
0000
1030
,
0000
0000
0001
0200
0000
1000
0000
0301
,
0000
0000
1000
0002
0000
0100
0000
1003
,
0000
0100
0000
0110
0000
1001
0000
0001
,
0010
0002
0000
1003
0000
0010
0000
0100
,
0000
0002
0000
1003
0000
0001
0000
1000
,
0100
2000
0000
3001
0000
0010
0000
1000
,
0000
0100
0000
0001
0000
0010
0000
0001
,
0100
0002
0000
1003
0000
0100
0000
0010
,
0000
0002
0000
1003
0000
0001
0000
1000
,
0010
2000
0000
3001
0000
0100
0000
0000
,
0000
0001
0000
1000
0100
0020
0000
0130
,
0000
1000
0000
0001
0000
0200
0000
0310
,
0000
0100
0000
0001
0010
0200
0000
0310
,
0000
0001
0000
0100
0000
1000
0000
0010
,
0000
0001
0000
1000
0010
0200
0000
0310
,
0000
1000
0000
0001
0000
0020
0000
0130
,
0000
0010
0000
0001
0100
0020
0000
0130
,
0000
0000
0000
0000
0000
0000
0000
0000
0020
0030
0000
0000
0000
0000
0000
0000
2000
0000
0000
0000
0000
0000
0000
0000
0000
0000
0000
0000
0000
0000
0000
0000
0000
0000
0000
0000
0000
0000
0000
0000
3002
0000
0000
0000
0000
0000
0000
0000
0000
0000
0000
0000
0000
0000
0000
0000
0000
0000
0000
0000
0000
0000
0000
0000
,
0103
0000
0100
0000
0010
0000
0000
0010
0000
0000
0200
0000
0000
0000
0000
0000
,
0301
1000
0002
0000
0000
0203
0000
0000
,
0310
0010
2000
0000
0000
3002
0000
0000
,
0203
0000
0302
0000
0000
2003
0000
0000
,
3010
0000
0010
0000
0100
0000
0000
0100
0000
0000
0020
0000
0000
0000
0000
0000
,
1030
0001
2000
0000
0000
3020
0000
0000
,
0130
0100
0002
0000
0000
2003
0000
0000
,
3010
0010
2000
0000
3100
0000
0010
0000
,
0002
0013
0000
1000
,
0010
0002
0013
0100
,
2000
3100
0000
0001
,
0100
2000
3010
0100
,
0002
0103
0000
1000
,
0100
0002
0103
0010
,
2000
3010
0000
0001
,
0010
1000
1000
0010
,
0010
0100
0100
0001
,
0001
0100
0100
0010
,
0010
1000
1000
0001
,
0001
1000
0100
0010
,
0001
1000
0010
0100
,
0001
0000
1000
0100
1000
0000
0001
0010
,
0001
0100
0000
0100
,
0010
2000
0001
3010
,
0001
0000
0000
0100
0000
0100
0000
0000
,
0010
0002
1000
0103
,
1000
0000
0000
0010
0000
0010
0000
0000
,
1000
0200
0010
1300
,
0010
0000
0000
0001
0000
0001
0000
0000
,
0000
0100
0010
1000
,
0000
0010
0100
0002
,
1000
0000
0103
0000
1000
0010
0000
0100
,
0000
0100
0000
0000
0010
0000
2000
0000
,
0001
0000
3010
0000
0001
0100
0000
0001
,
0000
0001
0000
0000
1000
0000
0020
0000
,
0100
0000
1030
0000
0100
0001
0000
1000
,
0000
1000
0000
0000
0000
0000
0100
0000
,
0010
0000
0001
0000
0200
0000
0000
0310
,
0000
1000
0010
0100
,
0001
0000
0010
0000
0100
0000
0000
1000
,
0000
1000
0000
0000
0010
0000
0100
0000
,
0001
0000
0010
0000
0100
0000
0000
0010
,
0000
0010
0000
0000
0001
0000
0100
0000
,
0010
0000
1000
0000
0100
0000
0000
1000
,
0000
1000
0000
0000
0000
0000
0010
0000
,
0100
0000
0001
0000
0020
0000
0000
0130
,
0000
0001
0100
0010
,
1000
0000
0100
0000
0010
0000
0000
0001
,
0000
0001
0000
0000
0100
0000
0010
0000
,
1000
0000
0100
0000
0010
0000
0000
0100
,
0000
0100
0000
0000
1000
0000
0010
0000
,
0100
0000
0001
0000
0010
0000
0000
0001
,
0000
0001
0000
0000
0000
0000
0100
0000
,
0010
0000
1000
0000
0200
0000
0000
0310
,
0000
1000
0000
0000
,
0001
0000
0000
1000
,
0010
1000
0000
0000
,
0001
0000
0000
1000
,
0010
0001
0000
0000
,
1000
0000
0000
0001
,
0100
0001
0000
0000
,
1000
0000
0000
0001
,
0100
1000
0000
0000
;

//---------------dance-single - ----------------
#NOTEDATA:;
#CHARTNAME:;
#STEPSTYPE:dance-single;
#DESCRIPTION:;
#CHARTSTYLE:;
#DIFFICULTY:Beginner;
#METER:4;
#RADARVALUES:0.157454,0.210740,0.035719,0.045924,0.000000,216.000000,209.000000,7.000000,9.000000,0.000000,0.000000,0.000000,0.000000,0.000000,0.157454,0.210740,0.035719,0.045924,0.000000,216.000000,209.000000,7.000000,9.000000,0.000000,0.000000,0.000000,0.000000,0.000000;
#CREDIT:;
#NOTES:
0000
0000
0000
0000
,
0000
0000
0000
0000
,
0000
0000
0000
0000
,
0000
0000
0000
0000
,
0000
0000
0000
0000
,
0001
0000
0001
0000
,
0100
0000
0100
0000
,
0010
0000
0010
0000
,
1000
0000
0000
0000
1001
0100
0000
0000
,
0000
1000
0000
0000
0000
0100
0000
0000
,
0000
0001
0000
0000
0000
0010
0000
0000
,
0000
0001
0000
0000
0000
0100
0000
0000
,
0000
1000
0000
0000
0000
0001
0000
0001
,
0000
0001
0000
0000
0000
1000
0000
1000
,
0000
1000
0000
0000
0000
0010
0000
0010
,
0000
0010
0000
0010
0000
0010
0000
0010
,
0000
0000
0000
0000
0000
0000
0000
1000
,
0000
1000
0000
0000
0000
0000
0000
0001
,
0000
0001
0000
0000
0000
0000
0000
0100
,
0000
0100
0000
0100
0000
0000
0000
0010
,
0000
0000
0000
0000
0000
0000
0000
0001
,
0000
0001
0000
0000
0000
0000
0000
1000
,
0000
1000
0000
0000
0000
0000
0000
0100
,
0000
0100
0000
0100
0000
0000
0000
1000
,
0000
0000
0000
1001
0000
0000
0000
0001
,
0000
0000
0000
1001
0000
0000
0000
1000
,
0000
0000
0000
1001
0000
0000
0000
0001
,
0000
0000
0000
0100
0000
0000
0000
0010
,
0000
0000
0000
0110
0000
0000
0000
0100
,
0000
0000
0000
0110
0000
0000
0000
0010
,
0000
0000
0000
0110
0000
0000
0000
0100
,
0000
0100
0000
0100
0000
0000
0000
0010
,
0000
0000
0000
1000
0000
0000
0000
0010
,
0000
0000
0000
0001
0000
0000
0000
0100
,
0000
0000
0000
1000
0000
0000
0000
0100
,
0000
0000
0000
0010
0000
0000
0000
0100
,
0000
0000
0000
0001
0000
0000
0000
0100
,
0000
0000
0000
1000
0000
0000
0000
0010
,
0000
0000
0000
0001
0000
0000
0000
0000
,
0000
0000
0000
1000
0000
1000
0000
1000
,
0000
0000
0000
0001
0000
0001
0000
0001
,
0000
0000
0000
0100
0000
0100
0000
0100
,
0000
0000
0000
0010
0000
0000
0000
1000
,
0000
0000
0000
0001
0000
0001
0000
0001
,
0000
0000
0000
1000
0000
1000
0000
1000
,
0000
0000
0000
0010
0000
0010
0000
0010
,
0000
0010
1000
0000
0000
1000
0000
0000
,
1000
0000
0001
0000
0000
0001
0000
0000
,
0001
0000
0100
0000
0000
0100
0000
0000
,
0100
0000
0010
0000
0000
0010
0000
0000
,
0010
0000
0001
0000
0000
0001
0000
0000
,
0001
0000
1000
0000
0000
1000
0000
0000
,
1000
0000
0010
0000
0000
0010
0000
0000
,
0010
0000
0100
0000
0000
0100
0000
0000
,
0100
0000
2000
0000
0000
3000
0000
0000
,
1000
2000
0000
3000
,
0000
0002
0000
0003
,
0001
0002
0000
0003
,
0000
0020
0000
0030
,
0010
0020
0000
0030
,
0000
0200
0000
0300
,
0100
0200
0000
0300
,
0000
0100
0000
1000
,
0000
0100
0000
0001
,
0000
0010
0000
0001
,
0000
0100
0000
1000
,
0000
0001
0001
0001
,
0000
1000
1000
1000
,
0000
0010
0010
0010
,
0010
0010
0000
0100
,
0000
0001
0000
1000
,
0000
0010
0010
0010
,
0000
1000
0000
0001
,
0000
0100
0100
0100
,
0000
0001
0000
1000
,
0000
0001
0001
0001
,
0000
0100
0000
0010
,
0000
1000
0000
0100
,
0000
0010
0000
0001
,
0001
0001
0000
0100
,
0000
0010
0000
1000
,
1000
1000
0000
0100
,
0000
0010
0000
0100
,
0100
0100
0000
1000
,
0000
0000
0010
0000
0010
0000
0000
0010
,
0000
0010
0000
0000
,
0000
1000
0000
0000
,
0000
0001
0000
0000
,
0000
1000
0000
0000
,
0000
0010
0000
0000
,
0000
0100
0000
0000
,
0000
0010
0000
0000
,
0000
0000
0100
0000
0100
0000
0000
0100
,
0000
0100
0000
0000
,
0000
0001
0000
0000
,
0000
1000
0000
0000
,
0000
0001
0000
0000
,
0000
0100
0000
0000
,
0000
0010
0000
0000
,
0000
0100
0000
0000
,
0000
0000
0010
0000
0010
0000
0000
0010
,
0000
0020
0000
0000
,
0000
0000
0000
0000
,
0000
0030
0000
0000
;
