#TITLE:Overthinker;
#SUBTITLE:;
#ARTIST:Jules Conroy;
#TITLETRANSLIT:;
#SUBTITLETRANSLIT:;
#ARTISTTRANSLIT:;
#GENRE:;
#CREDIT:;
#BANNER:Overthinker.png;
#BACKGROUND:Overthinker-bg.png;
#LYRICSPATH:;
#CDTITLE:cdtitle.png;
#MUSIC:Overthinker.ogg;
#OFFSET:-0.117000;
#SAMPLESTART:37.040001;
#SAMPLELENGTH:15.000000;
#SELECTABLE:YES;
#DISPLAYBPM:130.000000;
#BPMS:0.000000=130.000000
,111.000000=260.000000
,111.500000=130.000000
,111.750000=65.000000
,112.000000=130.000000
;
#STOPS:
;
#BGCHANGES:;
#KEYSOUNDS:;
#ATTACKS:;

//---------------dance-single - ----------------
#NOTES:
     dance-single:
     :
     Beginner:
     3:
     0.121396,0.181155,0.038626,0.084977,0.000000,110.000000,105.000000,5.000000,11.000000,0.000000,0.000000,0.121396,0.181155,0.038626,0.084977,0.000000,110.000000,105.000000,5.000000,11.000000,0.000000,0.000000:
0000
0000
0000
0000
,
0000
0000
0000
0000
,
0000
0000
0000
0000
,
0000
0000
0000
0000
,
1000
0000
0000
0000
,
0001
0000
0000
0000
,
1000
0000
0000
0000
,
0001
0000
0000
0000
,
1000
0000
1000
0000
,
0001
0000
0001
0000
,
1000
0000
0001
0000
,
1000
1000
1000
0000
,
0002
0000
0003
0000
,
1000
0000
0010
0000
,
2000
0000
3000
0000
,
0001
0000
0010
0000
,
0200
0000
0300
0000
,
0010
0000
0001
0000
,
0020
0000
0030
0000
,
0100
0000
1000
0000
,
0001
0000
0001
0000
,
0100
0000
0001
0000
,
1000
0000
1000
0000
,
0100
0000
1000
0000
,
0010
0000
0010
0000
,
0100
0000
0001
0000
,
0100
0000
0100
0000
,
0010
0000
1000
0000
,
1001
0000
0000
0000
,
0100
0000
0000
0000
,
1001
0000
0000
0000
,
0010
0000
0000
0000
,
1001
0000
0001
0000
,
0100
0000
0010
0000
,
1001
0000
1000
0000
,
0010
0010
0010
0000
,
1000
0000
0100
0000
,
0010
0000
0001
0000
,
2000
0000
3000
0000
,
1000
1000
1000
0000
,
0001
0000
0100
0000
,
0010
0000
1000
0000
,
0010
0000
0100
0000
,
0001
0001
0001
0000
,
2000
0000
3000
0000
,
0100
0000
0010
0000
,
0001
0000
0001
0000
,
0001
0000
1000
1000
,
2000
0000
3000
0000
,
0010
0000
0100
0000
,
0001
0000
0001
0000
,
1000
0000
0001
0000
,
2002
0000
0000
0000
,
3003
0000
0000
0000
,
0020
0000
0000
0000
,
0030
0000
0000
0000
,
1000
0000
1000
0000
,
0001
0000
0001
0000
,
1000
1000
1000
0000
,
0001
0001
0001
0000
,
2000
0000
0000
0000
,
0000
0000
3000
0000
,
0100
0000
0000
0000
,
0010
0000
0000
0000
,
0001
0000
0000
0000
,
1000
0000
0000
0000
,
0010
0000
0000
0000
,
0100
0000
0000
0000
;

//---------------dance-single - ----------------
#NOTES:
     dance-single:
     :
     Easy:
     7:
     0.261552,0.366366,0.108152,0.224030,0.000000,237.000000,223.000000,14.000000,29.000000,0.000000,0.000000,0.261552,0.366366,0.108152,0.224030,0.000000,237.000000,223.000000,14.000000,29.000000,0.000000,0.000000:
0000
0000
0000
0000
,
0000
0000
0000
0000
,
0000
0000
0000
0000
,
0000
0000
0000
0000
,
1000
0001
0100
0000
,
0001
1000
0100
0000
,
0010
0001
1000
0000
,
0010
1000
0001
0001
,
1000
0100
0010
0010
,
0001
0100
0010
0010
,
1000
1000
0001
0001
,
1000
0100
1000
0000
0001
0010
0001
0000
,
2000
0000
3000
0001
,
0010
1000
0010
0001
,
0200
0000
0300
0001
,
0010
0001
0100
0001
,
2000
0000
3000
0001
,
0100
0010
1000
0100
,
0020
0000
0031
1000
,
0010
1000
0100
1000
,
0002
0100
0103
1000
,
0010
0001
0010
1000
,
0200
0010
0310
1000
,
0010
1000
0100
1000
,
0002
0100
0103
1000
,
0100
0010
0001
0100
,
0020
0100
1030
0001
,
0010
0001
0100
0001
,
1001
0000
1001
0000
,
0000
1000
0001
1001
,
0110
0000
0110
0000
,
0000
0100
0010
0110
,
1001
1000
1010
0001
,
0010
0100
1000
1100
,
1001
0001
0101
1000
,
0100
0000
0100
0000
0010
0100
0010
0000
,
0001
0000
0000
1000
2000
0000
0000
3010
,
0020
0000
0000
0130
0100
0000
0001
0000
,
0002
0000
0000
0000
,
1003
0100
0010
0001
,
1000
0000
0000
0001
0002
0000
0000
0103
,
0200
0000
0000
0310
0010
0000
1000
0000
,
0001
0010
0100
0010
,
0001
0000
0001
0000
1000
0001
1000
0000
,
1002
0000
0003
1000
,
0100
0001
0100
1000
,
0002
0010
0203
0320
,
2030
0000
0100
0000
3001
1000
0001
0000
,
2001
0000
3000
0001
,
0100
1000
0100
0001
,
2000
0010
3200
0320
,
0032
0003
2000
3000
,
2002
0000
0000
3003
,
0200
0000
0000
0300
,
0010
0000
0000
0010
0000
0000
0020
0000
,
0000
0000
0000
0030
,
0001
0100
0010
1000
,
0001
1000
0100
0010
,
0001
0100
0001
0000
1000
0010
1000
0000
,
0010
0100
0010
0000
1000
0001
1000
0001
,
2000
0000
0000
0000
,
0000
0000
3000
0000
,
0001
0010
0100
1000
,
0001
0100
0010
1000
,
0001
0010
0001
1000
,
0100
1000
0010
0100
,
0001
0010
1000
0010
,
0001
0100
1000
0100
;

//---------------dance-single - ----------------
#NOTES:
     dance-single:
     :
     Medium:
     11:
     0.448060,0.525311,0.169954,0.393984,0.162229,406.000000,384.000000,22.000000,51.000000,0.000000,0.000000,0.448060,0.525311,0.169954,0.393984,0.162229,406.000000,384.000000,22.000000,51.000000,0.000000,0.000000:
0000
0000
0000
0000
,
0000
0000
0000
0000
,
0000
0000
0000
0000
,
0000
0000
0000
0000
,
1000
0100
0010
0100
2000
0000
0010
0000
,
3001
0100
0010
0100
0002
0000
1000
0000
,
0013
0100
1000
0100
0020
0000
0001
0000
,
0130
0010
0001
0010
0200
0000
1300
1000
,
0001
0100
0101
0000
0100
0010
1010
0000
,
1000
0100
1100
0000
0100
0010
0011
0000
,
0101
1010
0110
1001
,
1000
0010
1000
0100
0010
0001
0100
0001
,
2000
0000
0000
0000
3000
0100
1000
0010
,
0100
0001
0010
0100
2000
0000
3020
0000
,
0230
0000
0000
0000
0300
0001
0010
0001
,
0100
0001
1000
0001
0010
0100
1000
0002
,
0000
0000
0000
0000
0003
0100
0001
0010
,
0100
1000
0010
0100
0002
0000
0023
0000
,
0230
0000
0000
1300
0100
0010
0001
0100
,
0010
1000
0100
1000
0001
1000
0010
0100
,
0002
0000
0010
0000
0013
0001
1000
0010
,
0100
0001
0100
0010
2000
0000
3200
0000
,
0320
0000
0001
0000
0031
1000
0010
1000
,
0100
1000
0001
1000
0010
0100
0001
2000
,
0100
0000
0100
0000
3100
1000
0001
0100
,
0010
1000
0010
0100
0002
0000
0023
0000
,
0230
0000
1300
0100
0010
0001
0100
0010
,
1000
0001
0010
0001
0100
0001
2000
0000
,
3001
0001
0000
1000
1000
1000
0000
0000
,
0000
0010
0000
0010
0100
0100
0002
0000
,
1003
1000
0000
0001
0001
0001
0000
0000
,
0000
0010
0000
0010
0100
0100
2000
0000
,
3001
0001
0000
0010
0010
0010
0001
0000
,
1000
0100
0000
0100
1000
1000
0002
0000
,
1003
1000
0000
0010
0010
0010
1000
0000
,
1100
0000
0011
0000
0001
0100
0010
1000
,
0001
0000
0010
0001
0020
0000
0130
0010
,
0200
0000
1300
0100
2000
0000
3020
0030
,
0020
0001
1000
0001
,
1030
0100
0010
0001
1000
0010
0100
0001
,
1000
0000
0100
0010
0002
0000
0103
0010
,
2000
0000
3001
0010
0200
0000
0302
0000
,
2003
0000
3010
0200
0000
2300
0000
3001
,
0101
0000
1010
0000
1000
0100
0010
0001
,
2000
0000
0010
0000
3001
0100
0010
1000
,
0100
0001
0100
1000
0100
0010
0001
1000
,
2010
0000
3100
0010
0011
0000
0110
0000
,
2100
0000
0010
0000
3001
0100
0010
1000
,
0002
0000
0010
0000
1003
0100
0010
0001
,
0100
1000
0100
0001
0100
0010
1000
0001
,
0012
0000
0103
0010
1010
0000
0110
0000
,
0102
0013
2100
3010
,
2002
0000
0000
3003
,
1000
0000
0010
0000
0010
0000
0001
0000
0010
0000
0010
0000
,
2000
0000
0100
3200
0000
0310
0020
0000
,
1000
0001
1000
0032
,
1003
0010
0100
0010
1000
0001
0010
0100
,
0010
0000
0001
1000
0000
0001
1000
0000
0001
1000
0000
0001
1000
0000
0010
0000
,
1000
0100
1000
0100
0000
0000
0010
0001
0010
0001
0000
0000
,
0100
0010
0100
0010
0000
0000
1000
0001
1000
0001
1000
0001
,
2000
0000
0000
0000
,
0000
0000
3000
0000
,
0001
0000
1000
0010
0000
1000
0100
0000
0010
0001
0000
0001
,
1000
0000
0001
0010
0000
0001
0100
0000
0010
1000
0000
1000
,
0001
0000
0001
0010
0000
0010
0100
0000
0100
1000
0000
1000
,
0001
0000
0001
0100
0000
0100
0010
0000
0010
1000
0000
1000
,
0100
0000
0100
0001
0000
0001
0100
0000
0100
1000
0000
1000
,
0010
0000
0010
0001
0000
0001
0010
0000
0010
0100
0020
0000
,
0030
0000
0000
0000
;

//---------------dance-single - ----------------
#NOTES:
     dance-single:
     :
     Hard:
     15:
     0.656639,0.893030,0.440335,0.463510,0.505999,595.000000,538.000000,57.000000,60.000000,0.000000,0.000000,0.656639,0.893030,0.440335,0.463510,0.505999,595.000000,538.000000,57.000000,60.000000,0.000000,0.000000:
// measure 0
0000
0000
0000
0000
,  // measure 1
0000
0000
0000
0000
,  // measure 2
0000
0000
0000
0000
,  // measure 3
0000
0000
0000
0000
,  // measure 4
1000
0000
0001
0010
0001
0000
1000
0000
1001
0000
0001
0000
0010
0000
1000
0000
,  // measure 5
0010
0000
0100
1000
0100
0000
0010
0000
0110
0000
0100
0000
0001
0000
0100
0000
,  // measure 6
1000
0000
0001
0100
0001
0000
1000
0000
1010
0000
0010
0000
0100
0000
1000
0000
,  // measure 7
0100
0000
0010
1000
0010
0000
0100
0000
0101
0000
0001
0000
1001
0000
0110
0000
,  // measure 8
1000
0000
0100
0010
0001
0000
1000
0000
0010
0000
1000
0000
1001
0000
0001
0000
,  // measure 9
0010
0000
0100
1000
0001
0000
0010
0000
1000
0000
0010
0000
0110
0000
0100
0000
,  // measure 10
1100
1000
1010
0010
0110
0100
0101
0001
,  // measure 11
1000
0010
1000
0000
0001
0100
0001
0000
1000
0100
1000
0001
0010
0001
1000
0100
,  // measure 12
2000
0000
0001
0000
3100
1000
0010
0100
,  // measure 13
0001
0010
0001
1000
0020
0000
2030
0000
,  // measure 14
3002
0000
0100
0000
1003
0001
0010
0001
,  // measure 15
0100
0001
1000
0001
0010
0100
1000
0020
,  // measure 16
0001
0000
1000
0000
0130
0010
1000
0100
,  // measure 17
0010
0001
0010
0100
2000
0000
3020
0000
,  // measure 18
0230
0000
1300
0100
0001
1000
0100
0010
,  // measure 19
0001
1000
0010
1000
0100
1000
0010
0100
,  // measure 20
0002
1000
0000
0010
0003
1000
0001
0010
,  // measure 21
0100
1000
0100
0010
0002
1000
0203
0001
,  // measure 22
0320
1000
0000
0001
0030
1000
0010
1000
,  // measure 23
0100
1000
0001
1000
0010
0100
0001
2000
,  // measure 24
0000
0100
0000
0001
3000
0100
1000
0010
,  // measure 25
0100
0001
0100
0010
2000
0001
3200
1000
,  // measure 26
0320
0001
0000
0130
0010
0001
0100
0010
,  // measure 27
1000
0001
0010
0001
0100
0001
2000
0000
,  // measure 28
3100
1100
0000
1010
1010
0110
0000
0000
,  // measure 29
0000
0101
0000
0101
0011
0011
1002
0000
,  // measure 30
0103
0110
0000
0101
0101
0011
0000
0000
,  // measure 31
0000
1100
0000
1100
1010
1010
2001
0000
,  // measure 32
3010
0110
0100
0101
0101
0011
0010
0001
,  // measure 33
1000
1010
0010
1010
1100
1100
1002
0000
,  // measure 34
1003
1010
0010
0110
0110
0101
0001
1000
,  // measure 35
1100
0000
0001
0000
0011
0000
1000
0000
0001
1000
0001
0000
0100
0010
0100
0010
,  // measure 36
1000
0100
0010
0002
2003
0010
3010
2000
,  // measure 37
3002
0100
0103
0020
0230
0301
0020
0130
,  // measure 38
0020
0001
1000
0100
,  // measure 39
0031
0010
0100
1000
0001
0100
0010
1000
0001
0010
0100
1000
0100
0010
0001
1000
,  // measure 40
0001
0100
0010
2000
3002
0010
0013
0002
,  // measure 41
2003
0100
3100
0020
0230
1300
0020
0130
,  // measure 42
0002
1003
0020
0230
0301
0020
0130
1000
,  // measure 43
1010
0000
0001
0000
0101
0000
1000
0000
0100
1000
0100
0000
0010
0001
0010
0001
,  // measure 44
2000
0000
0010
0000
0001
0000
0100
0000
3001
0000
1000
0100
1000
0000
0100
0010
,  // measure 45
0100
0000
0010
0001
0010
0000
0001
0100
0001
0000
0100
0010
0100
0000
0010
0000
,  // measure 46
1020
0100
0130
0001
0022
0033
0220
0330
,  // measure 47
2100
0000
0000
0000
0010
0000
0000
0000
3001
0010
0100
1000
0001
0100
0010
1000
,  // measure 48
0002
0000
0010
0000
1000
0000
0100
0000
1003
0000
0001
0100
0001
0000
0100
0010
,  // measure 49
0100
0000
0010
1000
0010
0000
1000
0100
1000
0000
0100
0010
0100
0000
0010
0000
,  // measure 50
0021
0100
0130
1000
2010
3100
0012
0103
,  // measure 51
2010
0000
0001
3000
0102
0000
1000
0003
,  // measure 52
2002
0000
0000
0000
0000
0000
0000
3003
,  // measure 53
1000
0100
1000
0000
0001
0100
0001
0000
1000
0100
1000
0000
0001
0010
0001
0000
1000
0010
1000
0000
0001
0010
0001
0000
,  // measure 54
2000
0000
0000
3002
0000
0000
0203
0000
,  // measure 55
0000
0000
0000
0320
,  // measure 56
1030
0100
0010
0100
1000
0010
0100
0001
0010
0001
0100
0010
1000
0010
0100
0001
,  // measure 57
0010
0100
1000
0001
0100
0010
1000
0100
0010
0001
1000
0010
0100
0010
1000
0001
,  // measure 58
1000
0100
1000
0100
0000
0000
0010
0100
0010
0100
0000
0000
0010
0001
0010
0001
0000
0000
1000
0001
1000
0001
0000
0000
,  // measure 59
0001
0100
0001
0100
0000
0000
0010
0100
0010
0100
0000
0000
0010
1000
0010
1000
0000
0000
0001
1000
0001
1000
0000
0000
,  // measure 60
2000
0000
0000
0000
,  // measure 61
0000
0000
3000
0000
,  // measure 62
0001
0010
0100
1000
0010
0100
0001
0010
0001
1000
0010
1000
,  // measure 63
0100
0010
0001
0100
0010
1000
0100
0010
0100
1000
0010
0100
,  // measure 64
0001
0010
1000
0001
0100
1000
0010
0001
0010
1000
0100
0010
,  // measure 65
0001
0100
1000
0001
0010
1000
0100
0010
0100
1000
0010
0001
,  // measure 66
1000
0100
0010
1000
0100
0010
0001
0100
0001
0010
1000
0001
,  // measure 67
0100
0010
0001
0100
0010
0001
1000
0100
1000
0001
0020
0000
,  // measure 68
0030
0000
0000
0000
;
