#VERSION:0.83;
#TITLE:New Year;
#SUBTITLE:;
#ARTIST:Hyper Potions;
#TITLETRANSLIT:;
#SUBTITLETRANSLIT:;
#ARTISTTRANSLIT:;
#GENRE:;
#ORIGIN:;
#CREDIT:;
#BANNER:New Year.png;
#BACKGROUND:New Year-bg.png;
#PREVIEWVID:;
#JACKET:New Year-jacket.png;
#CDIMAGE:;
#DISCIMAGE:;
#LYRICSPATH:;
#CDTITLE:cdtitle.png;
#MUSIC:New Year.ogg;
#OFFSET:0.524000;
#SAMPLESTART:114.975998;
#SAMPLELENGTH:15.000000;
#SELECTABLE:YES;
#BPMS:0.000=160.000;
#STOPS:;
#DELAYS:;
#WARPS:;
#TIMESIGNATURES:0.000=4=4;
#TICKCOUNTS:0.000=4;
#COMBOS:0.000=1;
#SPEEDS:0.000=1.000=0.000=0;
#SCROLLS:0.000=1.000;
#FAKES:;
#LABELS:0.000=Song Start;
#BGCHANGES:1.500=New Year.avi=1.000=1=0=0=StretchNoLoop==CrossFade==,
99999=-nosongbg-=1.000=0=0=0 // don't automatically add -songbackground-
;
#KEYSOUNDS:;
#ATTACKS:
;

//---------------dance-single - ----------------
#NOTEDATA:;
#CHARTNAME:;
#STEPSTYPE:dance-single;
#DESCRIPTION:;
#CHARTSTYLE:;
#DIFFICULTY:Hard;
#METER:16;
#RADARVALUES:0.875809,0.983603,0.523541,0.528776,0.531394,1171.000000,1071.000000,100.000000,101.000000,0.000000,0.000000,0.000000,0.000000,0.000000,0.875809,0.983603,0.523541,0.528776,0.531394,1171.000000,1071.000000,100.000000,101.000000,0.000000,0.000000,0.000000,0.000000,0.000000;
#CREDIT:;
#NOTES:
// measure 0
0000
0000
0000
0000
,  // measure 1
0000
0000
0000
0000
,  // measure 2
0000
0000
0000
0000
,  // measure 3
1000
0100
0010
0001
2000
0000
0000
0000
,  // measure 4
3001
0100
0010
1000
0002
1000
0000
1000
,  // measure 5
1003
0000
0010
0000
0100
0000
0001
0000
0010
0100
0010
0100
0010
0100
1000
0000
,  // measure 6
0000
0000
1000
0000
0000
0000
1000
0000
0100
0000
1000
0100
0010
0001
0010
0001
,  // measure 7
1000
0100
0010
0001
1000
0100
0010
0001
2000
0000
0000
0000
3001
0100
0010
1000
,  // measure 8
0001
0100
0010
1000
0001
0100
0001
0000
1000
0000
0002
0000
0000
0000
0000
0000
,  // measure 9
1003
0010
0100
0001
1000
0010
0100
0001
1000
0100
0010
0001
0010
0100
1000
0010
,  // measure 10
0200
0000
0000
0320
,  // measure 11
1030
0100
0010
0001
1000
0100
0010
0000
0002
0000
0000
0000
1003
0010
0100
0001
,  // measure 12
1000
0010
0100
0001
1000
0010
0100
0001
2000
0000
0000
0000
3001
0010
0100
1000
,  // measure 13
0001
0100
0010
1000
0001
0100
0010
0000
2000
0000
0000
0000
3010
0100
0001
0000
,  // measure 14
0000
0000
0001
0000
0010
0000
0001
0000
0100
0000
0001
0010
0100
1000
0100
1000
,  // measure 15
0001
0010
0100
1000
0001
0010
0100
0000
2000
0000
0000
0000
3001
0100
0010
1000
,  // measure 16
0001
0100
0010
1000
0001
0100
0001
0000
0010
0000
0002
0000
0000
0000
0000
0000
,  // measure 17
1003
0010
0100
0001
1000
0010
0100
0001
1000
0100
0010
0001
0010
0100
1000
0010
,  // measure 18
0100
0001
0100
0010
0100
0010
1000
0010
1000
0001
1000
0001
,  // measure 19
1000
0000
0001
0010
0001
0000
0100
0000
0010
0000
1000
0000
0001
0000
0000
0000
,  // measure 20
0001
0000
1000
0100
1000
0000
0010
0000
0100
0000
0001
0000
1000
0000
1000
0010
,  // measure 21
1000
0000
0001
0100
0001
0000
0010
0000
0100
0000
1000
0000
0001
0000
0200
0000
,  // measure 22
0010
0000
0310
0100
0010
0000
0100
0000
0001
0000
0010
0000
0001
0000
0001
0100
,  // measure 23
0001
0000
1000
0010
1000
0000
0100
0000
0010
0000
0001
0000
1000
0000
0000
0000
,  // measure 24
1000
0000
0001
0100
0001
0000
0010
0000
0100
0000
1000
0000
0001
0000
0001
0010
,  // measure 25
0001
0000
1000
0100
1000
0000
0010
0000
0100
0000
0001
0000
1000
0000
0200
0000
,  // measure 26
0010
0000
0310
0100
0010
0000
0001
0000
1001
0000
0000
0000
0100
0010
0100
0010
,  // measure 27
0100
0001
0010
0100
1000
0001
0011
0011
,  // measure 28
0011
0110
0110
1100
1000
0001
0101
0101
,  // measure 29
0110
0000
0000
0000
0010
0000
0000
0000
0100
0000
0000
0000
0001
0000
0000
0000
0010
0000
0000
0000
0100
0000
0000
0000
1000
0000
0000
0000
0001
2000
0000
0000
,  // measure 30
0000
0000
3001
0010
0001
0000
0100
0000
0010
0000
0100
0000
1000
0000
0001
0000
,  // measure 31
0100
1000
0010
0100
0001
1000
0010
0110
,  // measure 32
0110
0110
0101
0101
0001
1000
1010
1010
,  // measure 33
1001
0000
0000
0000
0001
0000
0000
0000
0011
0000
0000
0000
0010
0000
0000
0000
0110
0000
0000
0000
0100
0000
0000
0000
1000
0001
0000
0000
0020
0000
0000
0000
,  // measure 34
0000
0031
1000
0200
0010
0310
0100
1000
,  // measure 35
0010
1000
0100
0010
0002
2003
0001
0001
,  // measure 36
3001
0010
0100
1000
0002
2003
0000
0000
,  // measure 37
3001
0000
0000
0000
0100
0000
0000
0000
0010
0000
0000
0000
1000
0000
0000
0000
0100
0000
0000
0000
0010
0000
0000
0000
0001
0000
0000
0000
1000
0002
0000
0000
,  // measure 38
0000
0000
1003
0100
1000
0000
0010
0000
0100
0000
0010
0000
0001
0000
1000
0000
,  // measure 39
0010
0100
1000
0010
0100
0110
0010
2010
,  // measure 40
0000
3001
1000
0100
0010
0011
0001
1000
,  // measure 41
1001
0001
1000
0010
0110
0100
0101
0021
,  // measure 42
0000
0000
0130
0000
1000
0000
0010
0000
0100
0001
0100
0001
1000
0010
1000
0010
,  // measure 43
0100
0001
1000
0100
1100
0000
1000
0010
,  // measure 44
0100
0000
0001
0000
0010
0000
0100
1000
0100
0000
1000
0000
0010
0000
1000
0000
,  // measure 45
0100
0010
0001
0100
0101
0000
0001
0010
,  // measure 46
0100
0000
1100
0000
1000
0000
0001
0000
1001
0000
0100
0010
0100
0000
0010
0000
,  // measure 47
0010
1000
0001
0010
0011
0000
0001
0100
,  // measure 48
0010
0000
1000
0000
0100
0000
0010
0001
0010
0000
0001
0000
0100
0000
0001
0000
,  // measure 49
0010
0100
1000
0010
1010
0000
1000
0100
,  // measure 50
0010
0000
0011
0000
0001
0000
1000
0000
1001
0000
0000
0000
0001
0010
0100
1000
,  // measure 51
0001
0001
2000
3000
0110
0100
0002
0000
,  // measure 52
0103
0001
1000
0010
1000
0100
0010
0001
,  // measure 53
1000
1000
0020
0030
1001
0001
0200
0000
,  // measure 54
0310
0000
1000
0100
1000
0000
0000
0000
1010
0000
0000
0000
0011
0000
0000
0000
,  // measure 55
1001
1000
0002
0003
1100
0000
2000
3001
,  // measure 56
0000
0010
0002
0003
0101
0000
0200
0310
,  // measure 57
0000
1000
0200
0300
0110
0000
0020
0031
,  // measure 58
0000
1000
0002
0003
2002
0000
0000
3003
,  // measure 59
2010
0000
0000
0010
0000
3200
0320
0032
,  // measure 60
0000
0000
0100
0000
0000
0203
0000
0010
,  // measure 61
0320
0000
2030
3200
0000
2300
3002
0023
,  // measure 62
0100
0000
0100
0000
0001
0032
1000
0000
,  // measure 63
2003
0000
0000
0001
0000
3002
0023
0230
,  // measure 64
0000
0000
0010
0000
0000
0000
0010
0000
0000
0000
1300
0100
2000
0000
3002
0000
,  // measure 65
0023
0000
0000
0000
0032
0000
0203
0000
0000
0000
0320
0000
1030
0100
0020
0000
,  // measure 66
0000
0230
2300
3002
1000
0003
1001
0001
,  // measure 67
1010
0000
1000
0000
0100
0000
0010
0001
0100
0000
0001
0000
0010
0000
0100
2000
,  // measure 68
0000
0000
3010
0000
0100
0000
0001
0010
0100
0000
0010
0000
0001
0000
0100
0000
,  // measure 69
0010
2000
0000
0000
3001
0000
0100
0010
1000
0000
0010
0000
0100
0000
0002
0000
,  // measure 70
0000
0000
0013
0100
0010
0000
0100
1000
0001
0000
0010
0200
0000
0000
0310
0000
,  // measure 71
0011
0000
0001
0000
1000
0000
0010
0100
0001
0000
0011
0000
1000
0000
2200
0000
,  // measure 72
0300
0000
3001
0000
0100
0000
0010
1000
0100
0000
1000
0020
0000
0000
0130
0000
,  // measure 73
0002
0000
0000
0000
0013
0000
0100
1000
0001
0000
0100
0000
0010
0100
0002
0000
,  // measure 74
0000
0000
0013
0000
0100
0000
1000
0001
0100
0000
0202
0000
0000
0000
0303
0000
,  // measure 75
1000
0000
0001
0010
0001
0000
1000
0100
1000
0000
0010
0100
0000
0010
0100
0000
,  // measure 76
0001
0000
1000
0010
1000
0000
0001
0100
0001
0000
1000
0001
0100
0010
0100
0010
,  // measure 77
1000
0100
0010
0001
1000
0100
0010
0001
2000
0000
0001
0000
3001
0100
0010
1000
,  // measure 78
0001
0100
0010
1000
0001
0100
0010
1000
0002
0000
1003
0001
1000
0000
1001
0000
,  // measure 79
1000
0010
0100
0001
1000
0010
0100
0001
2000
0000
0001
0000
3001
0000
0011
0000
,  // measure 80
0100
0000
1100
0000
0010
0000
0110
0000
1000
0000
0001
0010
0100
1000
0100
1000
,  // measure 81
0001
0010
0100
1000
0001
0010
0100
1000
0002
0000
1000
0000
1003
0010
0100
0001
,  // measure 82
1000
0010
0100
0001
1000
0010
1000
0000
0100
0000
2000
0000
0001
0000
0001
0000
,  // measure 83
3001
0100
0010
1000
0001
0100
0010
1000
0001
0010
0100
1000
0100
0010
0001
0100
,  // measure 84
0020
0100
0100
0230
,  // measure 85
0301
0010
0100
1000
0001
0010
0100
0000
2000
0000
0001
0000
3001
0100
0010
1000
,  // measure 86
0001
0100
0010
1000
0001
0100
0010
1000
0002
0000
1000
0000
1003
0100
0010
0001
,  // measure 87
1000
0010
0100
0001
1000
0010
0100
0000
0002
0000
1000
0000
1003
0000
1010
0000
,  // measure 88
0100
0000
0101
0000
0010
0000
0110
0000
0001
0000
1000
0100
0010
0001
0010
0001
,  // measure 89
1000
0001
1000
0010
0100
0001
0000
0020
,  // measure 90
0000
0031
1000
0010
1000
0100
0000
0010
,  // measure 91
0011
0001
1000
1010
0010
0100
0100
0001
,  // measure 92
0100
0000
0101
0000
0001
0000
1000
0000
1001
0000
0000
0000
1000
0100
0010
0001
,  // measure 93
1000
0000
0010
0100
0001
0000
0010
0000
0002
0000
1003
0000
1100
0000
1100
0000
,  // measure 94
0110
0000
0010
0001
1000
0000
0010
0000
2000
0000
3001
0000
0101
0000
0101
0000
,  // measure 95
0110
0000
0000
0000
0010
0000
1000
0000
0001
0000
0000
0000
0100
0000
0000
0000
0002
0000
0000
0000
1003
0000
0000
0000
0010
0000
0000
0000
0100
0002
0000
0000
,  // measure 96
0000
0000
1003
0100
1000
0000
0010
0000
0110
0000
0100
0000
0010
0000
1000
0000
,  // measure 97
1001
0000
0001
0010
0100
0000
1000
0000
0002
0000
1003
0000
0010
0000
0110
0000
,  // measure 98
0110
0000
0100
0001
1000
0000
0100
0000
2000
0000
3001
0010
0001
0000
0101
0000
,  // measure 99
1001
0000
0000
0000
0001
0000
0100
0000
0010
0000
0000
0000
0100
0000
0000
0000
0002
0000
0000
0000
1003
0000
0000
0000
0001
1000
0000
0000
0200
0000
0000
0000
,  // measure 100
1300
0010
1000
0010
0100
0000
0001
0010
0001
0010
0100
0000
0010
0000
0010
0000
,  // measure 101
0011
0000
0000
1100
0000
0000
1001
0000
0000
0001
0000
0000
0010
0000
0100
0000
1000
0000
0001
0000
0000
0200
0000
0000
,  // measure 102
0000
0000
0310
0000
1000
0000
0100
0000
0110
0000
0020
0000
0000
0000
0031
1000
,  // measure 103
0001
0010
0100
1000
1010
0010
0100
0102
,  // measure 104
0000
0013
0100
1000
1001
0001
0100
0010
,  // measure 105
0110
0100
0001
1000
1100
1010
0100
0021
,  // measure 106
0000
0130
1000
0010
0100
0101
0001
1000
,  // measure 107
1001
0001
0010
0110
0100
1000
1100
0011
,  // measure 108
0001
0101
0101
0100
0110
1010
0101
1001
,  // measure 109
1000
0000
0100
0000
0010
0000
0001
0100
0001
0000
1000
0000
0001
0000
0010
0000
,  // measure 110
1000
0000
0010
0000
0100
0000
1000
0100
1000
0000
0001
0000
1000
0000
0100
0000
,  // measure 111
0001
0000
0100
0000
0010
0000
0001
0010
0001
0000
1000
0000
0001
0000
0100
0000
,  // measure 112
0010
2000
0010
3010
1010
1000
0100
0010
,  // measure 113
0001
0000
1000
0000
0010
0000
0100
0001
0100
0000
0010
0000
0001
0000
0010
0000
,  // measure 114
1000
0000
0001
0000
0010
0000
0100
1000
0100
0000
0010
0000
1000
0000
0010
0000
,  // measure 115
0001
0000
1000
0000
0100
0000
0010
0001
0010
0000
0100
0000
1000
0000
0010
0000
,  // measure 116
0100
0002
0010
0013
0011
0001
0100
0010
,  // measure 117
1000
0000
0100
0000
0001
0000
0100
0010
0001
0000
0100
0000
0010
0000
1000
0000
,  // measure 118
0001
0000
0010
0000
1000
0000
0010
0100
1000
0000
0001
0000
0010
0000
0001
0000
,  // measure 119
1000
0000
0010
0000
0001
0000
0010
0100
0001
0000
0010
0000
0100
0000
1000
0000
,  // measure 120
0010
0200
0001
0301
0101
0100
0010
1000
,  // measure 121
0001
0000
0010
0000
0100
0000
1000
0010
0001
0000
0010
0000
0100
0000
0001
0000
,  // measure 122
1000
0000
0100
0000
0010
0000
0001
0100
1000
0000
0100
0000
0001
0000
0010
0000
,  // measure 123
0100
0000
0010
0000
0001
0000
1000
0100
0001
0000
0100
0000
1000
0000
0010
0000
,  // measure 124
0100
0000
0020
0000
1000
0000
1030
0000
1010
0000
0010
0000
0100
0001
0010
0100
,  // measure 125
2000
3000
0000
0000
;

//---------------dance-single - ----------------
#NOTEDATA:;
#CHARTNAME:;
#STEPSTYPE:dance-single;
#DESCRIPTION:;
#CHARTSTYLE:;
#DIFFICULTY:Medium;
#METER:11;
#RADARVALUES:0.561685,0.557375,0.120414,0.575895,0.023559,751.000000,728.000000,23.000000,110.000000,0.000000,0.000000,0.000000,0.000000,0.000000,0.561685,0.557375,0.120414,0.575895,0.023559,751.000000,728.000000,23.000000,110.000000,0.000000,0.000000,0.000000,0.000000,0.000000;
#CREDIT:;
#NOTES:
0000
0000
0000
0000
,
0000
0000
0000
0000
,
0000
0000
0000
0000
,
0001
0010
0100
1000
0002
0000
0000
0000
,
1003
0100
0010
0001
2000
0000
0000
0000
,
3001
0100
0010
1000
0200
0000
0000
0310
,
0000
0010
0000
0010
0000
0010
0002
0000
,
1003
0100
1000
0100
2000
0000
3001
0010
,
0001
0010
0001
1000
0000
2000
0000
0000
,
3001
0100
0010
0100
0001
1000
0100
0010
,
0200
0000
0000
0310
,
0001
0010
0100
0010
0002
0000
1003
0100
,
0010
0100
0010
0100
2000
0000
3001
0100
,
0010
0100
0010
0100
0002
0000
1003
0100
,
0000
0100
0000
0100
0000
0100
2000
0000
,
3001
0010
0100
0010
0002
0000
1003
0100
,
0010
0100
1000
0001
0000
0002
0000
0000
,
1003
0010
0100
0010
1000
0001
0010
0100
,
0010
1000
0020
0000
0000
0000
0000
0000
,
0030
0001
1000
0010
1000
0100
0000
0000
,
0000
1000
0001
0100
0001
0010
0000
0000
,
0000
0001
0100
0010
0100
1000
0100
0020
,
0000
1030
0100
0010
0000
0001
0100
0010
,
0000
1000
0100
0010
0001
0010
0000
0000
,
0000
0001
0010
0100
1000
0100
0000
0000
,
0000
1000
0010
0100
0010
0001
0010
0200
,
0000
0310
1000
0200
0000
0310
0002
0000
,
1003
0001
0010
0100
1000
0100
0000
0100
,
1000
0001
0100
0010
1000
0100
0000
0100
,
1000
0010
0100
0010
0001
0010
1000
0200
,
0000
0310
0001
1000
0010
1000
0001
0010
,
0001
1000
0100
0010
0001
0010
0000
0010
,
0001
1000
0010
0100
0001
0010
0000
0010
,
0001
0100
0010
0100
1000
0100
0001
0020
,
0000
0130
1000
0020
0000
0130
0001
1000
,
0001
0010
0100
1000
0100
0010
0000
0010
,
0001
0100
0010
1000
0010
0200
0000
0000
,
0301
1000
0100
1000
0001
0010
0001
0200
,
0000
0310
1000
0100
0010
1000
0010
0001
,
1000
0010
0100
0001
0010
0002
0000
0203
,
0000
0310
1000
0100
1000
0010
0000
0100
,
0001
0010
0100
0020
0000
0031
1000
0200
,
0000
1000
1300
0002
0000
0013
0100
1000
,
0001
0100
0000
0010
0000
1000
0100
0010
,
0000
0100
0000
1000
0001
0010
0000
0100
,
0010
0001
0100
0010
0000
1000
0001
0010
,
0000
0000
0100
0000
0000
0000
1000
0000
0010
0000
0100
0010
0200
0000
0000
0000
,
0301
1000
0000
0100
0000
0010
0001
0100
,
0000
0001
0000
0020
0000
0000
0130
1000
,
0001
0100
0000
0001
0000
0010
0100
1000
,
0000
0010
0000
1000
0100
0000
0020
0000
,
0031
2000
3100
0002
,
0013
0000
1000
0100
0010
0100
1000
0001
,
0100
0020
1030
0001
,
0011
1100
0110
1001
,
0110
0000
0200
0000
0301
0000
0010
0001
,
0000
0100
0010
0000
1000
0000
0100
0010
,
0000
0100
1000
0000
0001
0000
0010
0100
,
0000
0010
0001
0000
2002
0000
3003
0000
,
2000
0000
0000
0000
0000
3001
0010
0200
,
0000
0000
0000
0000
0000
0320
0000
0000
,
0032
0000
1003
0200
0000
1300
0010
0200
,
0000
0000
0000
0000
0000
0320
0000
0000
,
2030
0000
0000
0000
0000
3100
0010
0002
,
0000
0000
0000
0000
0000
0000
0000
0000
0000
0000
0103
0020
0000
0000
0130
0000
,
0002
0000
0000
0000
0013
0000
0200
0000
0000
0000
1300
0000
0010
0100
0020
0000
,
0000
1030
0001
0020
0000
0030
0110
0000
,
1001
0000
1000
0001
0010
0001
0100
0020
,
0000
1030
0100
0010
0001
0200
0000
0310
,
2000
0000
3100
0020
0000
0130
1000
0002
,
0000
1003
0010
0200
0000
0320
0000
1030
,
1001
0000
0001
0010
0100
1000
0010
2000
,
0000
0000
3100
0000
0010
0000
0001
0000
1000
0000
0100
2000
0000
0000
3010
0000
,
0200
0000
0301
0020
0000
0130
1000
0020
,
0000
0130
0001
1000
0000
2002
0000
3003
,
1000
0000
0100
0000
1000
0000
0010
0000
1000
0000
0000
1000
0000
0000
1000
0000
,
0001
0000
0010
0000
0001
0000
0100
0000
0010
0000
0000
0010
0000
0000
0000
0000
,
1000
0000
1100
0100
0000
0010
0011
0000
,
0001
0000
0000
0000
0101
0000
0000
0000
0100
0000
0000
0010
0100
0000
0010
0000
,
0010
0000
1010
1000
0000
0100
0110
0010
,
0000
0011
0000
1100
0000
0010
0200
0000
,
0310
0000
1010
0000
1000
0001
0101
0100
,
0000
0010
0110
0100
0000
0001
1001
0000
,
1000
0100
0010
0100
1000
0001
0100
0010
,
0200
0000
0000
0310
,
1000
0100
0010
0100
2000
0000
3001
0010
,
0100
1000
0100
0010
0002
0000
1003
0010
,
0100
0001
0100
0010
2000
0000
3001
0010
,
0000
0011
0000
1100
0000
0010
0200
0000
,
0310
1000
0100
1000
0010
0100
0000
0002
,
0000
0013
0100
0010
0001
1000
0000
0010
,
0100
0010
1000
0200
0000
0310
0001
2000
,
0000
3001
0100
0020
0000
1030
0200
0000
,
1300
0010
0100
0001
0010
0100
0000
0010
,
0010
0001
0100
0010
1000
0100
0000
1000
,
1000
0010
0100
0010
0001
0010
1000
0200
,
0000
0310
0001
1000
0010
1000
0001
0010
,
0001
0100
0010
1000
0100
0010
0000
0100
,
0100
1000
0010
0100
0001
0010
0000
0001
,
0001
0100
0010
0100
1000
0100
0001
0020
,
0000
0130
1000
0020
0000
0130
0001
1000
,
0100
0000
0000
0100
0000
0000
0100
0000
0000
0010
0000
0000
0001
0000
1000
0000
0001
0000
1000
0000
0000
0010
0000
0000
,
0000
1000
0100
0010
0001
1000
0000
0010
,
0010
1000
0100
1000
0010
0100
0001
0020
,
0000
0130
1000
0010
0100
1000
0100
0001
,
1000
0100
1000
0001
0010
0002
0000
0203
,
0000
0310
1000
0100
0010
0100
0000
1000
,
0001
0100
0010
2000
0000
3100
0010
0002
,
0000
1003
0010
0200
0000
0301
0010
0100
,
1000
0010
0100
0001
0010
0200
0000
0320
,
0000
0032
0000
1003
0100
0010
0100
1000
,
0001
0100
0010
1000
0100
0020
0000
0230
,
0000
2300
0000
3001
0010
0100
0010
0001
,
1000
0010
0100
0001
0010
0002
0000
0203
,
0000
0320
0000
1030
0100
0010
0100
1000
,
0001
0100
0010
1000
0100
2000
0000
3020
,
0000
0230
0000
0301
0010
0100
0010
0001
,
1000
0001
0100
0010
1000
0200
0000
0320
,
0000
0032
0000
0103
0010
1000
0100
0010
,
0001
1000
0010
0100
0001
0020
0000
0230
,
0000
2300
0000
3010
0100
0001
0010
0100
,
1000
0001
0100
0010
0100
0002
0000
2003
,
0000
3020
0000
0130
0001
0010
0100
1000
,
0001
1000
0010
0100
0010
2000
0000
3002
,
0000
0103
0020
0000
1030
0100
0010
0001
,
2000
3000
0000
0000
;

//---------------dance-single - ----------------
#NOTEDATA:;
#CHARTNAME:;
#STEPSTYPE:dance-single;
#DESCRIPTION:;
#CHARTSTYLE:;
#DIFFICULTY:Challenge;
#METER:15;
#RADARVALUES:0.721739,0.819669,0.769605,0.172769,0.096855,965.000000,818.000000,147.000000,33.000000,208.000000,0.000000,0.000000,0.000000,0.000000,0.721739,0.819669,0.769605,0.172769,0.096855,965.000000,818.000000,147.000000,33.000000,208.000000,0.000000,0.000000,0.000000,0.000000;
#CREDIT:;
#NOTES:
0000
0000
0000
0000
,
0000
0000
0000
0000
,
0000
0000
0000
0000
,
1000
0100
1000
0000
0101
0000
MMMM
0000
,
0001
0100
0001
0000
1100
0000
MMMM
0000
,
1000
0010
1000
0000
0011
0000
MMMM
0001
,
0000
0100
0000
0010
0000
1000
0002
0000
,
1003
0100
0010
0100
1000
MMMM
0001
0010
,
0100
0010
0001
1000
0000
0002
0000
0000
,
1003
0010
0100
0001
1000
0100
0010
0001
,
0200
0000
0000
0000
0000
0000
0310
MMMM
,
1000
0000
0100
0000
0010
0001
0010
0000
1100
0000
MMMM
0000
1000
0100
1000
0000
,
0010
0000
0100
0000
0001
0010
0001
0000
1010
0000
MMMM
0000
0001
0100
0001
0000
,
0010
0000
0100
0000
1000
0010
1000
0000
0011
0000
MMMM
0000
0001
0100
0010
0000
,
MMMM
1010
MMMM
0101
MMMM
0110
1001
MMMM
,
0001
0000
0010
0000
0100
1000
0100
0000
0011
0000
MMMM
0000
1000
0010
1000
0000
,
0100
0010
0001
1000
0000
0002
0000
0000
,
1003
0010
0100
0001
1000
0100
0010
0001
,
0200
0000
0000
0000
,
0300
0001
0010
0100
1000
0001
MMMM
0000
,
MMMM
1000
0010
0100
0001
1000
MMMM
0000
,
MMMM
0001
0100
0010
0100
0001
1000
0100
,
MMMM
0010
0001
0100
MMMM
0010
1000
0100
,
MMMM
1000
0100
0010
0001
1000
MMMM
0000
,
MMMM
0001
0100
0010
1000
0001
MMMM
0000
,
MMMM
1000
0010
0100
0010
1000
0001
0010
,
MMMM
0100
1000
0010
MMMM
0100
1001
MMMM
,
0001
0010
0100
1000
1010
0010
0100
0100
,
0001
0100
0010
1000
1100
0100
0000
0100
,
1000
0001
0010
0001
1000
0010
1000
0120
,
0000
0000
1030
0100
1000
0000
0010
0000
0001
0000
0010
0000
1000
0000
0001
0000
,
1000
0100
0010
0001
0101
0100
0010
0010
,
1000
0010
0100
0001
0011
0010
0000
0010
,
0001
1000
0100
1000
0001
0100
0101
0002
,
0000
1003
1100
0200
0000
0310
0001
1000
,
0100
1000
0010
0100
0101
0001
0100
0100
,
0010
1000
0100
0010
0011
0001
MMMM
MMMM
,
0100
0010
1000
0010
0100
0001
0100
2001
,
0000
0000
3001
0010
0001
0000
0100
0000
1000
0000
0100
0000
0001
0000
1000
0000
,
0001
0010
0100
1000
0010
1010
0000
0101
,
0000
0001
1000
0100
1100
1000
0000
0001
,
0011
0010
0001
0101
0000
0100
0010
1010
,
0000
0000
1000
0000
0100
0000
0110
0000
0010
0001
0010
0001
0010
0100
0010
0001
,
1000
0100
0010
0001
0200
0000
1000
0000
,
0301
0010
0100
1000
0020
0000
0001
0000
,
1030
0100
0001
0100
2000
0000
0100
0000
,
3001
0010
1000
0010
0011
0000
1100
0000
,
0100
0010
0001
1000
0200
0000
0001
0000
,
0310
0100
1000
0001
0020
0000
1000
0000
,
0130
0010
1000
0010
0002
0000
1000
0000
,
0013
0000
0100
0000
0001
0000
0100
0000
0110
0000
0000
0000
0001
1000
0001
1000
,
0001
1100
0010
0101
,
1000
0100
0010
0000
0001
0100
0010
0000
,
1000
0100
0100
0000
0001
0100
0100
0000
,
0101
MMMM
1010
MMMM
1100
MMMM
0011
MMMM
,
1010
0000
0110
0000
1001
0000
0001
0010
,
0100
0010
0001
0000
0011
0000
1000
0100
,
0010
0100
1000
0000
1100
0000
0001
0100
,
0010
1000
0001
0000
1001
MMMM
MMMM
MMMM
,
1010
0000
0000
1100
0000
0000
1010
0000
,
0000
0000
0110
0000
0000
0101
0000
0011
,
0011
0000
0000
1100
0000
0000
1001
0000
,
0011
1010
1100
0101
,
1001
0000
0000
1010
0000
0000
1100
0000
,
0000
0101
0000
0011
0000
0000
0110
0000
,
0101
0000
0000
1100
0000
0000
0011
0000
,
0000
1010
0000
0000
0101
0000
0001
1001
,
1000
0010
0100
0001
1001
1000
0010
2000
,
0000
3001
0010
0001
0101
0200
0000
0310
,
2000
0000
3100
0010
0011
0001
0100
0020
,
0000
0000
1030
0100
1000
0000
0010
0000
1010
0000
0100
0000
1001
0000
MMMM
0000
,
0001
0100
0010
1000
1100
0100
0010
0012
,
0000
0000
1003
0000
0100
0000
1000
0000
1010
0000
0010
0200
0000
0000
0301
0000
,
0020
0000
0031
1000
1010
0010
0100
0102
,
0000
1003
0100
0010
0110
2002
3003
MMMM
,
1010
0000
0010
0000
0110
0000
0100
0000
0101
0000
0000
0011
0000
0000
1100
0000
,
0101
0001
1001
1000
1100
0011
1001
MMMM
,
1000
0001
0101
0100
0010
1000
1100
0100
,
1000
0000
0001
0000
0011
0000
0010
0000
0100
0000
1000
0010
1000
0000
1010
0000
,
1001
0001
0011
0010
0100
1000
1001
0110
,
MMMM
0011
MMMM
1100
MMMM
0110
1001
MMMM
,
0001
1000
1010
0010
0100
0001
0011
0010
,
0001
1000
1100
0110
0010
0012
0000
0000
,
1003
0010
0100
0001
1000
0100
0010
0001
,
0200
0000
0000
0000
0000
0000
0310
MMMM
,
1000
0100
1000
0000
0001
0010
0001
0000
1100
0000
MMMM
0000
0001
0010
0001
0000
,
1000
0100
1000
0000
0001
0100
0001
0000
1010
0000
MMMM
0000
1000
0100
0010
0000
,
0001
0100
0001
0000
1000
0010
1000
0000
0101
0000
MMMM
0000
0001
0100
0010
0000
,
MMMM
1010
MMMM
0101
MMMM
0110
1001
MMMM
,
1000
0010
0100
0001
0010
0011
0000
1100
,
0000
1000
0001
0100
0101
0001
0000
1000
,
1100
0100
0010
0011
0001
1000
1010
0010
,
0100
0000
0101
0000
0001
0000
1000
0000
1001
0000
0000
0000
0001
1000
0001
1000
,
0001
0010
0100
1000
1010
0010
1000
1000
,
0010
0100
0001
1000
1100
0100
0010
0010
,
0010
0001
0100
0001
1000
0100
1000
0210
,
0000
0000
1300
0010
1000
0000
0100
0000
0001
0000
0100
0000
1000
0000
0001
0000
,
1000
0100
0010
0001
0101
0100
0001
0001
,
0100
0010
1000
0001
0011
0010
0100
0100
,
0100
1000
0010
1000
0001
0010
0011
0002
,
1000
1003
1010
0020
0100
0130
0001
1000
,
0110
0000
0000
0110
0000
0000
0110
0000
0000
0001
0000
0000
1000
0000
0001
0000
1000
0000
0001
0000
0000
0020
0000
0000
,
0000
0000
0031
0000
0100
0000
0010
0000
1010
0000
1000
0000
MMMM
0000
0100
0010
,
0100
1000
0010
0100
0001
0010
0001
2100
,
0000
3001
0100
0010
0001
0010
1000
0001
,
1000
0100
0010
0001
0100
0101
0000
1010
,
0000
1000
0001
0010
0011
0001
0000
1000
,
1100
0010
0010
0011
0100
0100
1000
1010
,
0001
0001
0100
0101
0010
0100
1000
1001
,
0001
0100
0001
0010
0010
0100
0010
0001
,
1000
0010
1000
0100
0100
0010
0100
1000
,
0001
0100
0010
1000
1000
0100
0010
0100
,
1000
0010
0100
0001
0011
0010
0100
1000
,
0001
1000
0100
0010
0010
0001
0100
0010
,
1000
0001
0010
0100
0100
1000
0010
0100
,
0001
0010
0100
1000
1000
0010
0100
0010
,
1000
0100
0010
0001
0101
0100
0010
1000
,
0001
0010
1000
0010
0010
0100
0010
0001
,
1000
0100
0001
0100
0100
0010
0100
1000
,
0001
0100
1000
0100
0100
0010
1000
0001
,
1000
0010
0001
0010
1010
1000
0100
0010
,
0001
1000
0100
0001
0001
0100
0010
0100
,
1000
0001
0010
1000
1000
0010
0100
0010
,
0001
1000
0010
0001
0001
0010
0100
0001
,
1000
0000
0001
0000
0010
0000
0100
0000
1100
0000
1000
0000
0001
1000
0001
1000
,
0020
0030
0000
0000
;

//---------------dance-single - ----------------
#NOTEDATA:;
#CHARTNAME:;
#STEPSTYPE:dance-single;
#DESCRIPTION:;
#CHARTSTYLE:;
#DIFFICULTY:Beginner;
#METER:3;
#RADARVALUES:0.172769,0.229049,0.015706,0.089002,0.000000,231.000000,228.000000,3.000000,17.000000,0.000000,0.000000,0.000000,0.000000,0.000000,0.172769,0.229049,0.015706,0.089002,0.000000,231.000000,228.000000,3.000000,17.000000,0.000000,0.000000,0.000000,0.000000,0.000000;
#CREDIT:;
#NOTES:
0000
0000
0000
0000
,
0000
0000
0000
0000
,
0000
0000
0000
0000
,
0000
0000
2000
0000
,
3000
0000
0002
0000
,
0003
0000
0200
0000
,
0300
0000
0020
0000
,
0030
0000
2000
0000
,
3000
0000
0002
0000
,
0003
0000
0020
0000
,
0030
0000
0000
0000
,
1000
0000
1000
0000
,
0001
0000
0001
0000
,
0100
0000
0100
0000
,
0010
0000
0010
0000
,
0001
0000
0001
0000
,
1000
0000
1000
0000
,
0010
0000
0010
0000
,
0200
0000
0000
0000
,
0300
1000
1000
0000
,
0000
0001
0001
0000
,
0000
1000
1000
1000
,
0000
0001
0000
1000
,
0000
0010
0010
0000
,
0000
0100
0100
0000
,
0000
0010
0010
0010
,
0000
0100
0000
0010
,
0010
0000
0001
0000
,
0010
0000
1000
0000
,
0100
0000
1000
0000
,
0010
0000
0100
0000
,
0001
0000
0010
0000
,
1000
0000
0010
0000
,
0001
0000
0100
0000
,
0010
0000
1000
0000
,
0100
0000
1000
0000
,
0100
0000
0001
0000
,
0010
0000
0001
0000
,
0100
0000
0010
0000
,
1000
0000
0100
0000
,
0001
0000
0100
0000
,
1000
0000
0010
0000
,
0100
0000
0001
0000
,
1000
0000
0000
0000
,
0001
0000
0000
0000
,
1000
0000
0000
0000
,
0001
0000
0000
0000
,
0100
0000
0000
0000
,
0010
0000
0000
0000
,
0100
0000
0000
0000
,
0010
0000
0000
0000
,
1000
0000
1000
0000
,
0001
0000
0001
0000
,
1000
0000
1000
0000
,
0001
0001
0001
0000
,
0100
0000
0100
0000
,
0010
0000
0010
0000
,
0100
0000
0100
0000
,
0010
0000
1001
0000
,
2000
0000
0000
3000
,
0200
0000
0000
0300
,
0020
0000
0000
0030
,
0002
0000
0000
0003
,
0200
0000
0000
0300
,
0020
0000
0000
0030
,
2000
0000
0000
3000
,
0002
0000
0000
0003
,
1000
0000
1000
0000
,
0100
0000
0100
0000
,
0010
0000
0010
0000
,
0001
0000
0001
0000
,
0100
0000
0100
0000
,
0010
0000
0010
0000
,
1000
0000
1000
0000
,
0001
0000
0001
0000
,
1001
0000
0000
0000
,
0110
0000
0000
0000
,
1000
1000
1000
0000
,
0001
0001
0001
0000
,
0100
0100
0100
0000
,
0010
0000
0010
0000
,
0001
0001
0001
0000
,
1000
1000
1000
0000
,
0010
0010
0010
0000
,
0200
0000
0000
0300
,
1000
0000
1000
0000
,
0001
0000
0001
0000
,
0100
0000
0100
0000
,
0010
0000
0010
0000
,
0001
0000
0010
0000
,
1000
0000
0010
0000
,
0100
0000
0000
0100
,
0000
0000
0100
0000
,
1000
1000
1000
0000
,
0100
0000
0010
0000
,
0001
0001
0001
0000
,
0100
0000
0010
0000
,
1000
1000
1000
0000
,
0010
0000
0100
0000
,
0001
0001
0001
0000
,
0010
0000
0100
0000
,
0010
0010
0010
0000
,
0001
0000
1000
0000
,
0001
0000
0100
0000
,
0010
0000
0100
0000
,
0001
0000
0010
0000
,
1000
0000
0010
0000
,
0100
0000
0000
0100
,
0000
0000
0100
0000
,
1000
0000
1000
0000
,
0010
0000
0010
0000
,
0100
0000
0100
0000
,
0001
0000
1000
0000
,
0001
0000
0001
0000
,
0100
0000
0100
0000
,
0010
0000
0010
0000
,
1000
0000
0100
0000
,
0010
0000
0010
0000
,
0001
0000
0001
0000
,
1000
0000
1000
0000
,
0100
0000
0010
0000
,
0100
0000
0100
0000
,
1000
0000
1000
0000
,
0001
0000
0001
0000
,
0010
0000
0100
0000
,
1000
0000
0000
0000
;

//---------------dance-single - ----------------
#NOTEDATA:;
#CHARTNAME:;
#STEPSTYPE:dance-single;
#DESCRIPTION:;
#CHARTSTYLE:;
#DIFFICULTY:Easy;
#METER:6;
#RADARVALUES:0.294679,0.425377,0.083767,0.115179,0.000000,394.000000,378.000000,16.000000,22.000000,0.000000,0.000000,0.000000,0.000000,0.000000,0.294679,0.425377,0.083767,0.115179,0.000000,394.000000,378.000000,16.000000,22.000000,0.000000,0.000000,0.000000,0.000000,0.000000;
#CREDIT:;
#NOTES:
0000
0000
0000
0000
,
0000
0000
0000
0000
,
0000
0000
0000
0000
,
1000
0100
2000
0000
,
3001
0010
0002
0000
,
0103
0010
0200
0000
,
0310
0000
0010
0000
,
1000
1000
1000
0000
,
0001
0001
0001
0000
,
0100
0010
0100
0010
,
0200
0000
0000
0300
,
0001
0100
0001
0000
,
1000
0010
1000
0000
,
0100
0010
0100
0000
,
0010
0000
0010
0000
,
0001
0010
0001
0000
,
1000
0100
1000
0000
,
0010
0100
0010
0100
,
0020
0000
0000
0000
,
1030
1000
0100
0000
,
0001
0001
0100
0000
,
0010
0010
1000
0100
,
1000
1000
0001
0001
,
0100
0100
0001
0000
,
0010
0010
1000
0000
,
0001
0001
0010
0100
,
0010
0010
0110
0000
,
1000
1000
0100
1000
,
0001
0001
0010
0000
,
0100
0100
0010
0001
,
1000
0100
1000
1000
,
0001
0001
0100
0001
,
1000
1000
0010
0000
,
0100
0100
0010
1000
,
0002
0000
2003
0000
,
3001
0001
0100
0001
,
1000
1000
0010
0000
,
0100
0100
0010
1000
,
0001
0100
0001
0001
,
1000
0100
0010
0000
,
0001
0100
0010
0000
,
1000
0010
0100
0001
,
0010
0100
1000
0010
,
1000
0000
1000
0000
,
0100
0000
0100
0000
,
0010
0000
0010
0000
,
0001
0000
0001
0000
,
0100
0000
0100
0000
,
0010
0000
0010
0000
,
1000
0000
1000
0000
,
0001
0000
0001
0000
,
1000
1000
1000
0000
,
0010
0010
0010
0000
,
0100
0100
0100
0000
,
0001
0001
0001
0001
,
0010
0010
0010
0000
,
0100
0100
0100
0000
,
1000
1000
1000
0000
,
0001
1000
1001
0000
,
0002
0000
0000
0000
0000
0013
0000
0200
,
0000
0000
0000
0000
0000
2300
0000
0000
,
3020
0000
0000
0130
0000
0001
0000
0020
,
0000
0000
0000
0000
0000
0032
0000
0000
,
2003
0000
0000
0000
0000
3010
0000
0200
,
0000
0000
0000
0000
0000
0302
0000
0000
,
0023
0000
0000
0031
0000
1000
0000
0010
,
0000
1000
0000
0100
0000
0000
1000
0000
,
1000
0001
0010
0001
,
1000
0100
0010
0000
,
0001
0100
0010
1000
,
0100
0000
0000
1000
0000
1000
0000
0000
,
0001
1000
0100
1000
,
0001
0010
0100
0000
,
0010
0000
0001
0000
0000
0100
0000
0010
,
0000
1000
0000
0100
0000
0100
0000
0000
,
1000
1000
1000
0000
,
0001
0001
0001
0000
,
1000
1100
0001
0011
,
0100
0101
0010
1000
,
0100
0110
0001
1001
,
0200
1000
0001
1300
,
0010
0011
0100
1100
,
0001
0010
0100
1000
,
0010
0100
0010
0100
,
0020
0000
0000
0030
,
1000
0100
1001
0000
,
0001
0100
1001
0000
,
1000
0010
1001
0000
,
0010
0000
0010
0000
,
0001
0100
0010
0000
,
1000
0100
0010
0000
,
0100
0000
0000
0100
0000
0000
0010
0000
,
0000
0010
0000
0000
1001
0000
0000
0000
,
1000
0100
1000
1000
,
0001
0010
0001
0001
,
0100
0010
0100
0100
,
0001
1000
0001
0010
,
0001
0100
0001
0001
,
1000
0010
1000
1000
,
0100
0010
0100
0100
,
2000
0000
3002
0000
,
0013
0100
0010
0000
1001
0000
0000
0200
,
0000
0310
0110
0000
,
0001
0000
0000
0000
1001
0000
0000
1000
,
0000
0010
0100
0001
,
1000
0000
0100
0000
0010
0000
0000
0001
,
0000
0100
0010
0000
,
1000
0000
0000
0010
0000
0000
0100
0000
,
0000
0001
0000
0000
0010
0000
0100
0000
,
1000
0000
1000
0100
,
0010
0000
0010
0001
,
0100
0000
0100
0010
,
1000
0000
0100
0010
,
0001
0000
0001
0010
,
0100
0000
0100
1000
,
0010
0000
0010
0100
,
0001
0000
0010
0100
,
1000
0000
1000
0010
,
0100
0000
0100
0001
,
0010
0000
0010
0100
,
1000
0000
0010
0100
,
0001
0000
0001
0100
,
0010
0000
0010
1000
,
0100
0000
0100
0010
,
0001
0000
0100
0010
,
1000
0000
0000
0000
;
