#TITLE:Moons;
#SUBTITLE:;
#ARTIST:Patrick Patrikios;
#TITLETRANSLIT:;
#SUBTITLETRANSLIT:;
#ARTISTTRANSLIT:;
#GENRE:;
#CREDIT:;
#BANNER:Moons.png;
#BACKGROUND:Moons-bg.png;
#LYRICSPATH:;
#CDTITLE:cdtitle.png;
#MUSIC:Moons.ogg;
#OFFSET:-0.050000;
#SAMPLESTART:76.849998;
#SAMPLELENGTH:15.000000;
#SELECTABLE:YES;
#BPMS:0.000000=124.999992
;
#STOPS:
;
#BGCHANGES:;
#KEYSOUNDS:;
#ATTACKS:;

//---------------dance-single - ----------------
#NOTES:
     dance-single:
     :
     Hard:
     10:
     0.417027,0.547631,0.309268,0.445045,0.316811,387.000000,346.000000,41.000000,59.000000,0.000000,0.000000,0.417027,0.547631,0.309268,0.445045,0.316811,387.000000,346.000000,41.000000,59.000000,0.000000,0.000000:
// measure 0
0000
0000
0000
0000
,  // measure 1
0000
0000
0000
0000
,  // measure 2
0000
0000
0000
0000
,  // measure 3
0000
0000
0000
0000
,  // measure 4
2000
0000
0000
0000
,  // measure 5
3002
0000
0000
0000
,  // measure 6
0023
0000
0000
0000
,  // measure 7
0000
0000
0000
0000
,  // measure 8
0032
1000
0000
1000
0000
1000
0000
1000
,  // measure 9
2003
0010
0000
0010
0000
0010
0000
0010
,  // measure 10
3020
0100
0000
0100
0000
0100
0000
0100
,  // measure 11
0000
1000
0000
1000
0000
1000
0000
1000
,  // measure 12
2030
0100
0000
0100
0000
0100
0000
0100
,  // measure 13
3200
0010
0000
0010
0000
0010
0000
0010
,  // measure 14
0320
0001
0000
0001
0000
0001
0000
0001
,  // measure 15
0000
0100
0000
0100
0000
0100
0000
0130
,  // measure 16
1000
0000
0000
1000
0000
0000
1000
0000
0000
1000
0000
0000
0001
0000
0000
0001
,  // measure 17
0000
0000
0100
0000
0000
0100
0000
0000
0100
0000
0000
0100
0000
0000
0001
0000
,  // measure 18
0010
0000
0000
0010
0000
0000
0010
0000
0000
0010
0000
0000
0010
0000
0000
0010
,  // measure 19
0000
0000
0100
0000
0000
0100
0000
0000
1000
0000
0000
0010
0000
0000
1000
0000
,  // measure 20
0001
0000
0000
0001
0000
0000
0001
0000
0000
0001
0000
0000
1000
0000
0000
1000
,  // measure 21
0000
0000
0010
0000
0000
0010
0000
0000
0010
0000
0000
0010
0000
0000
1000
0000
,  // measure 22
0100
0000
0000
0100
0000
0000
0100
0000
0000
0100
0000
0000
0100
0000
0000
0100
,  // measure 23
0000
0000
0010
0000
0000
0010
0000
0000
0001
0000
0000
0100
0000
0000
0001
0000
,  // measure 24
2000
0000
0000
0001
0000
0000
0001
0000
0000
0001
0000
0000
3002
0000
0000
0010
,  // measure 25
0000
0000
0023
0000
0000
0100
0000
0000
0100
0000
0000
0100
0000
0000
0032
0000
,  // measure 26
0203
0000
0000
0010
0000
0000
0010
0000
0000
0010
0000
0000
0010
0000
0000
0010
,  // measure 27
0000
0000
0320
0000
0000
1000
0000
0000
2030
0000
0000
3200
0000
0000
2300
0000
,  // measure 28
3002
0000
0000
1000
0000
0000
1000
0000
0000
1000
0000
0000
2003
0000
0000
0100
,  // measure 29
0000
0000
3200
0000
0000
0010
0000
0000
0010
0000
0000
0010
0000
0000
2300
0000
,  // measure 30
3020
0000
0000
0100
0000
0000
0100
0000
0000
0100
0000
0000
0100
0000
0000
0100
,  // measure 31
0000
0000
0230
0000
0000
0001
0000
0000
0302
0000
0000
0023
0000
0000
0032
0000
,  // measure 32
1003
0001
1001
0000
0001
1000
1001
0000
,  // measure 33
0010
0100
0110
0000
0100
0010
0110
0000
,  // measure 34
1000
0010
1010
0000
0001
0100
0101
0000
,  // measure 35
0010
0001
0011
0000
0100
1000
1100
0000
,  // measure 36
2000
0001
3001
0000
0002
0100
0103
0000
,  // measure 37
0200
0010
0310
0000
0020
1000
1030
0000
,  // measure 38
2000
0100
3001
0000
0002
0010
1003
0000
,  // measure 39
0200
1000
0310
0000
0020
0001
0130
0000
,  // measure 40
1000
0010
0100
0001
0010
0100
1100
0000
,  // measure 41
0001
0010
0100
1000
0010
0100
0101
0000
,  // measure 42
1000
0001
0100
0010
0100
0001
0011
0000
,  // measure 43
0001
1000
0100
0010
0100
1000
1010
0000
,  // measure 44
2000
0100
3100
2000
0001
3001
1100
0000
,  // measure 45
0002
0100
0103
0002
1000
1003
0101
0000
,  // measure 46
2000
0010
3010
0200
0010
0310
1010
0000
,  // measure 47
0002
0010
0013
0200
0010
0310
0011
0000
,  // measure 48
1001
0000
0000
1001
0000
0000
1000
0000
1100
0000
0000
1100
0000
0000
0001
0000
,  // measure 49
0011
0000
0000
0011
0000
0000
0010
0000
0110
0000
0000
0110
0000
0000
0001
0000
,  // measure 50
0101
0000
0000
1001
0000
0000
1000
0000
1100
0000
0000
1001
0000
0000
0001
0000
,  // measure 51
0011
0000
0000
0110
0000
0000
1000
0000
1010
0000
0000
0110
0000
0000
0001
0000
,  // measure 52
1002
0000
0000
0100
0000
0000
1003
0000
2001
0000
0000
0100
0000
0000
3001
0000
,  // measure 53
0012
0000
0000
1000
0000
0000
0103
0000
2010
0000
0000
0001
0000
0000
3100
0000
,  // measure 54
1200
0000
0000
0010
0000
0000
1300
0000
0021
0000
0000
0100
0000
0000
0031
0000
,  // measure 55
0102
0000
0000
1000
0000
0000
0013
0000
2100
0000
0000
0001
0000
0000
3010
0000
,  // measure 56
1000
0001
0000
1000
0000
0000
0001
0000
1000
0001
0000
1000
0000
0000
0001
0000
,  // measure 57
1000
0001
0000
1000
0000
0000
0001
0000
1000
0001
0000
1000
0000
0000
0001
0000
,  // measure 58
0001
1000
0000
0001
0000
0000
1000
0000
0001
1000
0000
0001
0000
0000
1000
0000
,  // measure 59
0001
1000
0000
0001
0000
0000
1000
0000
0001
1000
0000
0001
0000
0000
1000
0000
,  // measure 60
2000
0001
0000
0001
0000
0000
3001
0000
2000
0001
0000
0001
0000
0000
3001
0000
,  // measure 61
2000
0001
0000
0001
0000
0000
3001
0000
2000
0001
0000
0001
0000
0000
3001
0000
,  // measure 62
0002
1000
0000
1000
0000
0000
1003
0000
0002
1000
0000
1000
0000
0000
1003
0000
,  // measure 63
0001
1000
0001
1000
0001
1000
0001
1000
,  // measure 64
2002
0000
0000
0000
,  // measure 65
0000
0000
0000
0000
,  // measure 66
3003
0000
0000
0000
;
