#VERSION:0.83;
#TITLE:Metamorphose;
#SUBTITLE:;
#ARTIST:CAPACITY GATE;
#TITLETRANSLIT:;
#SUBTITLETRANSLIT:;
#ARTISTTRANSLIT:;
#GENRE:;
#ORIGIN:;
#CREDIT:;
#BANNER:Metamorphose.png;
#BACKGROUND:Metamorphose-bg.png;
#PREVIEWVID:;
#JACKET:Metamorphose-jacket.png;
#CDIMAGE:;
#DISCIMAGE:;
#LYRICSPATH:;
#CDTITLE:cdtitle.png;
#MUSIC:Metamorphose.ogg;
#OFFSET:-0.038000;
#SAMPLESTART:78.844002;
#SAMPLELENGTH:15.000000;
#SELECTABLE:YES;
#DISPLAYBPM:*;
#BPMS:0.000=201.000;
#STOPS:;
#DELAYS:;
#WARPS:;
#TIMESIGNATURES:0.000=4=4;
#TICKCOUNTS:0.000=4;
#COMBOS:0.000=1;
#SPEEDS:0.000=1.000=0.000=0;
#SCROLLS:0.000=1.000;
#FAKES:;
#LABELS:0.000=Song Start;
#BGCHANGES:;
#KEYSOUNDS:;
#ATTACKS:
;

//---------------dance-single - ----------------
#NOTEDATA:;
#CHARTNAME:;
#STEPSTYPE:dance-single;
#DESCRIPTION:;
#CHARTSTYLE:;
#DIFFICULTY:Challenge;
#METER:19;
#RADARVALUES:1.196524,1.324729,0.996115,0.232427,0.908955,1009.000000,889.000000,120.000000,28.000000,0.000000,0.000000,0.000000,0.000000,0.000000,1.196524,1.324729,0.996115,0.232427,0.908955,1009.000000,889.000000,120.000000,28.000000,0.000000,0.000000,0.000000,0.000000,0.000000;
#CREDIT:;
#DISPLAYBPM:*;
#NOTES:
// measure 0
0000
0000
0000
0000
,  // measure 1
0000
0000
0000
0000
,  // measure 2
0000
0000
0000
0000
,  // measure 3
0000
0000
0000
0000
,  // measure 4
1000
0100
0010
0100
1000
0100
0010
0100
,  // measure 5
1000
0100
0010
0100
1000
1100
0101
1001
,  // measure 6
0001
0000
0010
0000
0100
0000
0010
0000
0001
0000
0100
0010
1001
0000
0000
0000
,  // measure 7
0110
0000
1000
0001
1000
0000
1001
0000
0001
0010
0001
0010
0001
0100
0010
1000
,  // measure 8
0100
1000
1010
1001
0001
0011
0001
0101
,  // measure 9
1000
1010
1000
1100
0100
0110
1000
1001
,  // measure 10
0011
0001
0101
1001
1000
1100
1000
1010
,  // measure 11
0001
0000
0101
0000
0001
0000
0011
0000
0010
0000
0110
0000
0010
0100
0010
0100
,  // measure 12
0010
0001
0011
0110
0100
0101
0100
1100
,  // measure 13
0010
0000
1010
0000
0010
0000
0011
0000
0001
0000
1001
0000
0100
1000
0001
0010
,  // measure 14
0100
0010
0100
0010
0100
0010
0100
0010
,  // measure 15
0001
1000
0001
1000
0001
1000
0001
0011
,  // measure 16
0100
0000
1000
0000
0100
0000
1000
0000
0100
0000
0010
0100
1001
0000
0000
0000
,  // measure 17
0110
0000
0001
1000
0001
0000
1000
0100
1000
0010
0100
0001
0010
0100
0010
0001
,  // measure 18
1000
0100
0001
0100
0010
0001
0100
1000
,  // measure 19
0100
0010
1000
0010
0001
0010
0100
0001
,  // measure 20
0010
1000
0010
0100
1000
0001
0010
0001
,  // measure 21
2000
0100
3002
0100
2003
0010
3002
0010
,  // measure 22
1003
0100
0010
1000
0010
0100
0001
0100
,  // measure 23
0010
0001
1000
0010
0100
1000
0100
0010
,  // measure 24
0001
0010
0100
0001
1000
0010
0100
0010
,  // measure 25
1000
0100
0001
0100
1000
0010
1001
0000
,  // measure 26
0001
0010
1000
0010
0100
1000
0010
0001
,  // measure 27
0010
0100
0001
0100
1000
0100
0010
1000
,  // measure 28
0100
0001
0100
0010
0001
1000
0100
1000
,  // measure 29
0002
0010
2003
0010
3002
0100
2003
0100
,  // measure 30
3001
0010
0100
0001
0100
0010
1000
0010
,  // measure 31
0100
1000
0001
0100
0010
0001
0010
0100
,  // measure 32
1000
0100
0010
1000
0001
0100
1001
0000
,  // measure 33
0010
0010
0100
0001
1000
0100
0001
0001
0100
0010
0100
1000
,  // measure 34
0010
1000
0100
0110
0110
0000
1100
1100
,  // measure 35
0000
0000
0011
0000
0011
0000
0000
0000
1000
0100
0010
0001
0010
0100
1000
0001
,  // measure 36
0010
0001
0100
0101
0101
0000
1010
1010
,  // measure 37
0000
0000
1100
0000
1100
0000
0000
0000
0001
0010
0100
1000
0001
0010
0001
1000
,  // measure 38
0010
0100
0001
0011
0101
0000
1100
1010
,  // measure 39
0000
0000
0101
0000
1100
0000
0000
0000
0001
0100
0010
1000
0001
0010
0100
1000
,  // measure 40
0010
0100
0001
0011
1010
0000
1100
0011
,  // measure 41
0000
0110
1001
0010
0100
0010
1000
0001
,  // measure 42
1000
0100
0010
1000
0010
0100
1000
0000
0001
0100
0010
0001
0010
0100
0001
0000
,  // measure 43
1000
0010
0100
1000
0100
0010
1000
0000
0001
0010
0100
0001
0100
0010
0001
0000
,  // measure 44
0202
0303
0101
2200
3300
1100
2020
3030
,  // measure 45
1010
0022
0033
0011
0110
0100
0110
1001
,  // measure 46
0001
0100
1000
0100
0010
1000
0001
0000
0100
0010
0001
0010
1000
0100
0010
0000
,  // measure 47
0100
0010
1000
0010
0001
1000
0010
0000
1000
0100
0001
0100
0010
0001
1000
0000
,  // measure 48
2020
3030
1100
0022
0033
0110
2002
0000
,  // measure 49
3000
0000
0010
0010
0100
0100
1000
1003
,  // measure 50
0001
0010
1000
0010
0002
0100
0100
0100
,  // measure 51
2003
0000
0000
0100
0000
0000
0100
0000
0000
0100
0000
0000
0100
0000
0000
0100
0000
0000
3001
0000
1000
0000
0001
0000
,  // measure 52
1000
0100
0001
0100
2000
0010
0010
0010
,  // measure 53
3002
0000
0000
0010
0000
0000
0010
0000
0000
0010
0000
0000
0010
0000
0000
0010
0000
0000
1003
0000
0000
0000
0001
0000
,  // measure 54
1000
0001
0010
1000
0020
0001
0001
0001
,  // measure 55
0230
1000
1000
1000
1000
0010
0310
0010
,  // measure 56
0001
0000
1000
0000
0100
0000
0001
0000
0100
0000
0010
0100
1001
0000
0000
0000
,  // measure 57
1000
0000
0000
0010
0100
0000
0010
0000
1000
0100
0010
0001
0010
0001
0100
0010
,  // measure 58
1000
0100
0010
0001
1000
0000
0001
0100
0010
1000
0001
0000
0010
0100
1000
0001
,  // measure 59
0010
0000
0100
0010
0001
1000
0100
0000
1000
0010
0100
0001
0010
0100
1000
0001
,  // measure 60
1000
0100
0001
0100
0010
0000
0001
0010
1000
0010
0100
0000
0010
1000
0010
0001
,  // measure 61
1000
0000
0100
0001
0100
1000
0001
0000
0010
1000
0010
0100
0001
0100
0010
0001
,  // measure 62
1000
0010
0001
0010
1000
0000
0001
0100
1000
0100
0001
0000
1000
0100
0001
0100
,  // measure 63
1000
0000
0001
0010
1000
0010
0001
0000
1000
0010
0001
0010
0100
1000
0100
0001
,  // measure 64
1000
0100
0010
1000
0010
0100
0001
0100
0010
0001
0100
1000
0100
0010
0001
0010
,  // measure 65
0100
0000
0000
0000
0000
0000
0000
0000
0001
0010
0100
1000
0001
0100
0010
1000
,  // measure 66
0001
0000
0100
0000
1000
0000
0100
0000
0001
0010
0100
1000
0010
0100
0010
1000
,  // measure 67
0001
0000
0010
0000
1000
0000
0010
0000
0100
1000
0001
0100
0010
1000
0001
0010
,  // measure 68
0100
0000
0001
0000
0100
0000
1000
0000
0001
0010
0100
1000
0100
0010
0001
1000
,  // measure 69
0010
0000
0001
0000
0010
0000
1000
0000
0001
0100
0010
1000
0001
0010
0100
0010
,  // measure 70
0001
0000
1000
0000
0100
0000
0001
0000
0100
1000
0001
0010
1000
0010
0100
1000
,  // measure 71
0001
0000
1000
0000
0010
0000
0001
0000
0010
0100
1000
0100
0010
1000
0100
0010
,  // measure 72
0001
0000
0100
0000
1000
0000
0100
0000
0001
1000
0100
0001
0100
0010
1000
0010
,  // measure 73
0100
0000
1000
1100
0000
0001
0011
1010
,  // measure 74
1001
0000
0001
1000
1010
0000
0110
0000
1000
0100
0110
0000
0001
0010
0110
0000
,  // measure 75
1000
0010
0110
0000
1001
0000
0100
0000
1000
0100
0010
0001
0010
0100
0010
0001
,  // measure 76
1000
0000
0010
0000
0001
0000
0010
0000
1000
0001
0100
0010
0100
1000
0100
0001
,  // measure 77
1000
0000
0100
0000
0001
0000
0100
0000
1000
0001
0010
1000
0010
0100
0010
0001
,  // measure 78
1000
0000
0001
0000
0010
0000
1000
0000
0010
0001
1000
0010
0001
0010
0100
1000
,  // measure 79
0100
0000
0001
0000
0100
0000
0010
0000
0001
0010
1000
0100
0001
0000
0000
0000
,  // measure 80
1100
0011
0000
0101
1010
0000
0011
1100
,  // measure 81
0000
0000
0110
0000
1001
0000
0000
0000
1000
0100
1000
0010
0100
0001
0010
0001
,  // measure 82
1000
0000
0001
0010
0100
0000
1100
0000
1000
0100
0010
0000
0001
0100
0010
0000
,  // measure 83
1000
0010
0100
0000
0001
0010
0100
0000
1000
0010
0100
0000
0001
0100
0010
0000
,  // measure 84
1010
0000
1000
0001
0010
0000
0110
0000
0100
1000
0001
0000
0100
0001
1000
0000
,  // measure 85
0010
1000
0001
0000
0010
0001
1000
0000
0100
1000
0001
0000
0010
0100
0010
0100
,  // measure 86
0010
0000
0001
0100
0010
0000
1010
0000
1000
0010
0001
0000
0001
0010
1000
0000
,  // measure 87
1000
0100
0001
0000
0001
0100
1000
0000
1000
0010
0001
0000
0001
0100
1000
0000
,  // measure 88
0001
0010
1000
0010
0100
1000
0001
0100
0010
0001
0010
1000
,  // measure 89
0100
0100
1000
0010
0010
0001
1000
1000
0100
0001
0001
1000
,  // measure 90
1100
0000
1010
0000
0100
0001
0101
0000
0011
0000
0100
1000
1100
0000
1001
0000
,  // measure 91
0001
0100
0101
0000
0110
0000
1000
0010
1010
0000
1100
0000
0001
0010
0011
0000
,  // measure 92
1001
0000
0100
0001
0011
0000
1100
0000
0100
1000
1010
0000
0101
0000
0010
0100
,  // measure 93
1100
0000
0101
0000
0100
0010
1001
0000
0110
0000
1001
0000
0110
0000
1001
0000
;

//---------------dance-single - ----------------
#NOTEDATA:;
#CHARTNAME:;
#STEPSTYPE:dance-single;
#DESCRIPTION:;
#CHARTSTYLE:;
#DIFFICULTY:Hard;
#METER:18;
#RADARVALUES:1.095727,1.168879,0.913106,0.199223,0.718033,924.000000,814.000000,110.000000,24.000000,0.000000,0.000000,0.000000,0.000000,0.000000,1.095727,1.168879,0.913106,0.199223,0.718033,924.000000,814.000000,110.000000,24.000000,0.000000,0.000000,0.000000,0.000000,0.000000;
#CREDIT:;
#DISPLAYBPM:*;
#NOTES:
0000
0000
0000
0000
,
0000
0000
0000
0000
,
0000
0000
0000
0000
,
0000
0000
0000
0000
,
0001
0010
0100
0010
0001
0010
0100
0010
,
0001
0010
0100
0010
0001
0110
0110
1001
,
1000
0000
0100
0000
0010
0000
0100
0000
1000
0000
0010
0100
0010
0000
0000
0000
,
0110
0000
1000
0001
1000
0000
0001
0000
1000
0010
1000
0010
0100
0001
0100
0001
,
1000
0000
0001
0011
0000
0101
0000
1010
,
0000
1100
0000
0110
0000
1001
0000
0010
,
0011
0000
0100
1100
0000
1010
0000
0011
,
0000
0000
0101
0000
0000
0000
1100
0000
0000
0000
0110
0000
0100
0010
0100
0010
,
0100
0000
0010
1010
0000
0101
0000
0011
,
0000
0000
1100
0000
0000
0000
0110
0000
0000
0000
1001
0000
0010
0001
1000
0100
,
0010
0100
0010
0100
0010
0100
0010
0100
,
1000
0100
1000
0100
1000
0100
1000
0100
,
0010
0000
0001
0000
0010
0000
0001
0000
0010
0000
0100
0010
0100
0000
0000
0000
,
0110
0000
0001
1000
0001
0000
1000
0000
0001
0010
0001
0010
0001
0100
0010
1000
,
0001
0010
0100
1000
0010
0001
0010
1000
,
0100
0010
0001
0100
1000
0100
0001
1000
,
0001
0100
0010
1000
0100
0001
0100
0010
,
0002
0100
0203
0010
0320
1000
2030
0001
,
3001
0100
0010
1000
0100
0001
0100
1000
,
0010
0100
0001
0010
1000
0010
0001
1000
,
0001
0010
0100
1000
0010
0001
0010
0100
,
0001
0100
1000
0100
0010
1000
0001
0000
,
1000
0100
0010
0001
0100
1000
0100
0001
,
0010
0100
1000
0010
0001
0010
1000
0001
,
1000
0010
0100
0001
0010
1000
0010
0100
,
2000
0010
3020
0100
0230
0001
0302
1000
,
1003
0010
0100
0001
0010
1000
0010
0001
,
0100
0010
1000
0100
0001
0100
1000
0001
,
1000
0100
0010
0001
0100
0010
1001
0000
,
0100
0010
1000
0100
0010
1000
0010
0100
0001
0100
0010
0001
,
0100
0010
0010
0100
0110
0000
0001
0011
,
0000
0000
1000
0000
1100
0000
0000
0000
0001
0100
0001
0100
0010
1000
0010
1000
,
0001
0100
0100
0001
0101
0000
1000
1010
,
0000
0000
0001
0000
0011
0000
0000
0000
1000
0100
1000
0100
0010
0001
0010
0001
,
0100
0001
0001
0010
0011
0000
0001
0101
,
0000
0000
1000
0000
1100
0000
0000
0000
0010
1000
0010
1000
0001
0010
0001
0010
,
0100
1000
1000
0010
1010
0000
0100
0101
,
0000
0001
1001
0100
0010
0100
0001
1000
,
0001
0010
0001
0010
0100
0000
1000
0000
0010
0100
0010
0100
0001
0000
1000
0000
,
0100
0010
0100
0010
0001
0000
0100
0000
0010
1000
0010
1000
0001
0000
0100
0000
,
2002
3003
0010
2200
3300
0010
0202
0303
,
0100
2020
3030
0100
0022
0033
0100
1001
,
1000
0100
0010
0100
1000
0000
0001
0000
0100
0010
1000
0010
0100
0000
0001
0000
,
0010
0001
1000
0001
0100
0000
0010
0000
1000
0100
0010
0001
1000
0000
1100
0000
,
0022
0033
0101
2020
3030
0110
2002
0000
,
0000
3003
0001
0001
0100
0100
0010
0010
,
1000
0100
0010
0001
0100
0010
1000
0100
,
0010
0000
0000
0001
0000
0000
0100
0000
0000
0010
0000
0000
1000
0000
0000
0001
0000
0000
0010
0000
0100
0000
0010
0000
,
0001
0100
0001
1000
0010
1000
0001
0010
,
0001
0000
0000
1000
0000
0000
0100
0000
0000
1000
0000
0000
0001
0000
0000
0100
0000
0000
0010
0000
0000
0000
0100
0000
,
0001
0010
1000
0010
0001
1000
0001
0100
,
1000
0100
0001
1000
0001
0010
0010
0010
,
0001
0000
0100
0000
0010
0000
1000
0000
0100
0000
0010
0100
0010
0000
0000
0000
,
0001
0000
0000
0100
0010
0000
0100
0000
0001
0010
0100
1000
0100
0010
0001
0000
,
1000
0100
1000
0100
1000
0000
0001
0010
0001
0010
0001
0000
0100
0001
0100
0001
,
0100
0000
0010
1000
0010
1000
0010
0000
1000
0100
1000
0100
0010
0001
0010
0000
,
0001
0100
0001
0100
0010
0000
1000
0100
1000
0100
0010
0000
0001
0100
0001
0010
,
0001
0000
1000
0100
1000
0010
1000
0000
0001
0010
0001
1000
0100
1000
0010
0000
,
1000
0100
0010
0100
1000
0000
0001
0100
0010
0100
0001
0000
1000
0010
0100
0001
,
1000
0000
0001
0010
0100
1000
0001
0000
0100
0010
1000
0100
0010
0001
0100
0000
,
0010
1000
0100
0010
0100
1000
0001
0100
0010
0100
0001
1000
0100
0010
0001
0100
,
0010
0000
0000
0000
0000
0000
0000
0000
1000
0001
1000
0001
0010
0100
0010
0100
,
1000
0000
0010
0000
0100
0000
0001
0000
1000
0100
1000
0100
0010
0001
0010
0001
,
1000
0000
0001
0000
0100
0000
0010
0000
0100
0001
0100
0001
1000
0010
1000
0010
,
0100
0000
0001
0000
1000
0000
0100
0000
0010
0001
0010
0001
1000
0100
1000
0100
,
0010
0000
0001
0000
0010
0000
0100
0000
1000
0010
1000
0010
0100
0001
0100
0001
,
1000
0000
0100
0000
0010
0000
0001
0000
1000
0010
1000
0010
0100
0001
0010
0100
,
1000
0000
0001
0000
0010
0000
0100
0000
0010
0001
0010
0001
0100
0010
1000
0100
,
0010
0000
0100
0000
1000
0000
0001
0000
0100
0010
0100
0010
1000
0100
0010
0001
,
1000
0000
0001
0011
0000
1000
1100
0101
,
1001
0000
0110
1010
1000
1100
0001
0011
,
0100
0000
0101
0000
1001
0000
1000
0000
0001
0010
0001
0010
0100
1000
0100
1000
,
0001
0000
0100
0000
0010
0000
1000
0000
0100
0010
0100
1000
0001
0010
0100
0010
,
0001
0000
0100
0000
0010
0000
0100
0000
0001
0010
0100
1000
0010
0100
0010
1000
,
0001
0000
0010
0000
0100
0000
0010
0000
0001
0100
0010
1000
0100
0010
0001
0100
,
0010
0000
1000
0000
0010
0000
0100
0000
0001
0010
0100
1000
0001
0000
0000
0000
,
1000
1010
0000
0010
0011
0000
0100
1100
,
0000
0000
0001
0000
1001
0000
0000
0000
1000
0100
1000
0100
0010
0001
0010
0001
,
1000
0000
1100
1100
1000
1001
1000
1010
,
1000
1001
1000
1100
1000
1010
0010
0110
,
0110
0000
0101
0101
0001
1001
0001
0011
,
0001
0000
1001
0000
0001
0000
0101
0000
0001
0000
0011
0000
0010
0100
0010
0100
,
0010
0000
0110
0110
0100
1100
1000
1010
,
0010
0110
0100
0101
0001
0011
0010
0110
,
0100
1000
0010
0100
0001
0010
0100
1000
0100
0010
0001
0100
,
0010
1000
0001
0010
0100
0001
0100
0010
1000
0010
0100
1000
,
1010
1100
0000
0011
0101
0000
1010
0101
,
0000
0011
1100
0000
1010
0011
0000
0101
,
1100
1000
1010
0101
0001
0011
1100
0100
,
0110
0011
0001
0101
1010
1100
0011
1001
;

//---------------dance-single - ----------------
#NOTEDATA:;
#CHARTNAME:;
#STEPSTYPE:dance-single;
#DESCRIPTION:;
#CHARTSTYLE:;
#DIFFICULTY:Beginner;
#METER:9;
#RADARVALUES:0.396074,0.506514,0.157718,0.124514,0.000000,334.000000,315.000000,19.000000,15.000000,0.000000,0.000000,0.000000,0.000000,0.000000,0.396074,0.506514,0.157718,0.124514,0.000000,334.000000,315.000000,19.000000,15.000000,0.000000,0.000000,0.000000,0.000000,0.000000;
#CREDIT:;
#DISPLAYBPM:*;
#NOTES:
0000
0000
0000
0000
,
0000
0000
0000
0000
,
0000
0000
0000
0000
,
0000
0000
0000
0000
,
0000
0000
0000
0000
,
0000
0000
0000
0000
,
0000
0000
0000
0000
,
0000
0000
0000
0000
,
0100
0000
0000
1000
0000
1000
0000
1000
,
0000
1000
0000
1000
0000
1000
0000
0000
,
0100
0000
0000
0001
0000
0001
0000
0001
,
0000
0001
0000
0001
0000
0001
0000
0000
,
0010
0000
0000
1000
0000
1000
0000
1000
,
0000
1000
0000
1000
0000
1000
0000
0000
,
0010
0001
0010
0001
,
0100
0001
0100
0001
,
1000
0001
1000
0001
,
2002
0000
0000
3003
,
1000
0010
0100
0001
,
0010
0100
1000
0001
,
0100
0010
1000
0001
,
0110
1001
0110
1001
,
0100
0010
1000
0100
,
0010
0001
0100
0010
,
1000
0001
0010
0100
,
1000
0010
0100
0001
,
1001
0010
0100
1000
,
0001
0100
0010
1000
,
0100
0010
0001
1000
,
0110
1001
0110
1001
,
0100
0010
0001
0100
,
0010
1000
0100
0010
,
0001
1000
0010
0100
,
0002
0023
0230
2300
,
3001
0000
0100
0010
0100
0000
0001
0100
,
0000
0001
0100
0000
0001
0000
0000
0000
,
1000
0000
0100
0010
0100
0000
1000
0100
,
0000
1000
0100
0000
1000
0000
0000
0000
,
0010
0000
0100
0001
0100
0000
0001
0010
,
0000
0001
0010
0000
0100
0000
0000
0000
,
0010
0000
0100
1000
0100
0000
1000
0010
,
0000
1000
0010
0000
0100
0000
0000
0000
,
0001
0000
1000
0010
1000
0000
0001
0010
,
0000
0100
1000
0000
0001
0010
0000
0000
,
0110
0000
0000
1001
0000
0000
0110
0000
,
0000
1001
0000
0000
0110
0000
1001
0000
,
1000
0000
0001
0010
0001
0000
1000
0010
,
0000
0100
0001
0000
1000
0010
0000
0000
,
1001
0000
0000
0110
0000
0000
2002
0000
,
0000
0000
0000
3003
,
0100
0100
1000
1000
,
0010
0010
0001
0001
,
0010
0010
1000
1000
,
0100
0100
0001
0001
,
0100
0100
1000
1000
,
0010
0010
0001
0001
,
0010
0010
0100
0100
,
0020
0000
0000
0030
,
1000
0000
0000
0010
0000
0000
1000
0000
,
0000
0100
0000
0000
1000
0000
0000
0000
,
0001
0000
0000
0010
0000
0000
0001
0000
,
0000
0100
0000
0000
0001
0000
0000
0000
,
0100
0000
0000
0010
0000
0000
0100
0000
,
0000
0001
0000
0000
0100
0000
0000
0000
,
0010
0000
0000
0100
0000
0000
0010
0000
,
0010
0000
0200
0000
,
0301
0001
0010
0000
,
1000
1000
0010
0000
,
0001
0001
0100
0000
,
1000
1000
0100
0000
,
0001
0010
0001
0000
,
1000
0100
1000
0000
,
0010
0100
0010
0000
,
0100
0000
0000
0100
0000
0000
0100
0000
,
0001
0000
1000
0001
0000
1000
0000
0001
,
0000
1000
0001
0000
2000
0000
0000
0000
,
3001
0010
0100
0000
,
1000
0010
0100
0000
,
0001
0100
0010
0000
,
1000
0100
0010
0000
,
0100
0010
0000
0100
0010
0000
0100
0010
,
0000
0100
0010
0000
0000
0000
0000
0000
,
0001
0000
0100
0010
0000
0010
0000
0010
,
0000
0010
0000
0010
0000
0010
0000
0000
,
1000
0000
0010
0100
0000
0100
0000
0100
,
0000
0100
0000
0100
0000
0100
0000
0000
,
0010
0000
1000
0001
0000
0001
0000
0001
,
0000
0001
0000
0001
0000
0001
0000
0000
,
0200
0000
0320
0000
,
2030
0000
3002
0000
,
1003
0100
0000
1000
0100
0000
0010
0001
,
0000
0010
0001
0000
0100
0010
0000
1000
,
0100
0000
0010
0001
0000
1000
0010
0000
,
0100
0001
0000
0010
0100
0010
0100
0010
;

//---------------dance-single - ----------------
#NOTEDATA:;
#CHARTNAME:;
#STEPSTYPE:dance-single;
#DESCRIPTION:;
#CHARTSTYLE:;
#DIFFICULTY:Easy;
#METER:13;
#RADARVALUES:0.584625,0.701327,0.240728,0.688980,0.016602,493.000000,464.000000,29.000000,83.000000,0.000000,0.000000,0.000000,0.000000,0.000000,0.584625,0.701327,0.240728,0.688980,0.016602,493.000000,464.000000,29.000000,83.000000,0.000000,0.000000,0.000000,0.000000,0.000000;
#CREDIT:;
#DISPLAYBPM:*;
#NOTES:
0000
0000
0000
0000
,
0000
0000
0000
0000
,
0000
0000
0000
0000
,
0000
0000
0000
0000
,
1000
1000
0001
0001
,
0100
0000
0100
0000
0010
0100
0100
0001
,
1000
0000
1000
0000
0100
0010
0100
0000
,
1000
0000
0001
0000
1000
0010
0100
0001
,
1000
0000
0100
0010
0000
0011
0000
0100
,
0000
1100
0000
1000
0000
1010
0000
0001
,
0100
0000
0010
1000
0000
1100
0000
0001
,
0000
0011
0000
0100
0000
2002
0000
3003
,
0001
0000
0100
0010
0000
1010
0000
0100
,
0000
0101
0000
0001
0000
0011
0000
1000
,
0001
0100
0001
0000
1000
0010
1000
0000
,
0100
1000
0100
0000
0010
0001
0010
0000
,
0001
0100
0010
0000
1000
0100
0010
0000
,
0001
0000
1000
0000
0001
0100
0010
1000
,
0002
0000
0100
0203
0010
0000
0301
0020
,
0100
0001
0100
0032
,
2003
0000
0010
3020
0100
0000
2030
0000
,
3002
0023
0230
2300
,
3020
0000
0100
0230
1000
0000
0301
2000
,
0100
0010
0100
3020
,
0230
0000
0001
0302
1000
0000
0203
0000
,
0310
0100
0001
1000
,
2001
0000
0100
3200
0010
0000
1300
0020
,
0100
1000
0100
2030
,
3002
0000
0010
0023
0100
0000
0032
0000
,
2003
3020
0230
0302
,
0023
0000
0100
0230
0001
0000
2300
0000
,
0100
0001
3200
2300
,
3020
0000
0100
0230
0001
0000
0320
0000
,
1030
0000
1000
0100
0000
0100
0010
0000
0010
0001
0000
0001
,
1000
0100
1000
0100
1000
0000
0010
0100
,
0000
0010
1000
0000
1100
0000
0000
0000
,
0001
0100
0001
0100
0001
0000
0010
0100
,
0000
0010
0001
0000
0101
0000
0000
0000
,
0010
1000
0010
1000
0010
0000
0100
0001
,
0000
0100
0010
0000
1010
0000
0000
0000
,
0100
0010
0100
0010
0100
0000
0010
1000
,
0000
0001
1000
0000
0010
0000
0010
0000
,
1000
0100
0010
0001
0100
0010
1000
0010
,
0100
0001
1000
0100
0010
0100
1000
0001
,
0010
0000
1000
0010
0000
0001
0100
0000
,
1000
0100
0000
0010
1000
0000
0001
0010
,
0100
1000
0010
0100
0001
0010
0100
0010
,
0001
1000
0010
0100
0010
1000
0100
0010
,
0011
0000
0100
1100
0000
0001
2002
0000
,
0000
0000
0000
3003
,
1000
0010
0200
0001
,
0320
1000
0100
1000
,
0130
0001
2000
0100
,
3002
0010
1000
0010
,
1003
0100
0020
0001
,
0230
1000
0001
1000
,
0310
0000
0001
0000
0100
0010
0100
0000
,
0001
0000
0010
0000
0100
1000
0001
0000
,
1000
0010
0010
0100
0001
0001
0010
0100
,
0100
1000
0001
0001
0100
0010
1000
0000
,
0001
0010
0010
0100
1000
1000
0010
0100
,
0100
0001
1000
1000
0100
0010
0001
0000
,
0100
0001
0001
0010
0100
0100
1000
0001
,
0001
0100
0010
0010
1000
0100
0010
0000
,
0001
0010
0100
0010
1000
0010
0100
1000
,
0001
0000
0200
0000
,
0320
0000
1030
0200
0000
1300
0001
0020
,
0000
0001
0031
0000
2000
0000
3020
0000
,
0230
0000
0310
2000
0000
3100
0010
0002
,
0000
1000
1003
0000
0010
0100
0001
1000
,
0200
0000
1300
0020
0000
0130
0001
0000
,
2000
0000
3100
0020
0000
0130
1000
0000
,
0020
0000
0130
0001
0002
0000
1003
0000
,
1010
0000
0000
0011
0000
0000
1001
0000
,
0110
0000
0001
1000
0000
1100
0000
0101
,
0000
0001
1000
0000
2002
0000
0000
3003
,
0002
0000
0013
0200
0000
0310
0001
2000
,
0000
0010
3010
0000
1000
0100
0010
0001
,
0200
0000
0310
2000
0000
3001
0020
0000
,
0032
0000
0103
0000
0010
1000
0001
0000
,
1000
0100
0000
0001
0100
0000
1000
0010
,
0000
0001
0010
0000
0110
0000
0000
0000
,
0100
0000
0002
0010
0000
0010
0000
0010
,
0000
0010
0000
0010
0000
0010
0000
0013
,
0100
0000
2000
0010
0000
0010
0000
0010
,
0000
0010
0000
0010
0000
0020
0000
3030
,
0100
0000
0020
1000
0000
1000
0000
1000
,
0000
1000
0000
1000
0000
1000
0000
1030
,
0200
0302
0023
2030
,
3020
0032
0203
2300
,
3001
0010
0000
1000
0010
0000
0001
0100
,
0000
1000
0100
0000
0001
1000
0000
0010
,
1010
0000
0100
0101
0000
0001
0011
0000
,
1000
1100
0000
0010
0100
0010
0100
0110
;

//---------------dance-single - ----------------
#NOTEDATA:;
#CHARTNAME:;
#STEPSTYPE:dance-single;
#DESCRIPTION:;
#CHARTSTYLE:;
#DIFFICULTY:Medium;
#METER:16;
#RADARVALUES:0.894132,1.013028,0.597669,0.132815,0.427499,754.000000,682.000000,72.000000,16.000000,0.000000,0.000000,0.000000,0.000000,0.000000,0.894132,1.013028,0.597669,0.132815,0.427499,754.000000,682.000000,72.000000,16.000000,0.000000,0.000000,0.000000,0.000000,0.000000;
#CREDIT:;
#DISPLAYBPM:*;
#NOTES:
0000
0000
0000
0000
,
0000
0000
0000
0000
,
0000
0000
0000
0000
,
0000
0000
0000
0000
,
1000
0010
1000
0000
0001
0100
0001
0000
,
0010
0100
0010
0000
0001
1000
0001
1001
,
1000
0000
0100
0000
1000
0000
0000
0000
0001
0000
0010
0100
0010
0000
0000
0000
,
0001
0000
0000
1000
0001
0000
1000
0000
0001
0010
0001
0000
1000
0100
1000
0000
,
0001
0000
1000
0010
0000
1010
0000
0101
,
0000
0011
0000
1100
0000
1001
0000
0001
,
0010
0000
0100
1000
0000
1100
0000
1010
,
0000
0000
0011
0000
0000
0000
0101
0000
0000
0000
0110
0000
0100
0010
0100
0010
,
0100
0000
0001
0010
0000
0011
0000
1100
,
0000
1010
0000
0101
0000
1001
0000
1000
,
0001
0010
0001
0100
0001
1000
0001
0000
,
1000
0010
1000
0100
1000
0001
1000
0000
,
0010
0000
1000
0000
0010
0000
0001
0000
0010
0000
0100
0010
0100
0000
0000
0000
,
0001
0000
0000
1000
0001
0000
1000
0000
0010
0100
0010
0000
0100
0001
0100
0001
,
1000
0100
0010
0001
1000
0010
0100
0001
,
0010
0100
1000
0001
0100
0010
1000
0000
,
0100
0010
0001
1000
0010
0100
0010
0000
,
2000
3200
0320
0032
,
1003
0010
0100
0001
1000
0100
0010
0001
,
0100
0010
1000
0001
0010
0100
1000
0000
,
0010
0100
0001
1000
0100
0010
0100
0000
,
1000
0001
0010
0100
0010
0001
1000
0000
,
0001
0010
0100
1000
0001
0100
0010
1000
,
0100
0010
0001
1000
0010
0100
0001
0000
,
0010
0100
1000
0001
0100
0010
0100
0000
,
0002
0023
0230
2300
,
3001
0100
0010
1000
0001
0010
0100
1000
,
0010
0100
0001
1000
0100
0010
0001
0000
,
0100
0010
1000
0001
0010
0100
0010
0000
,
0001
0100
0001
1000
0010
1000
0001
0010
0001
1000
0100
1000
,
0010
0100
0010
0100
0110
0000
0001
0101
,
0000
0000
1000
0000
1010
0000
0000
0000
0001
0010
0001
0000
1000
0100
1000
0000
,
0001
0100
0001
0100
0101
0000
1000
1100
,
0000
0000
0001
0000
0011
0000
0000
0000
1000
0010
1000
0000
0001
0100
0001
0000
,
1000
0010
1000
0010
1010
0000
1000
1100
,
0000
0000
0001
0000
0101
0000
0000
0000
0010
0001
0010
0000
0100
1000
0100
0000
,
0010
0001
0010
0001
0011
0000
1000
1010
,
0000
0001
1001
0000
1000
0010
0100
0010
,
1000
0100
1000
0000
0100
0000
0010
0000
0001
0100
0001
0000
0100
0000
0010
0000
,
1000
0010
1000
0000
0010
0000
0100
0000
0001
0010
0001
0000
0010
0000
0100
0000
,
1100
0000
0010
0011
0000
0001
0101
0000
,
1000
1010
0000
0100
0110
0000
0001
0100
,
0010
1000
0010
0000
1000
0000
0010
0000
0100
0001
0100
0000
0001
0000
0010
0000
,
0100
1000
0100
0000
1000
0000
0100
0000
0010
0001
0010
0000
0001
0000
0100
0000
,
0101
0000
0010
1010
0000
0100
1001
0000
,
0000
0000
1000
1000
0100
0100
0010
0010
,
0001
0100
0010
1000
0100
0010
0001
0100
,
0010
1000
0100
0010
0001
0100
0001
0000
,
1000
0010
0100
0001
0010
0100
1000
0010
,
0100
0001
0010
0100
1000
0010
1000
0000
,
0001
0100
0001
1000
0100
1000
0001
0010
,
0001
1000
0010
1000
0001
0100
0010
0000
,
1000
0000
0001
0000
0010
0000
0001
0000
1000
0000
0010
0100
0010
0000
0000
0000
,
1000
0000
0000
0001
1000
0000
0001
0000
1000
0010
1000
0000
0001
0100
0001
0000
,
1000
0100
1000
0000
0010
0000
0100
0001
0100
0000
0010
0000
1000
0010
1000
0000
,
0100
0000
0010
0001
0010
0000
0100
0000
1000
0100
1000
0000
0001
0010
0001
0000
,
1000
0010
1000
0000
0100
0000
0010
0001
0010
0000
0100
0000
1000
0100
1000
0000
,
0010
0000
0100
0001
0100
0000
0010
0000
1000
0010
1000
0000
0001
0100
0001
0000
,
1000
0100
0010
0000
0001
0000
0100
0010
1000
0000
0100
0000
1000
0001
0010
0000
,
0100
0000
0010
0001
1000
0000
0001
0000
0010
0100
1000
0000
0010
0100
0001
0000
,
1000
0010
1000
0000
0001
0100
0001
0000
0010
0100
0010
0100
1000
0001
1000
0001
,
0010
0000
0000
0000
0000
0000
0000
0000
0100
1000
0100
1000
0100
1000
0100
1000
,
0001
0000
1000
0000
0010
0000
0100
0000
0001
0010
0001
0000
0100
0000
0000
0000
,
0010
0000
1000
0000
0100
0000
0010
0000
0001
0100
0001
0000
0010
0000
0000
0000
,
0100
0000
1000
0000
0001
0000
0100
0000
0010
1000
0010
0000
0100
0000
0000
0000
,
0010
0000
1000
0000
0001
0000
0010
0000
0100
1000
0100
0000
0010
0000
0000
0000
,
0001
0000
0100
0000
0010
0000
1000
0000
0100
0010
0001
0000
0100
0000
0000
0000
,
0001
0000
0010
0000
0100
0000
1000
0000
0010
0100
0001
0000
0010
0000
0000
0000
,
0001
0000
0100
0000
0010
0000
1000
0000
0001
1000
0100
0000
0010
0000
0000
0000
,
0110
0000
1000
1010
0000
0001
0101
0000
,
1001
0000
1000
1100
0000
0011
0000
1010
,
0000
0000
1001
0000
0001
0000
0000
0000
0010
0100
0010
0100
0010
0100
0010
0100
,
1000
0000
0010
0000
0100
0000
0001
0000
1000
0100
0010
0000
0100
0000
0000
0000
,
1000
0000
0001
0000
0100
0000
0010
0000
1000
0001
0010
0000
0100
0000
0000
0000
,
0010
0000
0001
0000
1000
0000
0010
0000
0100
0010
1000
0000
0001
0000
0000
0000
,
0010
0000
0100
0000
1000
0000
0001
0000
0100
0010
0100
0010
0100
0000
0000
0000
,
0001
0011
0000
1000
1100
0000
0010
0110
,
0000
0000
1000
0000
1001
0000
0000
0000
0001
1000
0001
1000
0001
1000
0001
1000
,
0001
0000
1000
0010
0000
2100
0000
3010
,
0000
0102
0000
0013
0000
2001
0000
3100
,
0010
0000
0001
0100
0000
0012
0000
0103
,
0000
0000
2010
0000
0000
0000
3100
0000
0000
0000
1001
0000
0001
1000
0001
1000
,
0001
0000
0100
0010
0000
1020
0000
0031
,
0000
0201
0000
1300
0000
0120
0000
0031
,
0010
0100
0010
1000
0001
1000
0001
0010
0001
1000
0100
1000
,
0001
0010
0100
1000
0010
0100
0001
0010
0100
1000
0010
0100
,
0001
0011
0000
1000
1100
0000
0010
1010
,
0000
0100
0101
0000
0010
0110
0000
1000
,
1001
0000
1010
1010
0000
0101
0101
0000
,
0011
0011
0000
0100
0110
0010
0110
1001
;
