#VERSION:0.83;
#TITLE:Matriarch;
#SUBTITLE:;
#ARTIST:Jules Conroy;
#TITLETRANSLIT:;
#SUBTITLETRANSLIT:;
#ARTISTTRANSLIT:;
#GENRE:;
#ORIGIN:;
#TAGS:;
#CREDIT:;
#BANNER:Matriarch.png;
#BACKGROUND:Matriarch-bg.png;
#PREVIEWVID:;
#JACKET:Matriarch-jacket.png;
#CDIMAGE:;
#DISCIMAGE:;
#LYRICSPATH:;
#CDTITLE:cdtitle.png;
#MUSIC:Matriarch.ogg;
#OFFSET:-0.414000;
#SAMPLESTART:50.069000;
#SAMPLELENGTH:15.000000;
#SELECTABLE:YES;
#DISPLAYBPM:145.000000;
#BPMS:0.000000=145.000000
,168.000000=290.000000
,169.000000=145.000000
,184.000000=290.000000
,185.000000=145.000000
,200.000000=290.000000
,201.000000=145.000000
,216.000000=290.000000
,217.000000=145.000000
;
#STOPS:168.000000=0.206897
,184.000000=0.206896
,200.000000=0.206897
,216.000000=0.206896
;
#DELAYS:;
#WARPS:;
#TIMESIGNATURES:0.000000=4=4
;
#TICKCOUNTS:0.000000=4
;
#COMBOS:0.000000=1
;
#SPEEDS:0.000000=1.000000=0.000000=0
;
#SCROLLS:0.000000=1.000000
;
#FAKES:;
#LABELS:0.000000=Song Start
;
#BGCHANGES:;
#KEYSOUNDS:;
#ATTACKS:
;

//---------------dance-single - ----------------
#NOTEDATA:;
#CHARTNAME:;
#CHARTHASH:1711485350;
#STEPSTYPE:dance-single;
#BANNER:;
#DESCRIPTION:;
#CHARTSTYLE:;
#DIFFICULTY:Easy;
#METER:8;
#METERF:8.000000;
#LASTSECONDHINT:112.965698;
#RADARVALUES:0.305925,0.409374,0.369813,0.421415,0.000000,249.000000,206.000000,43.000000,49.000000,0.000000,0.000000,0.000000,0.000000,0.000000,0.305925,0.409374,0.369813,0.421415,0.000000,249.000000,206.000000,43.000000,49.000000,0.000000,0.000000,0.000000,0.000000,0.000000;
#CREDIT:Supra G.L.;
#DISPLAYBPM:145.000000;
#NOTES:
// measure 0
0000
0000
0000
0000
,  // measure 1
0000
0000
0000
0000
,  // measure 2
1000
0000
0100
0000
,  // measure 3
0001
0000
0100
0000
,  // measure 4
2000
0000
0000
0000
,  // measure 5
0002
0000
0000
3003
,  // measure 6
1000
1000
1000
1000
,  // measure 7
0001
0011
1000
1010
,  // measure 8
0001
0001
0001
0001
,  // measure 9
1000
1100
0001
0101
,  // measure 10
2000
0010
0010
0010
,  // measure 11
3010
1010
0100
0101
,  // measure 12
0002
0010
0010
0010
,  // measure 13
0013
0011
0110
0110
,  // measure 14
2001
0000
3002
0000
,  // measure 15
0203
0000
0320
0000
,  // measure 16
1030
0010
0100
0000
,  // measure 17
0001
0010
0100
0000
,  // measure 18
1002
0000
2003
0000
,  // measure 19
3020
0000
0230
0000
,  // measure 20
0301
0100
0010
1000
,  // measure 21
1000
0100
0010
0001
,  // measure 22
2000
0000
0100
0000
,  // measure 23
3002
0000
0100
0000
,  // measure 24
2003
0000
0000
3010
,  // measure 25
0020
0000
0230
0000
,  // measure 26
0302
0000
0010
0000
,  // measure 27
2003
0000
0010
0000
,  // measure 28
3001
0100
0010
1000
,  // measure 29
0200
0000
0320
0000
,  // measure 30
0031
0101
0001
0101
,  // measure 31
1000
1010
1000
1010
,  // measure 32
0001
0011
1000
1100
,  // measure 33
0010
0110
1000
1001
,  // measure 34
0002
0000
0023
0000
,  // measure 35
0230
0000
2300
0000
,  // measure 36
3020
0000
0000
1030
,  // measure 37
0100
1000
0010
0100
,  // measure 38
0001
0001
0001
0001
,  // measure 39
1000
1100
0001
0011
,  // measure 40
0010
0010
0010
0010
,  // measure 41
0100
0000
1000
0001
,  // measure 42
1000
1001
0202
0303
,  // measure 43
2020
3030
0022
0033
,  // measure 44
1000
0100
0010
0001
,  // measure 45
0001
0100
1000
0100
,  // measure 46
0001
2002
3003
1000
,  // measure 47
0010
1000
0100
0010
,  // measure 48
0010
0001
0010
0100
,  // measure 49
1000
0010
0001
0010
,  // measure 50
1000
2001
0000
3020
,  // measure 51
0000
0130
0001
0010
,  // measure 52
0001
0020
0000
0130
,  // measure 53
1000
0010
0100
0001
,  // measure 54
1000
2001
0100
0001
,  // measure 55
3002
1000
0010
1003
,  // measure 56
1200
1300
0021
0031
,  // measure 57
0102
0103
2010
3010
,  // measure 58
2002
0000
0000
3000
,  // measure 59
1003
1100
0001
0101
,  // measure 60
1000
1000
1000
1000
,  // measure 61
0001
0011
1000
1010
,  // measure 62
0002
0100
0100
0100
,  // measure 63
0103
0101
0010
1010
,  // measure 64
2000
0100
0100
0100
,  // measure 65
3100
1100
0110
0110
,  // measure 66
2002
0000
0000
0000
,  // measure 67
0000
0000
0000
0000
,  // measure 68
3003
0000
0000
0000
;

//---------------dance-single - ----------------
#NOTEDATA:;
#CHARTNAME:;
#CHARTHASH:3376072192;
#STEPSTYPE:dance-single;
#BANNER:;
#DESCRIPTION:;
#CHARTSTYLE:;
#DIFFICULTY:Beginner;
#METER:4;
#METERF:4.000000;
#LASTSECONDHINT:112.965698;
#RADARVALUES:0.154805,0.233928,0.189207,0.326811,0.000000,126.000000,104.000000,22.000000,38.000000,0.000000,0.000000,0.000000,0.000000,0.000000,0.154805,0.233928,0.189207,0.326811,0.000000,126.000000,104.000000,22.000000,38.000000,0.000000,0.000000,0.000000,0.000000,0.000000;
#CREDIT:Supra G.L.;
#DISPLAYBPM:145.000000;
#NOTES:
0000
0000
0000
0000
,
0000
0000
0000
0000
,
1000
0000
0000
0000
,
0001
0000
0000
0000
,
2000
0000
0000
3000
,
0002
0000
0000
0003
,
2002
0000
0000
3003
,
1000
0000
1000
0000
,
2002
0000
0000
3003
,
0001
0000
0001
0000
,
0220
0000
0000
0330
,
0010
0000
0010
0000
,
0220
0000
0000
0330
,
0100
0000
0100
0000
,
2000
0000
3000
0000
,
0002
0000
0003
0000
,
1000
0000
1000
0000
,
0001
0000
0001
0000
,
0200
0000
0300
0000
,
0020
0000
0030
0000
,
0100
0000
0100
0000
,
0010
0000
0010
0000
,
1000
0000
0000
0000
,
0100
0000
0000
0000
,
0010
0000
0000
0000
,
0001
0000
0000
0000
,
1000
0000
0000
0000
,
0010
0000
0000
0000
,
0100
0000
0001
0000
,
1000
0000
0000
0000
,
0001
0010
0010
0000
,
1000
0010
0010
0000
,
0001
0100
0100
0000
,
1000
0100
0100
0000
,
0001
0000
0001
0000
,
0001
0000
0001
0000
,
1000
0000
1000
0000
,
1000
0000
1000
0000
,
2002
0000
0000
3003
,
1001
0000
1001
0000
,
0220
0000
0000
0330
,
0110
0000
0000
0000
,
2002
0000
3003
0000
,
2002
0000
3003
0000
,
1000
0000
1000
0000
,
0001
0000
0001
0000
,
0220
0000
0330
0000
,
0001
0000
0001
0000
,
0010
0000
0100
0000
,
0010
0000
0100
0000
,
2002
0000
3003
0000
,
2002
0000
3003
0000
,
0001
0000
0001
0000
,
1000
0000
1000
0000
,
0110
0000
1000
1000
,
1000
0000
0001
0001
,
0001
0000
0110
0000
,
1000
0000
0110
0000
,
2002
0000
0000
3003
,
0001
0000
0001
0000
,
2002
0000
0000
3003
,
1000
0000
1000
0000
,
0220
0000
0000
0330
,
0100
0000
0100
0000
,
0220
0000
0000
0330
,
0010
0000
0010
0000
,
2002
0000
0000
0000
,
0000
0000
0000
0000
,
3003
0000
0000
0000
;

//---------------dance-single - ----------------
#NOTEDATA:;
#CHARTNAME:;
#CHARTHASH:957614550;
#STEPSTYPE:dance-single;
#BANNER:;
#DESCRIPTION:;
#CHARTSTYLE:;
#DIFFICULTY:Medium;
#METER:14;
#METERF:14.000000;
#LASTSECONDHINT:112.965698;
#RADARVALUES:0.527076,0.701784,0.464416,0.731026,0.705225,429.000000,375.000000,54.000000,85.000000,0.000000,0.000000,0.000000,0.000000,0.000000,0.527076,0.701784,0.464416,0.731026,0.705225,429.000000,375.000000,54.000000,85.000000,0.000000,0.000000,0.000000,0.000000,0.000000;
#CREDIT:Supra G.L.;
#DISPLAYBPM:145.000000;
#NOTES:
// measure 0
0000
0000
0000
0000
,  // measure 1
0000
0000
0000
0000
,  // measure 2
1000
0010
0100
0000
,  // measure 3
0001
0010
0100
0000
,  // measure 4
0220
0000
0000
0330
,  // measure 5
2002
0000
0000
3003
,  // measure 6
1000
0100
1000
0100
1000
0100
1000
0100
1000
0100
1000
0100
,  // measure 7
1000
0000
1010
0000
1010
0000
0100
0000
0101
0000
0101
0000
,  // measure 8
0001
0100
0001
0100
0001
0100
0001
0100
0001
0100
0001
0100
,  // measure 9
0001
0000
0011
0000
0011
0000
0100
0000
1100
0000
1100
0000
,  // measure 10
1000
0010
1000
0010
1000
0010
1000
0010
1000
0010
1000
0010
,  // measure 11
1000
0000
1100
0000
1001
0000
0001
0000
0011
0000
1001
0000
,  // measure 12
0001
0010
0001
0010
0001
0010
0001
0010
0001
0010
0001
0010
,  // measure 13
0001
0000
0101
0000
1001
0000
1000
0001
1000
0001
1000
0001
,  // measure 14
2000
0010
3002
0010
,  // measure 15
2003
0100
3002
0100
,  // measure 16
2003
3020
0230
0301
,  // measure 17
0002
0023
0230
1300
,  // measure 18
1002
0100
2003
0100
,  // measure 19
3002
0010
2003
0010
,  // measure 20
3002
0000
0000
0203
0000
0000
0320
0000
0000
1030
0001
1000
,  // measure 21
0200
0320
0032
1003
,  // measure 22
1002
0000
0203
0000
,  // measure 23
0320
0000
2030
0000
,  // measure 24
3200
0000
0000
0000
0000
0000
0000
0000
0000
1300
0001
1000
,  // measure 25
0020
0000
0230
0300
,  // measure 26
2001
0000
3020
0000
,  // measure 27
0230
0000
0302
0000
,  // measure 28
0023
0230
2300
3020
,  // measure 29
0230
0000
0320
0030
,  // measure 30
1001
0000
0000
1000
0100
0010
0001
0000
0000
1000
0010
0100
,  // measure 31
0001
0000
0000
0010
0100
1000
0001
0000
0000
0100
0010
1000
,  // measure 32
0001
0000
0001
0010
0000
0010
1000
0000
1000
0100
0000
0100
,  // measure 33
0001
0000
0001
0010
0000
0010
0001
0100
0001
1000
0010
1000
,  // measure 34
0002
0010
0023
0100
,  // measure 35
0230
1000
2300
0001
,  // measure 36
3002
0000
0000
1000
0000
0000
0100
0000
0000
1003
0010
1000
,  // measure 37
0001
0010
0100
1000
0010
0100
0001
0010
0100
1000
0000
0000
,  // measure 38
0001
1000
0001
1000
0001
1000
0001
1000
0001
1000
0001
1000
,  // measure 39
0001
0000
0101
0000
1010
0000
1000
0000
1100
0000
0011
0000
,  // measure 40
0010
0100
0010
0100
0010
0100
0010
0100
0010
0100
0010
0100
,  // measure 41
0010
0000
0002
2003
,  // measure 42
3001
1001
0102
0013
,  // measure 43
2100
3010
0102
0013
,  // measure 44
2100
0000
0000
3020
0000
0000
0230
0000
0000
0301
0010
0001
,  // measure 45
2000
3200
0302
0203
,  // measure 46
1300
2002
3003
2010
,  // measure 47
3002
0000
0000
2003
0000
0000
3200
0000
0000
0310
0001
0010
,  // measure 48
0200
2300
3020
0230
,  // measure 49
0302
0023
2030
3020
,  // measure 50
0031
1002
0000
0203
,  // measure 51
0000
0320
2030
3200
,  // measure 52
2300
3200
0000
0320
,  // measure 53
0032
0000
0000
0103
0010
1000
0100
0000
0000
0010
0001
0100
,  // measure 54
0010
0000
0000
1000
0100
1000
0100
0010
0100
0010
0001
0010
,  // measure 55
0001
1000
0001
1000
0010
1000
0010
0100
0010
0100
0001
0100
,  // measure 56
0001
1010
1100
0011
,  // measure 57
0101
1100
1010
0011
,  // measure 58
2002
0000
0000
0003
,  // measure 59
3001
0000
0101
0000
0101
0000
0010
0000
1010
0000
1010
0000
,  // measure 60
1000
0010
1000
0010
1000
0010
1000
0010
1000
0010
1000
0010
,  // measure 61
1000
0000
1100
0000
1100
0000
0010
0000
0011
0000
0011
0000
,  // measure 62
0001
0100
0001
0100
0001
0100
0001
0100
0001
0100
0001
0100
,  // measure 63
0001
0000
0011
0000
1001
0000
1000
0000
1100
0000
1001
0000
,  // measure 64
1000
0100
1000
0100
1000
0100
1000
0100
1000
0100
1000
0100
,  // measure 65
1000
0000
1010
0000
1001
0000
0001
1000
0001
1000
0001
2000
,  // measure 66
0002
0000
0000
0000
,  // measure 67
0000
0000
0000
0000
,  // measure 68
3003
0000
0000
0000
;

//---------------dance-single - ----------------
#NOTEDATA:;
#CHARTNAME:;
#CHARTHASH:2328467953;
#STEPSTYPE:dance-single;
#BANNER:;
#DESCRIPTION:;
#CHARTSTYLE:;
#DIFFICULTY:Hard;
#METER:17;
#METERF:17.000000;
#LASTSECONDHINT:112.965698;
#RADARVALUES:0.750683,1.140400,0.670823,0.877231,1.105139,611.000000,533.000000,78.000000,102.000000,0.000000,0.000000,0.000000,0.000000,0.000000,0.750683,1.140400,0.670823,0.877231,1.105139,611.000000,533.000000,78.000000,102.000000,0.000000,0.000000,0.000000,0.000000,0.000000;
#CREDIT:Supra G.L.;
#DISPLAYBPM:145.000000;
#NOTES:
// measure 0
0000
0000
0000
0000
,  // measure 1
0000
0000
0000
0000
,  // measure 2
2000
3020
0230
0300
,  // measure 3
0002
0023
0230
0300
,  // measure 4
0220
0000
0000
0330
,  // measure 5
2002
0000
0000
3003
,  // measure 6
1000
0000
1000
0010
1000
0000
1000
0000
1000
0000
1000
0000
1000
0000
1000
0000
1000
0000
1000
0000
1000
0000
1000
0000
,  // measure 7
1000
1001
0001
1001
1000
0100
0010
0110
0100
0110
0010
0010
,  // measure 8
0001
0000
0001
0100
0001
0000
0001
0000
0001
0000
0001
0000
0001
0000
0001
0000
0001
0000
0001
0000
0001
0000
0001
0000
,  // measure 9
0001
1001
1000
1001
0001
0010
0100
0110
0010
0110
0100
0100
,  // measure 10
1000
0000
0100
1000
0100
0000
1000
0000
0100
1000
0100
0000
1000
0000
0100
1000
0100
0000
1000
0000
0100
1000
0100
0000
,  // measure 11
1000
1010
0010
1010
1000
0001
0100
0101
0001
0101
0100
0100
,  // measure 12
0001
0000
0010
0001
0010
0000
0001
0000
0010
0001
0010
0000
0001
0000
0010
0001
0010
0000
0001
0000
0010
0001
0010
0000
,  // measure 13
0001
0101
0100
0101
0001
1000
0010
0010
0010
0010
0010
0010
,  // measure 14
1002
0103
2010
3100
,  // measure 15
0012
0103
2010
3100
,  // measure 16
0011
1100
0012
1003
,  // measure 17
1010
0000
0000
0101
0000
0000
1010
0010
0100
0100
1000
0001
,  // measure 18
2001
3010
0102
0013
,  // measure 19
2100
3010
0102
0013
,  // measure 20
1100
0000
0000
0011
0000
0000
2100
0000
0000
3010
0100
0010
,  // measure 21
1000
0000
0100
0000
0100
0000
0001
0000
0100
0000
0100
0000
1000
0000
0001
1000
0001
0000
0100
0000
0100
0000
0100
0000
,  // measure 22
0002
0010
0203
1000
,  // measure 23
0320
0001
2030
0100
,  // measure 24
3020
0000
0000
0100
0000
0000
1000
0000
0000
0130
1000
0100
,  // measure 25
0001
0000
0001
0010
0000
0010
0100
0000
0100
1000
0010
1000
,  // measure 26
0200
0001
2300
0010
,  // measure 27
3002
0100
0023
1000
,  // measure 28
0032
0203
0320
2030
,  // measure 29
3001
0000
0010
0000
0100
0000
1000
0000
0010
0000
0100
0000
0001
0000
0010
0100
0010
0000
0001
0000
0100
0000
0010
0000
,  // measure 30
2000
0000
0000
3001
0010
1000
0002
0000
1003
0010
0001
1000
,  // measure 31
0200
0000
0000
1300
0010
0001
1000
0001
0010
1000
0001
1000
,  // measure 32
0100
0010
0001
0100
0010
0001
1000
0100
0001
1000
0100
0001
,  // measure 33
1000
0010
0001
1000
0010
0001
1000
0100
0010
1000
0100
0010
,  // measure 34
0002
0000
0100
0100
0000
0100
0203
0000
0001
0301
0010
0100
,  // measure 35
2000
0000
0010
0010
0000
0010
3020
0000
1000
1030
0001
0010
,  // measure 36
0200
0000
0010
0010
0000
0010
0010
0000
0010
0310
0100
0010
,  // measure 37
0001
0000
0100
0000
0100
0000
1000
0000
0100
0000
0100
0000
0001
0000
1000
0001
1000
0000
0100
0000
0100
0000
0100
0000
,  // measure 38
1000
0000
1000
0001
1000
0000
1000
0000
1000
0000
1000
0000
1000
0000
1000
0000
1000
0000
1000
0000
1000
0000
1000
0000
,  // measure 39
1000
1010
0010
1010
1000
0001
0010
0011
0001
0011
0010
0010
,  // measure 40
0100
0000
0100
0010
0100
0000
0100
0000
0100
0000
0100
0000
0100
0000
0100
0000
0100
0000
0100
0000
0100
0000
0100
0000
,  // measure 41
0100
0000
0000
0000
1000
0001
1000
0000
0000
0000
0000
0000
0020
0000
0000
0000
0000
0000
0230
0000
0000
0000
0000
0000
,  // measure 42
0301
1001
1020
0031
,  // measure 43
0021
1030
0201
1300
,  // measure 44
2200
0000
0000
3300
0000
0000
0202
0000
0000
0303
0000
0000
2020
0000
0000
3030
0000
0000
1000
0000
0100
0000
0001
0000
,  // measure 45
0202
0303
2200
3300
0022
0033
0002
0000
,  // measure 46
1003
2002
3003
0201
,  // measure 47
2300
0000
0000
3200
0000
0000
0320
0000
0000
1030
0001
0010
,  // measure 48
0210
2300
3002
0103
,  // measure 49
0120
0000
1030
0000
2200
3300
0022
0033
,  // measure 50
0001
2001
0010
3002
,  // measure 51
0010
2003
3200
0302
,  // measure 52
0203
0302
1000
2003
,  // measure 53
3020
0000
0031
1000
0100
0010
0001
0010
0100
1000
0010
0100
,  // measure 54
0001
0000
0000
0000
0000
0000
1000
0100
1000
0100
1000
0000
0100
0010
0100
0010
0100
0000
0010
0001
0010
0001
0010
0000
,  // measure 55
0001
0100
0001
0100
0010
0000
1000
0010
1000
0010
0100
0000
0001
0010
0100
1000
0100
0000
1000
0100
0010
0001
0010
0000
,  // measure 56
0022
0033
2020
3030
2200
3300
0202
0303
,  // measure 57
2200
3300
2020
3030
0022
0033
0202
0303
,  // measure 58
2002
0000
0000
0003
,  // measure 59
3001
1001
1000
1001
0001
0010
0100
0110
0010
0110
0100
0100
,  // measure 60
1000
0000
1000
0010
1000
0000
1000
0000
1000
0000
1000
0000
1000
0000
1000
0000
1000
0000
1000
0000
1000
0000
1000
0000
,  // measure 61
1000
1001
0001
1001
1000
0100
0010
0110
0100
0110
0010
0010
,  // measure 62
0001
0000
0010
0001
0010
0000
0001
0000
0010
0001
0010
0000
0001
0000
0010
0001
0010
0000
0001
0000
0010
0001
0010
0000
,  // measure 63
0001
0101
0100
0101
0001
1000
0010
1010
1000
1010
0010
0010
,  // measure 64
1000
0000
0100
1000
0100
0000
1000
0000
0100
1000
0100
0000
1000
0000
0100
1000
0100
0000
1000
0000
0100
1000
0100
0000
,  // measure 65
1000
1010
0010
1010
1000
0001
0100
0100
0100
0100
0100
0100
,  // measure 66
2002
0000
0000
0000
,  // measure 67
0000
0000
0000
0000
,  // measure 68
3003
0000
0000
0000
;
