#TITLE:Light It Up;
#SUBTITLE:;
#ARTIST:Robin Hustin x TobiMorrow ft. Jex;
#TITLETRANSLIT:;
#SUBTITLETRANSLIT:;
#ARTISTTRANSLIT:;
#GENRE:;
#CREDIT:;
#BANNER:Light It Up.png;
#BACKGROUND:Light It Up-bg.png;
#LYRICSPATH:;
#CDTITLE:cdtitle.png;
#MUSIC:Light It Up.ogg;
#OFFSET:0.091000;
#SAMPLESTART:52.409000;
#SAMPLELENGTH:15.000000;
#SELECTABLE:YES;
#BPMS:0.000000=128.000000
;
#STOPS:
;
#BGCHANGES:;
#KEYSOUNDS:;
#ATTACKS:;

//---------------dance-single - ----------------
#NOTES:
     dance-single:
     :
     Hard:
     14:
     0.542603,0.681931,0.883984,0.427421,0.208853,391.000000,300.000000,91.000000,44.000000,0.000000,0.000000,0.542603,0.681931,0.883984,0.427421,0.208853,391.000000,300.000000,91.000000,44.000000,0.000000,0.000000:
// measure 0
0000
0000
0000
0000
,  // measure 1
0000
0000
0000
0000
,  // measure 2
0000
0000
0000
0000
,  // measure 3
0000
0000
0000
0000
,  // measure 4
2002
0000
0000
0000
0000
0000
0000
0000
0000
0000
0000
0003
0000
0000
0000
0001
0000
0000
0000
0000
0000
0000
0001
0000
0000
0000
0000
0000
3010
0000
0000
0000
,  // measure 5
1200
0000
0000
0000
1000
0000
0000
0000
0010
0000
0000
0010
0000
0000
1300
0000
,  // measure 6
0102
0000
1000
0100
1000
0000
0010
1003
,  // measure 7
0021
0000
0000
0000
0100
0000
0100
0000
1000
0000
0000
1000
0000
0000
0130
0000
,  // measure 8
0220
0000
0000
0000
0000
0030
0000
1000
0000
0000
0000
1000
0000
0000
0310
0000
,  // measure 9
2100
0000
0000
0000
0001
0000
0000
0000
0010
0000
0000
0010
0000
0000
3001
0000
,  // measure 10
0012
0000
0000
0000
0100
0000
0100
0003
,  // measure 11
1020
0000
1000
0000
0100
0000
0001
0030
,  // measure 12
0100
0001
2000
3010
,  // measure 13
0210
0000
0302
0000
0023
0000
0130
1000
,  // measure 14
0002
1000
1000
0000
0203
0000
0310
0000
,  // measure 15
1020
0000
0230
0000
0302
0000
1003
0100
,  // measure 16
2000
0001
0001
0000
3020
0000
0130
0000
,  // measure 17
0201
0000
0320
0000
0130
0002
0000
1003
,  // measure 18
0020
1000
1000
0000
0130
0002
0000
0013
,  // measure 19
0100
0000
1000
0000
0010
0000
0100
0000
0110
0000
0000
0101
0000
0000
1010
0000
,  // measure 20
1001
0000
0001
2000
0010
3002
0100
0000
,  // measure 21
1003
0000
0100
0000
1000
0000
0010
0000
0110
0000
0000
0011
0000
0000
0100
1000
,  // measure 22
0001
0000
1000
0002
0100
2003
0010
0000
,  // measure 23
3001
0000
1000
0000
1010
0000
0010
0000
0110
0000
0100
0000
0101
0000
0010
0001
,  // measure 24
1000
0010
1000
0001
0100
0001
0010
1000
,  // measure 25
0010
0100
1000
0010
0001
0010
0100
0001
,  // measure 26
1000
0100
1000
0100
1000
0100
1000
0100
0010
0001
0010
0001
0010
0001
0010
0002
,  // measure 27
2000
0000
0000
0000
0000
3003
1001
0000
,  // measure 28
1100
0000
0101
0000
1100
0000
1001
0001
,  // measure 29
1100
0000
0000
0000
1001
0000
1000
0000
0011
0000
0000
0000
1001
0000
1010
0010
,  // measure 30
0000
0000
0011
0000
1010
0000
0110
0100
,  // measure 31
0011
0000
0000
0000
0000
0000
1010
0000
0000
2200
0000
0000
0000
0000
0000
3300
0000
0000
0001
0010
0001
0010
0001
0010
,  // measure 32
0001
0000
1100
0000
1010
0000
1100
1000
,  // measure 33
0101
0000
0000
0000
1100
0000
1000
0000
0011
0000
0000
0000
0101
0000
0110
0010
,  // measure 34
0000
0000
1001
0000
0011
0000
1010
0100
,  // measure 35
1001
0000
0000
0000
0000
0000
0000
0000
1000
0001
1000
0000
0001
1000
0001
1000
,  // measure 36
0001
0010
0001
0000
0101
0000
0100
0000
0110
0000
0000
0000
1100
0000
1000
0000
,  // measure 37
0101
0000
0001
0000
1001
0000
1000
0000
1010
0000
0000
0000
0011
0000
0101
0100
,  // measure 38
0000
0000
1001
0001
0011
0000
0101
0001
,  // measure 39
1100
0000
0000
0000
0000
0000
0110
0000
0000
2020
0000
0000
0000
0000
0000
3030
0000
0000
0100
0001
0100
0001
0100
0001
,  // measure 40
0100
0001
0011
0010
1010
0000
1100
0100
,  // measure 41
0110
0000
0010
0000
0101
0000
0001
0000
1001
0000
0000
0000
1010
0000
1100
0100
,  // measure 42
0000
0000
0011
0000
1100
0000
0101
0010
,  // measure 43
1001
0000
0000
0000
0000
0000
0000
0000
0000
0000
0001
1000
0001
1000
0001
0000
,  // measure 44
1001
0000
0011
0000
0100
1000
1010
0010
,  // measure 45
0120
0000
1030
0001
0100
0101
1010
0000
,  // measure 46
2100
0000
3010
0000
0100
0001
1001
0010
,  // measure 47
0012
0000
0000
0000
0000
0000
1003
0000
0000
0100
0000
0000
0010
0000
0000
0001
0000
0000
1000
0100
1000
0100
1000
0100
,  // measure 48
2000
0000
3010
0000
0100
0001
0101
0100
,  // measure 49
0210
0000
0301
0010
0100
1100
0011
0000
,  // measure 50
0102
0000
0013
0000
0100
1000
1010
0100
,  // measure 51
1001
0000
0000
0000
0000
0000
0000
0000
0000
0000
1000
0010
0100
0001
1000
0000
,  // measure 52
2002
0000
0000
0000
,  // measure 53
0000
0000
0000
0000
,  // measure 54
3003
0000
0000
0000
;

//---------------dance-single - ----------------
#NOTES:
     dance-single:
     :
     Medium:
     10:
     0.353871,0.472106,0.301138,0.330280,0.029142,255.000000,224.000000,31.000000,34.000000,0.000000,0.000000,0.353871,0.472106,0.301138,0.330280,0.029142,255.000000,224.000000,31.000000,34.000000,0.000000,0.000000:
0000
0000
0000
0000
,
0000
0000
0000
0000
,
0000
0000
0000
0000
,
0000
0000
0000
0000
,
2002
0000
0000
3000
,
0200
0000
0000
0003
,
0020
0000
0000
0300
,
2000
0000
0000
3030
,
0220
0000
0000
0030
,
0002
0000
0000
0300
,
2000
0000
0000
0003
,
0020
0000
0000
3030
,
0100
0101
0001
0011
,
1000
1100
0010
1010
,
0100
0110
0001
1001
,
1000
1100
0010
0011
,
0201
0310
1200
0310
,
0021
1030
2010
3100
,
1002
0013
2100
3010
,
0120
1030
0201
0310
,
1000
0000
0001
2000
0000
0010
3020
0000
,
0130
0000
0001
0000
0010
0000
0001
0000
0100
0000
0000
0100
0000
0000
0100
0000
,
0010
0000
1000
0002
0000
1000
2003
0000
,
3001
0000
0100
0000
0010
0000
1000
0000
0010
0000
0000
0010
0000
0000
0010
0000
,
1000
0100
0010
0001
0100
0010
1000
0001
,
0010
0100
0010
0001
0100
0010
1000
0100
,
0010
0001
0010
0001
0010
0001
0010
0001
,
2002
0000
3003
1001
,
1000
0000
0001
0000
0100
0000
0010
1000
,
0100
0000
0000
0000
1000
0000
0010
0000
0100
0000
0000
0000
0001
0000
0010
0100
,
0000
0000
0010
0000
0001
0000
1000
0100
,
0010
0000
0100
2000
0000
0000
3002
0000
,
0103
0000
0010
0000
1000
0000
0001
0010
,
0100
0000
0000
0000
0010
0000
0001
0000
0100
0000
0000
0000
0010
0000
1000
0100
,
0000
0000
1000
0000
0010
0000
1000
0001
,
0100
0000
0000
0000
1001
0010
1001
0100
,
0001
0010
0001
0100
0010
0000
1000
0100
,
1000
0000
0010
0000
1000
0000
0100
0000
0010
0000
0000
0000
0001
0000
1000
0010
,
0000
0000
1000
0100
0010
0000
0001
0100
,
0010
0000
1000
0020
0000
0000
2030
0000
,
3001
0010
0100
0010
0001
0000
1000
0100
,
0010
0000
0100
0000
1000
0000
0010
0000
0100
0000
0000
0000
0010
0000
1000
0001
,
0000
0000
1000
0000
0100
0000
1000
0001
,
0010
0000
0000
0000
0000
0100
1001
0000
,
0020
0000
0130
0000
0001
0010
0001
1000
,
1100
0000
0010
0100
0001
0010
0010
0000
,
0021
0000
0130
0000
1000
0001
0010
0001
,
0101
0000
0010
1000
0100
1000
0002
0000
,
0103
0000
0010
0000
1000
0100
1000
0001
,
0011
0000
0100
1000
0001
0010
0010
0000
,
0210
0000
1300
0000
0010
0100
0001
1000
,
1010
0000
0000
0000
0000
0100
1001
0010
,
0220
0000
0000
0000
,
0000
0000
0000
0000
,
0330
0000
0000
0000
;

//---------------dance-single - ----------------
#NOTES:
     dance-single:
     :
     Easy:
     8:
     0.290036,0.393422,0.165140,0.233139,0.000000,209.000000,192.000000,17.000000,24.000000,0.000000,0.000000,0.290036,0.393422,0.165140,0.233139,0.000000,209.000000,192.000000,17.000000,24.000000,0.000000,0.000000:
0000
0000
0000
0000
,
0000
0000
0000
0000
,
0000
0000
0000
0000
,
0000
0000
0000
0000
,
2000
0000
0000
3000
,
0020
0000
0000
0030
,
0200
0000
0000
0300
,
0002
0000
0000
0003
,
0020
0000
0000
0030
,
0002
0000
0000
0003
,
2000
0000
0000
3000
,
0200
0000
0000
0300
,
1000
0001
0010
0001
,
0100
1000
0010
1000
,
0100
0010
1000
0001
,
0100
0010
1000
0001
,
2000
0001
0100
3001
,
0200
1000
0010
1300
,
0020
0001
0100
0031
,
0002
1000
0100
1003
,
2010
0000
0000
3002
0000
0000
0203
0000
,
0000
0310
1000
0010
1000
0000
0001
0000
,
0021
0000
0000
0230
0000
0000
2300
0000
,
0000
3010
0100
0010
0100
0000
0100
0000
,
0010
1000
0100
0001
,
0010
1000
0100
0010
,
0001
1000
0001
1000
0001
1000
0001
2000
,
0002
0000
3003
1001
,
1000
0000
0010
0000
0100
0000
0001
0010
,
0001
0000
0100
0001
0100
0000
0010
0000
,
1001
0000
0100
0000
1000
0000
0010
1000
,
0010
0000
0100
0001
0000
0000
2000
0000
,
3001
0000
0010
0000
0100
0000
1000
0010
,
1000
0000
0100
1000
0100
0000
0010
0000
,
1001
0000
0100
0000
0001
0000
0010
0100
,
0010
0000
1001
1001
,
1000
0000
0010
1000
0010
0000
0100
0001
,
0010
0000
0001
0100
0001
0000
0010
0000
,
1001
0000
0100
0010
0001
0000
0010
0001
,
0100
0000
0010
1000
0000
0000
0002
0000
,
1003
0000
0001
0010
0001
0000
0100
0010
,
1000
0000
0100
1000
0100
0000
0010
0000
,
1001
0000
0100
0000
0001
0000
0010
0100
,
0010
0000
0000
1001
,
0001
0000
0100
0000
0010
1000
0100
0000
,
1010
0000
0100
0001
0010
0001
0100
0000
,
0011
0000
0001
0000
1000
0100
0010
0000
,
1100
0000
0001
0010
0100
0010
0002
0000
,
0103
0000
0010
0000
1000
0001
0010
0000
,
0110
0000
1000
0010
0100
0010
1000
0000
,
0101
0000
0010
0000
0100
1000
0001
0000
,
0110
0000
0000
0000
0000
0010
1001
0000
,
0200
0000
0000
0000
,
0000
0000
0000
0000
,
0300
0000
0000
0000
;

//---------------dance-single - ----------------
#NOTES:
     dance-single:
     :
     Beginner:
     3:
     0.142936,0.202054,0.077713,0.000000,0.000000,103.000000,95.000000,8.000000,0.000000,0.000000,0.000000,0.142936,0.202054,0.077713,0.000000,0.000000,103.000000,95.000000,8.000000,0.000000,0.000000,0.000000:
0000
0000
0000
0000
,
0000
0000
0000
0000
,
0000
0000
0000
0000
,
0000
0000
0000
0000
,
0010
0000
0000
0000
,
1000
0000
0000
0000
,
0100
0000
0000
0000
,
0001
0000
0000
0000
,
0010
0000
0000
0000
,
0001
0000
0000
0000
,
0100
0000
0000
0000
,
1000
0000
0000
0000
,
0000
0010
0000
0010
,
0000
0001
0000
0001
,
0000
1000
0000
1000
,
0000
0100
0000
0100
,
0000
1000
0000
1000
,
0000
0001
0000
0001
,
0000
0010
0000
0010
,
0000
0100
0000
0100
,
0100
0000
1000
0000
,
0001
0000
0001
0001
,
0001
0000
0010
0000
,
0100
0000
0100
0100
,
0100
0000
1000
0000
,
0010
0000
0001
0000
,
0010
0010
0010
0010
,
0010
0000
0000
0000
,
1001
0000
0001
0000
,
0100
0000
0010
0010
,
0010
0000
1000
0000
,
0001
0000
0100
0000
,
0110
0000
0010
0000
,
1000
0000
0001
0001
,
0001
0000
1000
0000
,
0100
0000
1001
1001
,
0000
1000
1000
0000
,
0001
0000
0100
0100
,
0100
0000
0001
0000
,
1000
0000
0010
0000
,
0110
0000
0100
0000
,
0001
0000
1000
1000
,
1000
0000
0001
0000
,
0010
0000
0000
0000
,
1001
0000
1000
0000
,
0001
0000
0100
0000
,
0010
0000
0001
0000
,
0010
0000
0100
0000
,
0110
0000
0010
0000
,
1000
0000
0001
0000
,
1000
0000
0010
0000
,
0100
0000
0000
0000
,
1001
0000
0000
0000
;
