#TITLE:恋詠桜;
#SUBTITLE:-オモイヨシノ-;
#ARTIST:loos;
#TITLETRANSLIT:Koi yomi zakura;
#SUBTITLETRANSLIT:-omoi yoshino-;
#ARTISTTRANSLIT:;
#GENRE:;
#CREDIT:;
#BANNER:Koi yomi zakura -omoi yoshino-.png;
#BACKGROUND:Koi yomi zakura -omoi yoshino--bg.png;
#LYRICSPATH:;
#CDTITLE:cdtitle.png;
#MUSIC:Koi yomi zakura -omoi yoshino-.ogg;
#OFFSET:0.642000;
#SAMPLESTART:106.500000;
#SAMPLELENGTH:15.000000;
#SELECTABLE:YES;
#DISPLAYBPM:84.000000:168.000000;
#BPMS:0.000000=168.000000
,160.000000=84.000000
,192.000000=168.000000
,260.000000=336.000000
,266.000000=168.000000
;
#STOPS:16.000000=1.071000,
31.000000=0.357000,
266.000000=0.357000
;
#BGCHANGES:1.792=Koi yomi zakura -omoi yoshino-.avi=1.000=0=0=0=StretchNoLoop====,
99999=-nosongbg-=1.000=0=0=0 // don't automatically add -songbackground-
;
#KEYSOUNDS:;
#ATTACKS:;

//---------------dance-single - ----------------
#NOTES:
     dance-single:
     :
     Hard:
     14:
     0.700285,0.999253,0.558363,0.529358,0.246550,676.000000,599.000000,77.000000,73.000000,0.000000,0.000000,0.700285,0.999253,0.558363,0.529358,0.246550,676.000000,599.000000,77.000000,73.000000,0.000000,0.000000:
// measure 0
0000
0000
0000
0000
,  // measure 1
1000
0100
0010
0001
0010
0100
0010
0001
,  // measure 2
0100
0010
1000
0010
0100
0001
0010
0100
,  // measure 3
2000
3020
0230
0302
,  // measure 4
0203
0300
1100
1000
0010
0100
0101
0001
,  // measure 5
0010
0100
1100
0010
0101
0010
1100
0010
,  // measure 6
0100
0001
0011
0100
1001
0010
1100
1100
,  // measure 7
1000
0001
0101
0101
0010
0100
0220
0330
,  // measure 8
1001
0010
0100
0010
0001
0010
0100
0010
,  // measure 9
1001
0100
1000
0100
0001
0100
1000
0100
,  // measure 10
1001
1000
0010
1000
0110
0001
0100
0001
,  // measure 11
1100
0000
1100
0000
0000
0000
0011
0000
0011
0000
0000
0010
0100
0000
0010
0000
,  // measure 12
2000
0000
0000
3002
0000
0100
0103
0000
,  // measure 13
0010
0100
0000
2000
0000
0010
3010
0000
,  // measure 14
0010
1000
0001
0100
0010
1000
0100
0010
,  // measure 15
0100
0000
1000
0000
0001
0000
0010
0000
0001
0000
0100
0010
0100
0000
0100
0000
,  // measure 16
0010
0000
1000
0100
1000
0000
0100
0000
0000
0000
0010
0001
0010
0000
0001
0000
,  // measure 17
0000
0000
0100
0010
0100
0000
0010
0000
0000
0000
1000
0010
1000
0000
0010
0000
,  // measure 18
0000
0000
1000
0001
1000
0000
0001
0000
0000
0000
0100
0001
0100
0000
0001
0000
,  // measure 19
0000
0000
0010
0100
0010
0000
0100
0000
0000
0000
1000
0010
1000
0000
0010
0000
,  // measure 20
0000
0000
0001
0100
0001
0000
0100
0000
0000
0000
1000
0100
1000
0000
0100
0000
,  // measure 21
0000
0000
0001
1000
0001
0000
1000
0000
0000
0000
0001
0010
0001
0000
0010
0000
,  // measure 22
0100
0000
1001
0100
0100
0000
1001
0100
,  // measure 23
0000
1010
0000
0011
0000
1001
1001
0010
,  // measure 24
0100
0000
0001
0010
0001
0000
0100
0000
0000
0000
0010
0100
0010
0000
0001
0000
,  // measure 25
0000
0000
0010
0001
0010
0000
0100
0000
0000
0000
0010
1000
0010
0000
1000
0000
,  // measure 26
0100
1000
0020
0000
2030
0000
3002
0000
,  // measure 27
0203
0320
2030
3200
,  // measure 28
0320
0000
0001
0000
0031
0000
0100
0000
0000
0000
1000
0100
1000
0000
0010
0000
,  // measure 29
0200
0000
0010
0000
0310
0000
1000
0000
0000
0000
0001
1000
0001
0000
0010
0000
,  // measure 30
0100
0100
1001
0000
0010
0010
1001
0000
,  // measure 31
1100
1100
0000
0101
0000
0100
0110
0000
,  // measure 32
0010
0000
2001
0000
3100
0000
0101
0200
,  // measure 33
0000
0301
0010
0100
2000
0010
3010
0000
,  // measure 34
0100
0000
0102
0000
1003
0000
1010
0020
,  // measure 35
0000
1030
0100
0010
0002
0100
0103
0000
,  // measure 36
0110
0000
2002
3003
0220
0330
1001
2000
,  // measure 37
0000
3010
0100
0001
0011
0000
1100
0000
,  // measure 38
1001
0000
1000
0100
1000
0000
0001
0010
0001
0000
1000
0100
1000
0000
0001
0010
,  // measure 39
0001
1000
0001
1000
0100
0010
0001
0010
,  // measure 40
0100
0000
1000
0100
1000
0000
0010
0000
0001
0010
0001
0000
0200
0000
0310
1000
,  // measure 41
0020
0000
1030
0000
0100
0000
0001
0000
0010
0100
0010
0100
0020
0000
0030
0000
,  // measure 42
0001
0000
0100
0001
0100
0000
1000
0000
0010
1000
0010
0000
2000
0000
3001
0100
,  // measure 43
0002
0000
0103
0000
1000
0000
0010
0000
0001
1000
0001
1000
0002
0000
0003
0000
,  // measure 44
1000
0010
1000
0010
1000
0000
0001
0100
0001
0100
0001
0000
0020
0000
0031
1000
,  // measure 45
0002
0000
1003
0000
0001
0000
0100
0000
0010
0001
0100
0001
0020
0000
0030
0000
,  // measure 46
1000
0100
1000
0100
0010
0100
0010
0100
0010
0001
0010
0001
1000
0010
0100
0000
,  // measure 47
0001
0100
0001
0010
0100
0010
0001
1000
0010
1010
0000
0011
0000
0001
1001
0000
,  // measure 48
2000
0000
3010
0200
0000
0301
0010
0100
,  // measure 49
1000
0010
0100
0010
2000
0000
3001
1000
,  // measure 50
0200
0000
1300
0002
0000
0103
0010
1000
,  // measure 51
0010
0000
0100
0000
0001
0000
0010
0000
0100
0000
0010
0100
0010
0000
0010
0000
,  // measure 52
0002
0000
1003
0020
0000
0130
0001
0010
,  // measure 53
0100
0010
0001
1000
0200
0000
1300
0001
,  // measure 54
0020
0000
0130
2000
0000
3010
0100
0001
,  // measure 55
1001
1001
0110
1001
0210
0000
0310
0000
,  // measure 56
1100
0100
0110
0010
0011
0000
0010
0000
,  // measure 57
0011
0011
0100
1010
1010
0000
0100
0000
,  // measure 58
0101
0000
1100
0000
0101
0101
0000
0100
,  // measure 59
1100
1100
1000
0001
2002
0000
3003
0000
,  // measure 60
0101
0001
1001
1000
1010
0000
0001
0000
,  // measure 61
0101
0101
1000
0011
0011
0000
1000
0000
,  // measure 62
1010
0000
1100
0000
0100
0110
0000
0001
,  // measure 63
1001
1000
0100
1000
0001
0010
0100
0020
,  // measure 64
0000
0230
0000
0310
0001
1000
0100
0020
,  // measure 65
0000
0000
0000
0000
,  // measure 66
0000
0000
0000
0000
0030
0100
1000
0100
,  // measure 67
0020
0000
0130
0010
0001
0010
0200
0000
,  // measure 68
2300
0000
3001
1000
0020
0000
1030
0010
,  // measure 69
0100
0001
0010
0001
0100
0010
1000
0100
,  // measure 70
0010
0000
0100
0010
0100
0000
0100
0000
1000
0000
0010
0000
0100
0000
0010
0000
,  // measure 71
2000
0000
3001
0100
0010
0100
0002
0000
,  // measure 72
0203
0000
0310
1000
0002
0000
0013
0100
,  // measure 73
1000
0100
0010
0001
1000
0010
1000
0001
,  // measure 74
0010
0100
0010
0100
0010
0000
0010
0000
0001
0000
0010
0000
0100
0000
0010
0000
,  // measure 75
0002
0000
1003
0100
0010
0100
2000
0000
,  // measure 76
3020
0000
0130
0001
2000
0000
3100
0010
,  // measure 77
0001
0100
0010
1000
0010
0100
0001
0010
,  // measure 78
0220
0330
2000
0100
,  // measure 79
0100
0000
3100
0010
0002
0000
0100
0000
,  // measure 80
0100
0000
0000
0000
0103
0000
0000
0000
1000
0100
1000
0000
0001
0100
0001
0000
,  // measure 81
1000
0100
1000
0000
0001
0100
0001
0000
1000
0010
1000
0000
0001
0010
0001
0000
,  // measure 82
1000
0010
1000
0000
0001
0010
0001
0000
1000
0000
0100
0000
0010
0000
0001
0000
,  // measure 83
1000
0100
0010
0001
1000
0100
0010
0100
,  // measure 84
2000
0000
0000
0000
,  // measure 85
3001
0000
0000
0002
0000
0000
0000
0000
0000
0000
0000
0000
0000
0000
0000
0000
0000
0000
0000
0000
0000
0000
0000
0000
0000
0000
0000
0000
0000
0000
0000
0000
,  // measure 86
0000
0003
0000
0000
0000
0000
0000
0000
;

//---------------dance-single - ----------------
#NOTES:
     dance-single:
     :
     Challenge:
     15:
     0.789375,1.155386,0.406083,0.507603,0.478597,762.000000,706.000000,56.000000,70.000000,0.000000,0.000000,0.789375,1.155386,0.406083,0.507603,0.478597,762.000000,706.000000,56.000000,70.000000,0.000000,0.000000:
0000
0000
0000
0000
,
0001
0100
1000
0100
0001
0010
0100
0010
,
1000
0010
0001
0100
0010
1000
0100
0010
,
0002
0023
0230
2300
,
3020
0000
0030
0000
0100
0000
0010
1000
0010
0000
1000
0000
0100
0000
0010
0001
,
0010
0000
0100
0000
1000
0000
0001
0100
0001
0000
0100
0000
0010
0000
1000
0001
,
1000
0000
0100
0000
0010
0000
0001
0010
0001
0000
1000
0000
0010
0000
0100
0001
,
0100
0000
0001
0000
1000
0000
0100
1000
0100
0000
0010
0000
2002
0000
3003
0000
,
0110
0000
0001
1000
0100
0000
0010
0000
0100
0000
1000
0100
0010
0000
0001
0000
,
1000
0000
0010
0100
0001
0000
0100
0000
0010
0000
0100
0010
1000
0000
0100
0000
,
0010
0000
0001
0010
0100
0000
0010
0000
0100
0000
1000
0001
0010
0000
0001
0000
,
0010
0000
0010
0000
0001
0000
1000
0000
0010
0100
0000
0001
0010
0000
0100
0000
,
2100
0000
3000
0021
0000
0100
0130
0000
,
0100
0010
1000
0002
0000
1000
1003
0100
,
0010
0001
0101
0100
0001
1001
1000
1010
,
0010
0000
0100
0000
0001
0000
1000
0000
0010
0000
0100
0010
0100
0000
0100
0000
,
0010
0000
1000
0001
0100
0000
0010
0000
0000
0000
1000
0100
1000
0000
0010
0000
,
0100
0000
0001
0010
0100
0000
0010
0000
0000
0000
0001
0100
0001
0000
0010
0000
,
0100
0000
1000
0010
0100
0000
0001
0000
0000
0000
0010
0100
0010
0000
0100
0000
,
1000
0000
0100
0010
0001
0000
0100
0000
0000
0000
0010
1000
0010
0000
1000
0000
,
0100
0000
0010
0001
1000
0000
0001
0000
0000
0000
0100
0001
0100
0000
0010
0000
,
1000
0000
0100
1000
0001
0000
0100
0000
0000
0000
0010
1000
0010
0000
0100
0000
,
0010
0000
1100
0010
0010
0000
0101
0010
,
0000
1010
0000
0011
0000
1001
1001
0100
,
0010
0000
0001
0010
0001
0000
1000
0000
0100
0000
0010
0100
0010
0000
0001
0000
,
1000
0000
0010
1000
0010
0000
0100
0000
0010
0000
1000
0100
1000
0000
0010
0000
,
0100
0000
0001
0100
0002
0000
0010
0000
0023
0000
0100
0000
0230
0000
1000
0000
,
2300
0010
3020
0100
0230
0001
0302
0010
,
0013
0000
0100
1000
0100
0000
0010
0000
0001
0000
1000
0010
1000
0000
0001
0000
,
0010
0000
0100
0010
0100
0000
0010
0000
0001
0000
1000
0001
1000
0000
0010
0000
,
0110
0110
1010
0000
0110
0110
0101
0000
,
1100
1100
0000
0011
0000
0100
2002
3003
,
0010
0000
2001
0000
3002
0000
0103
0010
,
0000
1000
0100
0010
0001
0101
0101
0000
,
0100
0000
0012
0000
0203
0000
0310
1000
,
0000
0100
0010
0100
1000
1010
1010
0000
,
0110
0000
2002
3003
0220
0330
1001
0110
,
0000
1000
0001
0010
0011
0000
1010
0000
,
0110
0000
0010
0100
0001
0000
0010
0100
1000
0000
0100
0010
0001
0000
0100
0010
,
1000
0100
0010
0001
0010
0100
1000
0001
,
1000
0100
1000
0100
1000
0000
0001
0010
0001
0010
0001
0000
0200
0000
0310
1000
,
0200
0000
1300
0001
0010
0100
0010
0001
0100
0010
1000
0100
0020
0000
0030
0000
,
0100
0001
0100
0001
0100
0000
0010
1000
0010
1000
0010
0000
2000
0000
3010
0100
,
0002
0000
0013
0100
1000
0100
0010
0001
0100
0001
1000
0010
0200
0000
0300
0000
,
1000
0100
0010
0100
1000
0000
0001
0010
0100
0010
0001
0000
2000
0000
3001
0010
,
0200
0000
1300
0010
0100
0010
1000
0001
0010
0100
1000
0001
0020
0000
0030
0000
,
0001
0100
0010
1000
0010
0100
0010
1000
0001
0010
0001
1000
0100
0010
0100
1000
,
0010
1000
0010
0000
0100
0000
0001
0000
0010
0001
0010
0000
0100
0000
1000
0000
1100
0000
1100
0000
0000
0000
0011
0000
0000
0000
1001
0000
1001
0000
0000
0000
,
0200
0000
0000
0000
0310
0000
2000
0000
0000
0000
3001
0010
0001
0000
1000
0000
,
0010
0100
0001
1000
0200
0000
1300
0001
,
0020
0000
0000
0000
0031
0000
0200
0000
0000
0000
0310
1000
0010
0000
0100
0000
,
0001
0000
1000
0000
0100
0000
1000
0000
0001
0000
0100
0010
0100
0000
0100
0000
,
0002
0000
0000
0000
0103
0000
2000
0000
0000
0000
3100
0010
0100
0000
0001
0000
,
0100
0010
1000
0010
0002
0000
0013
1000
,
0020
0000
0000
0000
0130
0000
0002
0000
0000
0000
1003
0010
1000
0000
0001
0000
,
0011
1100
1010
0101
0110
0000
1001
0000
,
0100
0000
1000
0100
1000
0000
0010
0000
0100
0000
0001
0010
0001
0000
1000
0000
,
0010
0000
0100
0001
0100
0000
0010
0000
0100
0000
0001
1000
0001
0000
1000
0000
,
0200
0010
0000
0000
0320
0001
0000
0000
0032
1000
0000
0000
2003
0100
0000
0000
,
3100
0000
1000
0010
1000
0000
0001
0000
0100
0000
0010
0100
0010
0000
0100
0000
,
0010
0000
1000
0001
0100
0000
0001
0000
0010
0000
0100
0010
0100
0000
1000
0000
,
0100
0000
0010
0001
1000
0000
0010
0000
0100
0000
0001
0100
0001
0000
0010
0000
,
0110
0000
1100
0000
0011
0011
0000
1001
,
1001
0000
1000
0000
0010
0000
0100
0000
0010
0100
0010
0100
0010
0100
0010
0100
,
0010
0200
0000
0310
0100
0001
1000
0020
,
0000
0000
0000
0000
,
0000
0000
0000
0000
0000
0000
0000
0000
0030
0000
1000
0010
1000
0000
0100
0000
,
1000
0000
0001
0000
0010
0000
0001
0000
1000
0000
0100
1000
0100
0000
1000
0000
,
0020
0100
1030
0010
0200
0001
0310
0001
,
0100
0000
0010
0000
1000
0000
0100
0000
0010
0000
0001
0100
0001
0000
0010
0000
,
0100
0000
0010
0100
0010
0000
0010
0000
0100
0000
1000
0100
1000
0000
0010
0000
,
0100
0000
0001
0000
1000
0000
0010
0000
0100
0000
0010
1000
0010
0000
1000
0000
,
0002
0100
1003
0001
2000
0100
3001
0010
,
0100
0000
0010
0000
0001
0000
1000
0000
0010
0000
0100
0001
0100
0000
0010
0000
,
0100
0010
0100
0010
0100
0000
0100
0000
0010
0000
1000
0001
1000
0000
0010
0000
,
0100
0000
0001
0000
1000
0000
0100
0000
1000
0000
0001
0010
0001
0000
0010
0000
,
0200
1000
0310
0100
0020
0001
0130
0001
,
0010
0000
0001
0000
0100
0000
0010
0000
1000
0000
0100
0010
0100
0000
0010
0000
,
0022
0033
2000
3200
,
0320
0000
0031
0100
0020
0000
2030
0000
,
3002
0000
0000
0000
0203
0000
0000
0000
0310
1000
0010
0000
0100
0001
0100
0000
,
0001
0010
0001
0000
1000
0100
1000
0000
0100
0010
0001
0000
0010
0100
1000
0000
,
0001
0010
0100
0000
1000
0100
0010
0000
0001
0000
0010
0000
0100
0000
0010
0000
,
0001
1000
0100
0010
0100
1000
0010
0100
,
0002
0000
0000
0000
,
0103
0000
0000
2200
0000
0000
0000
0000
0000
0000
0000
0000
0000
0000
0000
0000
0000
0000
0000
0000
0000
0000
0000
0000
0000
0000
0000
0000
0000
0000
0000
0000
,
0000
3300
0000
0000
0000
0000
0000
0000
;

//---------------dance-single - ----------------
#NOTES:
     dance-single:
     :
     Medium:
     11:
     0.508639,0.654808,0.210293,0.406083,0.032632,491.000000,462.000000,29.000000,56.000000,0.000000,0.000000,0.508639,0.654808,0.210293,0.406083,0.032632,491.000000,462.000000,29.000000,56.000000,0.000000,0.000000:
0000
0000
0000
0000
,
0010
0001
0010
0100
1000
0100
1000
0010
,
1000
0001
0010
0001
0100
0010
0100
0001
,
1000
0010
0100
0001
,
0200
0300
1010
0000
0010
0000
0101
0000
,
0100
0011
1100
0011
,
0001
0000
0110
0000
0110
0000
0010
0010
,
0000
0100
0100
0100
0000
1000
2002
3003
,
1000
0010
1000
0000
0001
0100
0001
0000
,
0010
0001
0010
0000
0100
1000
0100
0000
,
1000
0001
1000
0000
0010
0100
0010
0000
,
0100
0100
0000
0001
0001
0000
1000
0010
,
0100
0000
0000
0201
0000
0001
0301
0000
,
0010
0100
0000
1020
0000
1000
1030
0000
,
0100
0000
1000
0001
0000
0100
0010
0100
,
0001
0000
1000
0000
0001
0010
0110
0000
,
0001
1000
0100
1000
0000
0010
1000
0010
,
0000
0100
0010
0100
0000
0001
0010
0001
,
0000
0100
0001
0100
0000
0010
0100
0010
,
0000
1000
0010
1000
0000
0100
1000
0100
,
0000
1000
0001
1000
0000
0001
0100
0001
,
0000
0010
0001
0010
0000
0100
1000
0100
,
0010
0000
0011
0010
0100
0000
1100
0100
,
0000
0101
0000
1100
0000
1001
1001
0000
,
0100
1000
0001
0100
0000
0010
1000
0001
,
0000
0010
0001
0100
0000
0010
1000
0001
,
0100
0002
0023
0230
,
2300
3002
0203
0320
,
0230
0000
0001
0301
0000
1000
0001
0000
,
0020
0000
1000
1030
0000
0001
0010
0000
,
1000
1000
1000
0000
0001
0001
0001
0000
,
0100
0100
0000
0010
0000
0100
1001
0000
,
0010
0000
1010
0000
0010
0000
1000
0002
,
0000
0103
0010
0000
1000
0001
0100
0000
,
0001
0000
0011
0000
0001
0000
0010
0200
,
0000
1300
0010
0000
0100
0001
1000
0000
,
0001
0000
0101
0000
0001
0000
0100
0020
,
0000
1030
0100
0000
1010
0000
0011
0000
,
0001
0100
0010
0100
0001
1000
0100
1000
,
0010
1000
0100
0001
,
0010
1000
0001
0100
0010
1000
0002
0000
,
0203
0000
0000
0000
0310
0000
1000
0000
0100
0000
0010
0100
0010
0000
0000
0000
,
0100
1000
0010
0001
0010
1000
0200
0000
,
2300
0000
0000
0000
3010
0000
0100
0000
0001
0000
1000
0001
1000
0000
0000
0000
,
0001
1000
0010
0100
0010
1000
0200
0000
,
0320
0000
0000
0000
0031
0000
1000
0000
0010
0000
0100
0010
0100
0000
0000
0000
,
0020
0000
0000
0000
0000
0000
1030
0100
0010
0000
0001
0000
0100
0000
0010
0000
,
1000
0100
1000
0000
0001
0010
0001
0000
0100
0100
0000
0001
0000
1000
1001
0000
,
0200
0000
1300
0020
0000
0130
0001
0000
,
0010
0000
0001
1000
0100
0000
1000
0100
,
0020
0000
0031
2000
0000
3010
0100
0000
,
0001
0000
0010
0100
1000
0100
0010
0100
,
2000
0000
3001
0200
0000
0301
0010
0000
,
0100
0000
1000
0010
0200
0000
0310
1000
,
0002
0000
1003
0020
0000
0130
0001
0000
,
1000
0001
1000
0001
1000
0000
1001
0000
,
2000
0000
3000
0010
0200
0000
0301
1000
,
0002
0000
0013
0100
1000
0010
0100
0010
,
2000
3020
0230
0302
,
0013
0001
1000
0001
0200
0000
0300
0000
,
0020
0000
0030
0100
1000
0000
0010
0100
,
0002
0000
0013
0100
0010
0100
1000
0001
,
0100
0000
1100
0000
0010
0011
0000
0001
,
1001
0000
1000
0010
0100
0001
1000
0002
,
0000
0023
0000
0130
1000
0001
0100
0020
,
0000
0000
0000
0000
,
0000
0000
0000
0000
0030
0000
1000
0010
,
1000
0000
0100
0000
0010
0001
0010
0000
,
0002
0000
0103
0010
2000
0000
3100
0000
,
0010
0000
0001
0000
1000
0001
1000
0001
,
0100
0000
0110
0000
0100
0000
0001
0100
,
0001
0000
0010
0000
0100
1000
0100
0000
,
0020
0000
0031
1000
0200
0000
0310
0000
,
0001
0000
1000
0000
0010
0100
0010
0100
,
0001
1000
0001
1000
0100
0000
1000
0001
,
1000
0000
0001
0000
0100
0010
0100
0000
,
0020
0000
0130
0001
2000
0000
3010
0000
,
0100
0000
0001
0000
0010
0100
1000
0100
,
0020
0030
0200
0000
,
0000
0000
0310
0001
1000
0000
0010
0000
,
0100
0000
0001
0000
0010
1000
0010
0100
,
0001
0010
0001
1000
0100
0010
0100
1000
,
0001
0100
0001
1000
0010
0000
0100
0000
,
0001
0100
0010
1000
,
0002
0000
0000
0000
,
0203
0000
0000
0000
,
0300
0000
0000
0000
;

//---------------dance-single - ----------------
#NOTES:
     dance-single:
     :
     Beginner:
     5:
     0.200969,0.280632,0.058012,0.036257,0.000000,194.000000,186.000000,8.000000,5.000000,0.000000,0.000000,0.200969,0.280632,0.058012,0.036257,0.000000,194.000000,186.000000,8.000000,5.000000,0.000000,0.000000:
0000
0000
0000
0000
,
0100
0000
0100
0000
,
0100
0000
0100
0000
,
0200
0000
0000
0300
,
0100
0100
0000
0100
,
0000
1000
0000
1000
,
0000
0001
0000
0001
,
0000
0010
0000
1001
,
0100
0000
1000
0000
,
0010
0000
0001
0000
,
0010
0000
1000
0000
,
0100
0000
0010
0000
,
0110
0000
0000
0000
,
1001
0000
0000
0000
,
0001
0000
0100
0000
,
0010
0000
0100
0100
,
0100
0100
0000
1000
,
0000
0001
0000
0100
,
0000
0010
0000
0001
,
0000
1000
0000
0100
,
0000
1000
0000
0010
,
0000
0001
0000
0100
,
0100
0000
0100
0000
,
0100
0000
0100
0010
,
0100
0100
0000
0001
,
0000
0010
0000
0100
,
0000
0010
0000
0001
,
0000
1000
0000
0100
,
0000
0010
0000
0100
,
0000
1000
0000
0010
,
0010
0000
0010
0000
,
0010
0000
0010
0100
,
0010
0000
1001
0000
,
1000
1000
1000
0000
,
0001
0000
0110
0000
,
0010
0010
0010
0000
,
0100
0000
1001
0000
,
0010
0000
1001
0000
,
0100
0100
0010
0010
,
0100
0000
0000
0000
,
1000
0000
0010
0000
,
0100
0000
0001
1000
,
0001
0000
0100
0000
,
1000
0000
0010
0100
,
0010
0000
0001
0000
,
0010
0000
0100
0010
,
1000
0000
0001
0000
,
0100
0100
0100
0000
,
1000
0000
0100
0000
,
0010
0100
0010
0000
,
0001
0000
1000
0000
,
0100
0010
0100
0010
,
0100
0000
1000
0000
,
0010
0100
0010
0000
,
0100
0000
0001
0000
,
0010
0010
0010
0000
,
1000
0000
0001
0000
,
0100
0000
0010
0000
,
1000
1000
1000
1000
,
1000
0000
0001
0000
,
0100
0000
0010
0000
,
1000
0000
0001
0000
,
0100
0000
0010
0000
,
1001
0000
0000
0000
,
0100
0000
0000
0000
,
0010
0000
0000
0000
,
0000
0000
0000
0100
,
0000
1000
0000
0001
,
0000
0010
0000
0001
,
0000
1000
0000
0100
,
0010
0100
0000
0010
,
0000
0001
0000
1000
,
0000
0100
0000
0010
,
0000
1000
0000
0010
,
0100
0010
0100
0010
,
0000
1000
0000
0001
,
0000
0100
0000
0010
,
0000
0001
0000
0010
,
0010
0000
2000
0000
,
0000
3000
0002
0000
,
0000
0003
0100
0100
,
0100
0100
0010
0010
,
0010
0010
0100
0000
,
0100
0000
0100
0000
,
0200
0000
0000
0300
,
0020
0000
0000
0000
,
0030
0000
0000
0000
;

//---------------dance-single - ----------------
#NOTES:
     dance-single:
     :
     Easy:
     8:
     0.364646,0.405357,0.137778,0.181287,0.000000,352.000000,333.000000,19.000000,25.000000,0.000000,0.000000,0.364646,0.405357,0.137778,0.181287,0.000000,352.000000,333.000000,19.000000,25.000000,0.000000,0.000000:
0000
0000
0000
0000
,
0100
1000
0001
0010
,
0001
0100
0010
1000
,
0100
0100
0100
0100
,
0200
0300
1000
0000
0010
0000
1000
0000
,
0000
0001
0010
0001
,
0000
0010
0100
0010
,
0000
1000
0100
0110
,
1001
0001
0100
1000
,
0110
0010
1000
0100
,
1001
0010
0100
0001
,
1000
1000
0000
0001
0001
0000
0010
0100
,
1000
0000
0000
2200
0000
0000
3300
0000
,
0001
0000
0000
0022
0000
0000
0033
0000
,
0010
0100
1000
0100
,
0010
0000
0001
0000
0100
0010
0100
0000
,
0100
0000
1000
1000
0000
0000
0001
0001
,
0000
0000
0100
0100
0000
0000
0010
0010
,
0000
0000
0100
0100
0000
0000
0001
0001
,
0000
0000
1000
1000
0000
0000
0010
0010
,
0000
0000
0100
0100
0000
0000
1000
1000
,
0000
0000
0010
0010
0000
0000
0001
0001
,
0001
0000
0000
1000
1000
0000
0000
0010
,
0000
0100
0000
0010
0000
0000
1001
0000
,
0010
0000
0100
0100
0000
0000
0001
0001
,
0000
0000
0010
0010
0000
0000
1000
1000
,
2000
0010
0100
0010
,
0100
0001
0100
0001
,
3100
0000
0010
0010
0000
0000
0001
0000
,
0010
0000
1000
1000
0000
0000
0001
0000
,
0100
0100
0000
0000
0010
0010
0000
0000
,
1000
0001
0000
1000
0000
0000
1001
0000
,
0100
0000
1100
0000
0200
0000
0000
1300
,
0000
0001
0100
0000
0010
0000
1010
0000
,
0001
0000
0011
0000
0002
0000
0000
0103
,
0000
0010
1000
0000
0100
0000
0110
0000
,
1000
0000
1010
0000
2000
0000
0000
3010
,
0000
0100
0001
0000
1001
0000
1001
0000
,
0100
1000
0100
0000
0010
0001
0010
0000
,
0200
0000
0000
0310
,
0001
0010
0001
1000
,
0100
0000
1000
0000
0010
0100
0010
0000
,
1000
0010
0100
0001
,
0010
0000
0001
0000
0100
0010
0100
0000
,
0001
0100
0010
1000
,
0001
0000
0100
0000
0010
0100
0010
0000
,
2000
0000
0000
3000
0002
0000
0000
0003
,
0100
0000
0100
0000
0100
0100
0100
0100
,
0100
0000
0001
0010
0000
0001
0010
0000
,
0100
1000
0010
1000
,
0001
0000
0010
0100
0000
0010
0100
0000
,
1000
0000
0010
0100
0010
0000
0110
0000
,
0010
0000
1000
0100
0000
1000
0100
0000
,
0010
0001
0100
0001
,
1000
0000
0001
0100
0000
0001
1000
0000
,
1001
0110
2002
3003
,
1000
0001
1000
0000
,
0001
0100
0001
0000
,
1000
0010
0100
0001
,
0010
0000
0100
0000
0010
0100
0010
0000
,
0100
0010
0100
0000
,
0010
0001
0010
0000
,
0001
0000
1000
0000
0001
0001
0000
1000
,
1000
0000
0100
0000
0010
0000
0001
0010
,
0000
0000
0100
0000
1000
0000
0001
0020
,
0000
0000
0000
0000
,
0000
0000
0030
0100
,
1000
0001
0010
0001
,
2000
3100
0002
0013
,
0100
1000
0010
0100
,
0010
0100
0010
0000
0100
0000
0001
0000
,
0010
0100
0010
0001
,
0200
0301
0020
1030
,
0100
1000
0001
0010
,
0100
0010
0100
0010
0100
0000
1000
0000
,
0010
0100
0001
0010
,
0200
1300
0020
0031
,
1000
0000
0010
0000
0100
0000
0010
0100
,
0010
0000
2000
0000
,
0000
3100
0002
0000
,
0000
0000
0103
0000
0001
0010
0001
0000
,
1000
0100
1000
0000
0010
1000
0010
0000
,
0100
0001
0100
0000
0010
0000
1000
0000
,
0001
1000
0010
0100
,
0020
0000
0000
0000
,
2030
0000
0000
0000
,
3000
0000
0000
0000
;
