#VERSION:0.83;
#TITLE:恋は渾沌の隷也;
#SUBTITLE:;
#ARTIST:後ろから這いより隊G;
#TITLETRANSLIT:Koi wa chaos no shimobenari;
#SUBTITLETRANSLIT:;
#ARTISTTRANSLIT:Ushirokara Haiyoritai G;
#GENRE:;
#ORIGIN:;
#CREDIT:;
#BANNER:Koi wa chaos no shimobenari.png;
#BACKGROUND:Koi wa chaos no shimobenari-bg.png;
#PREVIEWVID:;
#JACKET:Koi wa chaos no shimobenari-jacket.png;
#CDIMAGE:;
#DISCIMAGE:;
#LYRICSPATH:;
#CDTITLE:cdtitle.png;
#MUSIC:Koi wa chaos no shimobenari.ogg;
#OFFSET:-0.559000;
#SAMPLESTART:67.393997;
#SAMPLELENGTH:15.000000;
#SELECTABLE:YES;
#BPMS:0.000=158.000;
#STOPS:;
#DELAYS:;
#WARPS:;
#TIMESIGNATURES:0.000=4=4;
#TICKCOUNTS:0.000=4;
#COMBOS:0.000=1;
#SPEEDS:0.000=1.000=0.000=0;
#SCROLLS:0.000=1.000;
#FAKES:;
#LABELS:0.000=Song Start;
#BGCHANGES:-1.104=Koi wa chaos no shimobenari.avi=1.000=0=0=0=StretchNoLoop====,
99999=-nosongbg-=1.000=0=0=0 // don't automatically add -songbackground-
;
#KEYSOUNDS:;
#ATTACKS:
;

//---------------dance-single - ----------------
#NOTEDATA:;
#CHARTNAME:;
#STEPSTYPE:dance-single;
#DESCRIPTION:;
#CHARTSTYLE:;
#DIFFICULTY:Beginner;
#METER:3;
#RADARVALUES:0.173220,0.223875,0.000000,0.044497,0.000000,109.000000,109.000000,0.000000,4.000000,0.000000,0.000000,0.000000,0.000000,0.000000,0.173220,0.223875,0.000000,0.044497,0.000000,109.000000,109.000000,0.000000,4.000000,0.000000,0.000000,0.000000,0.000000,0.000000;
#CREDIT:;
#NOTES:
0000
0000
0000
0000
,
0000
0000
0000
0000
,
1000
0000
0010
0000
,
0100
0000
0001
0000
,
0010
0000
0100
0000
,
0010
0010
0010
0000
,
0001
0000
0100
0000
,
0010
0000
1000
0000
,
0001
0000
1000
0000
,
0100
0100
0100
0000
,
1000
0000
1000
0000
,
0001
0000
0000
0000
,
1000
0000
1000
0000
,
0100
0000
0000
0000
,
0001
0000
0001
0000
,
1000
0000
0000
0000
,
0001
0000
0001
0000
,
0100
0000
0000
0000
,
2000
0000
0000
3000
,
1000
0000
1000
0000
,
0002
0000
0000
0003
,
0001
0000
0001
0000
,
0200
0000
0000
0300
,
0100
0000
0100
0000
,
0020
0000
0000
0030
,
0010
0010
0010
0000
,
1000
0000
1000
0000
,
0001
0000
0000
0000
,
1000
0000
1000
0000
,
0010
0000
0000
0000
,
0001
0000
0001
0000
,
1000
0000
0000
0000
,
0001
0000
0001
0000
,
0010
0000
0000
0000
,
1000
0000
1000
0000
,
0010
0000
0010
0000
,
0100
0000
0100
0000
,
0001
0000
0001
0000
,
1000
0000
1000
0000
,
0100
0000
0100
0000
,
0010
0000
0010
0000
,
0001
0000
0001
0000
,
0000
0100
0100
0000
,
0010
0010
0010
0000
,
1000
0000
0100
0000
,
1000
0000
0010
0000
,
0100
0000
0001
0000
,
0010
0000
0001
0001
,
0001
0000
0100
0000
,
0001
0000
0010
0000
,
0100
0000
1000
0000
,
0010
0000
1000
1000
,
0000
0001
0000
0001
,
0000
1000
0000
1000
,
0000
0001
0001
0001
,
0000
1000
1000
1000
,
1000
0000
0001
0000
,
0010
0010
0010
0000
;

//---------------dance-single - ----------------
#NOTEDATA:;
#CHARTNAME:;
#STEPSTYPE:dance-single;
#DESCRIPTION:;
#CHARTSTYLE:;
#DIFFICULTY:Easy;
#METER:6;
#RADARVALUES:0.314656,0.385454,0.088994,0.111242,0.000000,198.000000,190.000000,8.000000,10.000000,0.000000,0.000000,0.000000,0.000000,0.000000,0.314656,0.385454,0.088994,0.111242,0.000000,198.000000,190.000000,8.000000,10.000000,0.000000,0.000000,0.000000,0.000000,0.000000;
#CREDIT:;
#NOTES:
0000
0000
0000
0000
,
0000
0000
0000
0000
,
0001
1000
0001
0100
,
0010
1000
0010
0100
,
0001
0010
0100
1000
,
0010
0010
0010
0000
,
1000
0001
1000
0100
,
0010
0001
0100
0001
,
0010
0000
0010
0000
0010
0000
0000
0100
,
0000
1000
0001
1001
,
1000
0000
1000
0000
,
0001
0100
0001
0000
,
1000
0100
0010
0001
,
0100
0100
0100
0000
,
0001
0000
0001
0000
,
1000
0010
1000
0000
,
0001
0010
0100
1000
,
0010
0010
0010
0000
,
2000
0000
0000
0000
,
3001
0001
0100
0100
,
0002
0000
0000
0000
,
1003
1000
0010
0010
,
0200
0000
0010
0000
,
0301
0001
1000
1000
,
0020
0000
0100
0000
,
1030
1000
0001
1001
,
0100
0000
0100
0000
,
0010
1000
0010
0000
,
0100
0001
0010
0100
,
1000
1000
1000
0000
,
0010
0000
0010
0000
,
0100
0001
0100
0000
,
0010
1000
0100
0010
,
0001
0001
0001
0000
,
1000
0010
0100
0001
,
0010
0100
1000
0010
,
2000
3100
0002
0103
,
0020
0100
0100
0130
,
0001
0010
0100
1000
,
0010
0100
0001
0010
,
0002
0103
2000
3100
,
0010
0010
0020
0000
,
0030
1001
0110
0000
,
1001
0110
1001
0000
,
1000
0100
1000
0010
,
0100
0001
0010
0000
,
0001
0100
0010
1000
,
0100
0010
0100
1000
,
0001
0100
0001
0010
,
0100
1000
0010
0000
,
1000
0100
0010
0001
,
0100
0010
0100
0001
,
0000
0010
1000
0010
,
0001
0100
1000
0100
,
0000
0000
0001
0010
0001
0000
1000
0100
,
1000
0000
0010
0100
0010
0000
1000
0000
,
0100
0000
0100
0000
0100
0000
0000
0010
,
0000
0001
1000
1001
;

//---------------dance-single - ----------------
#NOTEDATA:;
#CHARTNAME:;
#STEPSTYPE:dance-single;
#DESCRIPTION:;
#CHARTSTYLE:;
#DIFFICULTY:Medium;
#METER:10;
#RADARVALUES:0.497411,0.513939,0.155739,0.066745,0.044497,313.000000,299.000000,14.000000,6.000000,0.000000,0.000000,0.000000,0.000000,0.000000,0.497411,0.513939,0.155739,0.066745,0.044497,313.000000,299.000000,14.000000,6.000000,0.000000,0.000000,0.000000,0.000000,0.000000;
#CREDIT:;
#NOTES:
// measure 0
0000
0000
0000
0000
,  // measure 1
0000
0000
0000
0000
,  // measure 2
1000
0100
1000
0000
0010
0100
0001
0000
,  // measure 3
0010
0100
1000
0000
0001
0010
0001
0000
,  // measure 4
1000
0010
0100
0000
0001
0010
0100
0000
,  // measure 5
0010
0000
0000
0000
0000
0010
0000
0000
0000
0000
0010
0000
0000
0000
0000
0100
0000
0000
0010
0000
0000
0000
0000
0000
,  // measure 6
0001
0100
0010
0000
1000
0100
0010
0000
,  // measure 7
0100
1000
0100
0000
0010
0001
0010
0000
,  // measure 8
0100
0000
0000
0000
1000
0000
0000
0000
0010
0000
0000
0010
0000
0000
0100
0000
,  // measure 9
0000
0001
1000
0001
1000
0000
1001
0000
,  // measure 10
0010
0000
0100
0001
0100
0000
0001
0000
,  // measure 11
1000
0100
0010
0100
1000
0000
0010
0000
,  // measure 12
0100
0000
0010
1000
0010
0000
1000
0000
,  // measure 13
0001
0010
0100
0010
0001
0000
1001
0000
,  // measure 14
0010
0000
0100
1000
0100
0000
1000
0000
,  // measure 15
0001
0100
0010
0100
0001
0000
0010
0000
,  // measure 16
0100
0000
0010
0001
0010
0000
0001
0000
,  // measure 17
1000
0010
0100
0010
1000
0000
1001
0000
,  // measure 18
0100
1000
0100
0000
0010
0001
0010
0000
,  // measure 19
0100
1100
0010
0011
,  // measure 20
0001
0010
0001
0000
1000
0100
1000
0000
,  // measure 21
0001
0101
1000
1010
,  // measure 22
0001
0010
0100
0000
1000
0010
0100
0000
,  // measure 23
0001
0011
1000
1010
,  // measure 24
0100
0010
0001
0000
0100
0010
1000
0000
,  // measure 25
0001
0010
0100
1000
0001
0000
1001
0000
,  // measure 26
1000
0000
0001
0010
0001
0000
0100
0000
,  // measure 27
0010
1000
0100
1000
0010
0000
0100
0000
,  // measure 28
0001
0000
0010
0100
0010
0000
0001
0000
,  // measure 29
1000
0010
0100
0001
0010
0000
0110
0000
,  // measure 30
0001
0000
1000
0010
1000
0000
0100
0000
,  // measure 31
0010
0001
0100
0001
0010
0000
0100
0000
,  // measure 32
1000
0000
0010
0100
0010
0000
1000
0000
,  // measure 33
0001
0010
0100
1000
0010
0000
0110
0000
,  // measure 34
1000
0000
0010
0000
0100
0000
0001
0010
,  // measure 35
0000
0001
0100
0001
0000
1000
0010
1000
,  // measure 36
0100
0000
1000
0000
0010
0000
1000
0200
,  // measure 37
0010
0000
1000
0000
0010
0000
1300
0100
,  // measure 38
0010
0000
0001
0000
0100
0000
0001
0010
,  // measure 39
0000
0100
1000
0100
0000
0010
0001
0010
,  // measure 40
0100
0000
1000
0000
0010
0000
0100
0001
,  // measure 41
0000
1000
0010
2000
0000
0000
0000
3000
,  // measure 42
0000
0001
1000
0001
1000
0000
0000
0010
,  // measure 43
0100
0010
0100
0010
0100
0000
1001
0000
,  // measure 44
0001
0000
0000
0000
0100
0000
0000
0000
0010
0000
0000
0010
0000
0000
1000
0000
,  // measure 45
0100
0000
1000
0000
0100
0000
0000
0020
0000
0000
0000
0000
0030
0000
0001
0000
,  // measure 46
0100
0000
0010
0000
1000
0000
0100
1000
,  // measure 47
0000
0001
0010
0002
0000
0000
0003
0000
,  // measure 48
1000
0000
0000
0000
0010
0000
0000
0000
0100
0000
0000
0100
0000
0000
0001
0000
,  // measure 49
0010
0000
0001
0000
0010
0000
0000
0200
0000
0000
0000
0000
0300
0000
1000
0000
,  // measure 50
0010
0000
0100
0000
0001
0000
0010
0001
,  // measure 51
0000
1000
0100
2000
0000
0000
0000
0000
,  // measure 52
3000
0010
1000
0000
0001
0100
0001
0000
,  // measure 53
1000
0010
1000
0000
0100
0010
0100
0010
,  // measure 54
0000
0001
0010
0001
1000
0100
1000
0100
,  // measure 55
0010
0001
0010
0001
1000
0100
1000
0100
,  // measure 56
0010
0000
0000
0000
0001
0000
0000
0000
0100
0000
0000
0100
0000
0000
0010
0000
,  // measure 57
0000
1000
0001
1000
0001
0000
1001
0000
;

//---------------dance-single - ----------------
#NOTEDATA:;
#CHARTNAME:;
#STEPSTYPE:dance-single;
#DESCRIPTION:;
#CHARTSTYLE:;
#DIFFICULTY:Hard;
#METER:13;
#RADARVALUES:0.716717,0.738787,0.255857,0.367099,0.244733,451.000000,428.000000,23.000000,33.000000,0.000000,0.000000,0.000000,0.000000,0.000000,0.716717,0.738787,0.255857,0.367099,0.244733,451.000000,428.000000,23.000000,33.000000,0.000000,0.000000,0.000000,0.000000,0.000000;
#CREDIT:;
#NOTES:
// measure 0
0000
0000
0000
0000
,  // measure 1
0000
0000
0000
0000
,  // measure 2
1000
0100
1000
0000
0010
0000
0100
0000
0001
0010
0001
0010
0000
0000
0100
0000
,  // measure 3
0010
0001
1000
0000
0010
0100
0000
0010
0000
0000
0000
0000
1000
0000
0001
0000
,  // measure 4
0101
0000
0000
0000
1100
0000
0000
0000
1000
0010
0000
1000
0000
0000
0100
0000
,  // measure 5
0020
0000
0000
0000
0000
0032
0000
0000
0000
0000
0203
0000
0000
0000
0000
0310
0000
0000
1000
0000
0000
0000
0000
0000
,  // measure 6
0001
0100
0001
0000
0010
0000
0100
0000
1000
0010
1000
0010
0000
0000
0100
0000
,  // measure 7
0010
1000
0100
0000
0010
0001
0000
0010
0000
0000
0000
0000
0100
0000
1000
0000
,  // measure 8
1001
0000
0000
0000
0101
0000
0000
0000
1000
0100
0000
1000
0000
0000
0020
0000
,  // measure 9
0000
0130
0001
1000
0100
0000
1001
0000
,  // measure 10
1000
0010
0001
0010
0100
1000
0100
0001
,  // measure 11
0010
0000
0100
1000
0100
0000
1000
0000
0010
0000
0001
0000
0010
0000
1000
0000
,  // measure 12
0100
0000
0010
0001
0010
0000
0100
0000
1000
0000
0001
0000
0100
0000
1000
0000
,  // measure 13
0100
0010
1000
0100
0010
0001
1001
0000
,  // measure 14
0001
0010
1000
0010
0100
0001
0100
1000
,  // measure 15
0010
0000
0100
0001
0100
0000
0001
0000
0010
0000
1000
0000
0010
0000
0001
0000
,  // measure 16
0100
0000
0010
1000
0010
0000
0100
0000
0001
0000
1000
0000
0100
0000
0001
0000
,  // measure 17
0100
0010
0001
0100
0010
1000
1001
0000
,  // measure 18
1000
0100
0010
0001
0010
0100
1000
0001
,  // measure 19
0200
1300
0200
0301
0200
1300
0200
0301
,  // measure 20
0001
0100
0010
1000
0010
0100
0001
1000
,  // measure 21
0200
0301
0200
1300
0200
0301
0200
1300
,  // measure 22
0010
0100
0001
1000
0100
0010
0100
1000
,  // measure 23
0002
0103
0002
0013
0002
0103
0002
0013
,  // measure 24
0010
0100
1000
0001
0100
0010
0100
0001
,  // measure 25
2000
3200
0320
0032
2003
3001
1001
0000
,  // measure 26
1000
0100
0010
1000
0010
0100
0001
0100
,  // measure 27
1000
0000
0001
0100
0001
0000
0010
0000
0100
0000
1000
0000
0010
0000
0001
0000
,  // measure 28
0010
0000
1000
0100
1000
0000
0001
0000
0100
0000
0010
0000
1000
0000
0100
0000
,  // measure 29
0010
1000
0010
0001
1000
0010
0110
0000
,  // measure 30
0001
0100
0010
0001
0010
0100
1000
0100
,  // measure 31
0001
0000
1000
0100
1000
0000
0010
0000
0100
0000
0001
0000
0010
0000
1000
0000
,  // measure 32
0010
0000
0001
0100
0001
0000
1000
0000
0100
0000
0010
0000
0001
0000
0100
0000
,  // measure 33
0010
0001
0010
1000
0001
0010
0110
0000
,  // measure 34
1000
0010
0100
0001
0010
0100
1000
0020
,  // measure 35
0000
0000
0130
0000
0001
0000
0020
0000
0000
0000
0130
1000
0100
0000
1000
0000
,  // measure 36
0010
1000
0100
0010
0001
0100
0010
2000
,  // measure 37
0100
0100
0100
0100
0001
0001
0001
3001
,  // measure 38
1000
0010
0001
0010
1000
0100
0001
0200
,  // measure 39
0000
0310
0001
0200
0000
0310
1000
0100
,  // measure 40
0010
0001
0010
0100
1000
0010
0100
0002
,  // measure 41
0000
1003
0010
2000
0010
0010
0010
3010
,  // measure 42
0000
1000
1100
0001
0101
0000
1000
0001
,  // measure 43
0011
1000
1010
0100
0110
0000
1001
0000
,  // measure 44
1010
0000
0000
0000
0011
0000
0000
0000
1000
0010
0000
1000
0000
0000
0100
0000
,  // measure 45
0010
0000
0001
0000
0100
0010
0000
0200
0000
0000
0010
0000
0310
0000
1000
0000
,  // measure 46
0100
1000
0010
0100
0001
0010
0100
0010
,  // measure 47
0000
0000
0001
0000
0100
0000
0002
0000
0100
0000
0000
0100
0000
0000
0103
0000
,  // measure 48
0101
0000
0000
0000
1100
0000
0000
0000
0001
0010
0000
0001
0000
0000
0100
0000
,  // measure 49
0010
0000
1000
0000
0100
0010
0000
0200
0000
0000
0010
0000
0310
0000
0001
0000
,  // measure 50
0100
0001
0010
0100
1000
0010
0100
0010
,  // measure 51
0000
1000
0100
2000
0100
0000
0100
3100
,  // measure 52
0000
0010
1000
0010
0001
0100
1000
0100
,  // measure 53
0001
0010
1000
0010
0001
0100
0010
1000
,  // measure 54
0000
0000
0001
0010
0001
0000
1000
0010
1000
0000
0001
0100
0001
0000
1000
0100
,  // measure 55
1000
0000
0010
1000
0010
0000
0100
0001
0100
0000
0010
0000
1000
0000
0001
0000
,  // measure 56
1001
0000
0000
0000
1010
0000
0000
0000
0001
0010
0000
0001
0000
0000
0200
0000
,  // measure 57
0000
0310
1000
0001
0010
0000
1001
0000
;
