#VERSION:0.83;
#TITLE:Killstealer 2;
#SUBTITLE:;
#ARTIST:Waterflame;
#TITLETRANSLIT:;
#SUBTITLETRANSLIT:;
#ARTISTTRANSLIT:;
#GENRE:;
#ORIGIN:;
#TAGS:;
#CREDIT:;
#BANNER:Killstealer 2.png;
#BACKGROUND:Killstealer 2-bg.png;
#PREVIEWVID:;
#JACKET:Killstealer 2-jacket.png;
#CDIMAGE:;
#DISCIMAGE:;
#LYRICSPATH:;
#CDTITLE:cdtitle.png;
#MUSIC:Killstealer 2.ogg;
#OFFSET:-0.033100;
#SAMPLESTART:54.653999;
#SAMPLELENGTH:15.000000;
#SELECTABLE:YES;
#BPMS:0.000000=72.500000
,34.000000=145.000000
,208.000000=72.500000
,224.000000=145.000000
;
#STOPS:64.000000=0.413793
,207.000000=0.413793
;
#DELAYS:;
#WARPS:;
#TIMESIGNATURES:0.000000=4=4
;
#TICKCOUNTS:0.000000=4
;
#COMBOS:0.000000=1
;
#SPEEDS:0.000000=1.000000=0.000000=0
;
#SCROLLS:0.000000=1.000000
;
#FAKES:;
#LABELS:0.000000=Song Start
;
#BGCHANGES:-0.444=Killstealer 2.mp4=1.000=0=0=0=====,
99999=-nosongbg-=1.000=0=0=0 // don't automatically add -songbackground-
;
#KEYSOUNDS:;
#ATTACKS:
;

//---------------dance-single - ----------------
#NOTEDATA:;
#CHARTNAME:;
#CHARTHASH:3647884967;
#STEPSTYPE:dance-single;
#BANNER:;
#DESCRIPTION:;
#CHARTSTYLE:;
#DIFFICULTY:Beginner;
#METER:4;
#METERF:4.000000;
#LASTSECONDHINT:139.895172;
#RADARVALUES:0.181804,0.267626,0.149721,0.102082,0.003403,187.000000,165.000000,22.000000,15.000000,0.000000,0.000000,0.000000,0.000000,0.000000,0.181804,0.267626,0.149721,0.102082,0.003403,187.000000,165.000000,22.000000,15.000000,0.000000,0.000000,0.000000,0.000000,0.000000;
#CREDIT:Supra G.L.;
#NOTES:
// measure 0
0000
0000
0000
0000
,  // measure 1
0000
0000
0000
0000
,  // measure 2
0000
0000
0000
0000
,  // measure 3
0000
0000
0000
0000
,  // measure 4
0000
0000
1000
1000
,  // measure 5
0001
0001
1000
1000
,  // measure 6
0001
0001
0100
0100
,  // measure 7
0010
0010
0100
0100
,  // measure 8
0010
0010
0010
0000
1001
0000
0000
0000
,  // measure 9
1000
0000
0001
0000
,  // measure 10
0100
0000
1001
0000
,  // measure 11
0001
0000
1000
0000
,  // measure 12
0100
0000
0110
0000
,  // measure 13
0010
0000
0001
0000
,  // measure 14
1000
0000
0010
0000
,  // measure 15
0100
0000
0010
0010
,  // measure 16
0000
1000
0000
0100
,  // measure 17
0000
1000
0000
0001
,  // measure 18
0000
0010
0000
0001
,  // measure 19
0000
0100
0000
0010
,  // measure 20
0000
1000
0000
0001
,  // measure 21
0000
0100
0000
0001
,  // measure 22
0000
0010
0000
0100
,  // measure 23
0000
1000
0000
0010
,  // measure 24
0000
2000
3000
0002
,  // measure 25
0003
0010
0100
0010
,  // measure 26
0000
0002
0003
2000
,  // measure 27
3000
0010
0100
0010
,  // measure 28
0000
0200
0300
0020
,  // measure 29
0030
1000
0001
1000
,  // measure 30
0000
1001
0000
1001
,  // measure 31
0000
0110
0000
0110
,  // measure 32
0000
0002
0003
0020
,  // measure 33
0030
0100
1000
0100
,  // measure 34
0000
2000
3000
0020
,  // measure 35
0030
0100
0001
0100
,  // measure 36
0000
0020
0030
2000
,  // measure 37
3000
0001
0010
0001
,  // measure 38
0000
1001
0000
1001
,  // measure 39
0000
0110
0000
0110
,  // measure 40
0000
1000
0000
0001
,  // measure 41
0100
0001
0000
0010
,  // measure 42
0001
0010
0000
0100
,  // measure 43
1000
0100
0000
1000
,  // measure 44
1000
0001
0000
1000
,  // measure 45
0100
1000
0000
0010
,  // measure 46
1000
0010
0000
0100
,  // measure 47
0001
0100
0000
0001
,  // measure 48
0001
1000
0000
1000
,  // measure 49
0000
0001
0000
0001
,  // measure 50
0000
0010
0000
0100
,  // measure 51
0000
0000
0000
0000
0000
0000
0000
0000
0000
0000
0000
0000
0000
0000
0000
0000
0000
0000
0000
0000
0000
0000
0000
0000
0000
0000
0000
0000
0000
0000
0000
0000
0000
0000
0000
0000
0000
0000
0000
0000
0000
0000
0000
0000
0000
0000
0000
0000
0010
0000
0000
0000
0000
0000
0000
0000
0000
0000
0000
0000
0000
0000
0000
0000
0000
0000
0000
0000
0000
0000
0000
0000
0000
0000
0000
0000
0000
0000
0000
0000
0000
0000
0000
0000
0000
0000
0000
0000
0000
0000
0000
0000
0000
0000
0000
0000
0010
0000
0000
0000
0000
0000
0000
0000
0000
0000
0000
0000
0000
0000
0000
0000
0000
0000
0000
0000
0000
0000
0000
0000
0000
0000
0000
0000
0000
0000
0000
0000
0000
0000
0000
0000
0000
0000
0000
0000
0000
0000
0000
0000
0000
0000
0000
0000
0020
0030
0000
0000
0000
0000
0000
0000
0000
0000
0000
0000
0000
0000
0000
0000
0000
0000
0000
0000
0000
0000
0000
0000
0000
0000
0000
0000
0000
0000
0000
0000
0000
0000
0000
0000
0000
0000
0000
0000
0000
0000
0000
0000
0000
0000
0000
0000
,  // measure 52
1001
0000
1001
0000
,  // measure 53
0001
1000
0001
1000
,  // measure 54
0110
0000
0110
0000
,  // measure 55
0010
0100
0010
0100
,  // measure 56
0001
0000
0010
0000
,  // measure 57
1000
0000
0010
0000
,  // measure 58
0001
0000
0100
0000
,  // measure 59
1000
0000
0100
0000
,  // measure 60
0001
0001
0000
0001
,  // measure 61
1000
1000
0000
1000
,  // measure 62
0100
0100
0000
0100
,  // measure 63
0010
0010
0000
0010
,  // measure 64
0001
0000
1001
0000
,  // measure 65
1000
0000
1001
0000
,  // measure 66
0010
0000
0110
0000
,  // measure 67
0100
0000
0110
0000
,  // measure 68
0001
0000
1000
0000
,  // measure 69
1001
0000
0110
0000
,  // measure 70
2002
0000
0000
0000
,  // measure 71
0000
0000
3003
0000
;

//---------------dance-single - ----------------
#NOTEDATA:;
#CHARTNAME:;
#CHARTHASH:1243927494;
#STEPSTYPE:dance-single;
#BANNER:;
#DESCRIPTION:;
#CHARTSTYLE:;
#DIFFICULTY:Easy;
#METER:8;
#METERF:8.000000;
#LASTSECONDHINT:139.895172;
#RADARVALUES:0.337358,0.462263,0.299442,0.197359,0.064652,347.000000,303.000000,44.000000,29.000000,0.000000,0.000000,0.000000,0.000000,0.000000,0.337358,0.462263,0.299442,0.197359,0.064652,347.000000,303.000000,44.000000,29.000000,0.000000,0.000000,0.000000,0.000000,0.000000;
#CREDIT:Supra G.L.;
#NOTES:
// measure 0
0000
0000
0000
0000
,  // measure 1
0000
0000
0000
0000
,  // measure 2
0000
0000
0000
0000
,  // measure 3
0000
0000
0000
0000
,  // measure 4
0000
0000
0000
0000
1000
0000
1100
0100
,  // measure 5
0010
0000
0011
0001
0100
0000
0101
0001
,  // measure 6
1000
0000
1001
0110
0001
0000
1001
1000
,  // measure 7
0010
0000
0110
0100
0001
0000
0011
0010
,  // measure 8
0100
0100
0100
0110
1001
0000
0000
0000
,  // measure 9
0101
0000
1010
0000
,  // measure 10
0110
0000
0000
0001
1000
0000
0000
0000
,  // measure 11
1100
0000
0011
0000
,  // measure 12
1001
0000
0000
0100
0010
0000
0000
0000
,  // measure 13
0110
0000
1010
0000
,  // measure 14
0101
0000
0000
0001
1000
0000
0100
0000
,  // measure 15
0010
0000
0001
0000
1000
0001
1000
0001
,  // measure 16
0000
1000
0010
0001
,  // measure 17
0010
1000
0100
0001
,  // measure 18
0100
2000
3010
0200
,  // measure 19
0301
0020
0130
2000
,  // measure 20
3001
1000
0001
0000
0010
0000
1000
0000
,  // measure 21
0010
0001
0100
1000
,  // measure 22
0100
0002
0013
0200
,  // measure 23
1300
0020
0130
0002
,  // measure 24
1003
0001
1000
0000
0020
0000
2030
0000
,  // measure 25
3000
0000
0000
0000
0001
0000
0000
0100
0000
0000
0001
0000
0200
0000
0000
0000
,  // measure 26
0300
0001
0020
0230
,  // measure 27
0300
0000
0000
0000
1000
0000
0000
0001
0000
0000
1000
0000
0002
0000
0000
0000
,  // measure 28
0103
0100
0010
0000
2000
0000
3200
0000
,  // measure 29
0300
0000
0000
0000
0010
0000
0000
0001
0000
0000
0010
0000
0002
0000
0000
0000
,  // measure 30
0003
0101
1000
1010
,  // measure 31
0010
0110
1000
1001
,  // measure 32
0001
0001
1000
0000
0200
0000
0320
0000
,  // measure 33
0030
0000
0001
0000
0001
0000
0000
0010
0000
0000
0001
0000
2000
0000
0000
0000
,  // measure 34
3000
0010
0200
0302
,  // measure 35
0003
0000
1000
0000
1000
0000
0000
0100
0000
0000
1000
0000
0020
0000
0000
0000
,  // measure 36
0130
0100
0010
0000
2000
0000
3002
0000
,  // measure 37
0003
0000
0100
0000
0100
0000
0000
0010
0000
0000
0100
0000
0002
0000
0000
0000
,  // measure 38
0003
0011
1000
1100
,  // measure 39
0100
0000
0000
0000
0110
0000
0000
0000
1000
0000
0000
0000
0001
0000
0000
0001
,  // measure 40
0000
0001
1000
0000
0001
0000
0100
0010
,  // measure 41
0100
0000
0001
0000
1000
0000
0100
0010
,  // measure 42
0100
0000
0010
0000
0100
0000
1000
0001
,  // measure 43
1000
0000
0010
0000
0100
0000
0001
1000
,  // measure 44
0001
0000
1000
0000
0100
0000
0010
0001
,  // measure 45
0010
0000
0001
0000
0100
0000
0010
1000
,  // measure 46
0010
0000
0100
0000
0001
0000
1000
0100
,  // measure 47
0010
0000
0100
0000
1000
0000
0010
0100
,  // measure 48
0010
0100
0001
0000
0010
0000
0100
0000
,  // measure 49
1000
0001
0100
0010
,  // measure 50
1000
0000
0100
1000
0100
0000
0010
0001
,  // measure 51
0010
0000
0000
0000
0000
0000
0000
0000
0000
0000
0000
0000
0000
0000
0000
0000
0000
0000
0000
0000
0000
0000
0000
0000
0000
0000
0000
0000
0000
0000
0000
0000
0000
0000
0000
0000
0000
0000
0000
0000
0000
0000
0000
0000
0000
0000
0000
0000
0001
0000
0000
0000
0000
0000
0000
0000
0000
0000
0000
0000
0000
0000
0000
0000
0000
0000
0000
0000
0000
0000
0000
0000
1000
0000
0000
0000
0000
0000
0000
0000
0000
0000
0000
0000
0000
0000
0000
0000
0000
0000
0000
0000
0000
0000
0000
0000
0001
0000
0000
0000
0000
0000
0000
0000
0000
0000
0000
0000
0000
0000
0000
0000
0000
0000
0000
0000
0000
0000
0000
0000
1000
0000
0000
0000
0000
0000
0000
0000
0000
0000
0000
0000
0000
0000
0000
0000
0000
0000
0000
0000
0000
0000
0000
0000
0002
0003
0000
0000
0000
0000
0000
0000
0000
0000
0000
0000
0000
0000
0000
0000
0000
0000
0000
0000
0000
0000
0000
0000
0000
0000
0000
0000
0000
0000
0000
0000
0000
0000
0000
0000
0000
0000
0000
0000
0000
0000
0000
0000
0000
0000
0000
0000
,  // measure 52
1000
1010
0000
0101
0000
0011
0000
1100
,  // measure 53
0000
1000
0001
0000
0000
0100
0010
0000
0100
0000
0001
0000
0010
0000
0100
0000
,  // measure 54
1000
0001
0000
0000
0001
0100
0000
0000
0100
0010
0000
0010
0100
0000
0000
0000
,  // measure 55
0001
0001
1000
1000
1100
0000
0011
0000
,  // measure 56
1001
1000
0010
0001
,  // measure 57
0010
1000
0001
0100
,  // measure 58
1000
0100
0001
1000
,  // measure 59
0100
0001
0100
1000
,  // measure 60
0001
0010
0001
0000
0100
0001
0100
0000
,  // measure 61
0010
1000
0010
0000
1000
0100
1000
0000
,  // measure 62
0001
0100
0010
0000
1000
0100
0010
0000
,  // measure 63
0100
0000
1000
0000
0001
0000
0000
0000
0100
0000
0000
0100
0000
0000
0100
0000
,  // measure 64
0001
0011
1000
1100
,  // measure 65
0010
1010
0100
0101
,  // measure 66
0010
0110
1000
1001
,  // measure 67
0001
0011
1100
1000
,  // measure 68
0101
0001
1010
1000
,  // measure 69
0001
0000
0010
0000
0010
0000
0100
0000
1000
0000
1000
0000
,  // measure 70
2002
0000
0000
0000
,  // measure 71
0000
0000
3003
0000
;

//---------------dance-single - ----------------
#NOTEDATA:;
#CHARTNAME:;
#CHARTHASH:1786357246;
#STEPSTYPE:dance-single;
#BANNER:;
#DESCRIPTION:;
#CHARTSTYLE:;
#DIFFICULTY:Medium;
#METER:13;
#METERF:13.000000;
#LASTSECONDHINT:139.895172;
#RADARVALUES:0.512357,0.681230,0.326664,0.142915,0.442357,527.000000,479.000000,48.000000,21.000000,0.000000,0.000000,0.000000,0.000000,0.000000,0.512357,0.681230,0.326664,0.142915,0.442357,527.000000,479.000000,48.000000,21.000000,0.000000,0.000000,0.000000,0.000000,0.000000;
#CREDIT:Supra G.L.;
#NOTES:
// measure 0
0000
0000
0000
0000
,  // measure 1
0000
0000
0000
0000
,  // measure 2
0000
0000
0000
0000
,  // measure 3
0000
0000
0000
0000
,  // measure 4
0000
0000
0000
0000
0000
0000
0000
0000
1000
0000
0100
0000
1100
0000
0001
1000
,  // measure 5
0001
0000
0100
0000
0101
0000
1000
0001
0010
0000
0100
0000
0110
0000
0001
1000
,  // measure 6
0010
0000
0100
0000
0110
0000
1001
0000
1000
0000
0100
0000
0011
0000
1000
0100
,  // measure 7
0010
0000
0001
0000
0101
0000
0010
1000
0001
0000
0100
0000
1010
0000
0001
0100
,  // measure 8
0010
0000
0000
0000
0010
0000
0000
0000
0100
0000
0000
0001
1000
0000
0000
0000
1001
0000
0000
0000
0000
0000
0001
0000
0000
0000
0010
0000
0000
0000
0001
0000
,  // measure 9
0010
0000
0000
0100
0000
1000
0000
0100
1000
0000
0000
0010
0000
0100
0000
0010
,  // measure 10
0100
0000
0000
0001
0000
0100
0001
0000
0101
0000
0000
0100
0000
0001
0000
0010
,  // measure 11
0001
0000
0000
1000
0000
0100
0000
1000
0010
0000
0000
0100
0000
0001
0000
0100
,  // measure 12
0010
0000
0000
1000
0000
0100
0010
0000
0110
0000
0000
0100
0000
1000
0000
0001
,  // measure 13
1000
0000
0000
0010
0000
0100
0000
0010
1000
0000
0000
0001
0000
0010
0000
0100
,  // measure 14
1000
0000
0000
0010
0000
0100
0001
0000
1000
0000
0100
0000
1000
0000
0100
0000
,  // measure 15
0010
0000
0001
0000
0010
0000
0001
0000
1000
0001
1000
0001
1000
0001
1000
0001
,  // measure 16
0000
0000
0000
0000
1000
0000
0000
0010
0000
0000
1000
0000
0001
0000
0000
0100
,  // measure 17
0000
0000
0001
0000
1000
0000
0000
0001
0000
0000
1000
0000
0100
0000
0000
0010
,  // measure 18
0000
0000
0100
0000
1000
0000
0000
0001
0000
0000
0010
0000
0001
0000
0000
1000
,  // measure 19
0000
0000
0100
0000
1000
0000
0000
0010
0000
0000
0100
0000
0010
0000
0000
1000
,  // measure 20
0000
0000
0001
0000
0001
0000
0000
0010
0000
0000
0100
0000
1000
0000
0000
0010
,  // measure 21
0000
0000
0100
0000
0010
0000
0000
1000
0000
0000
0001
0000
0010
0000
0000
0001
,  // measure 22
0000
0000
1000
0000
0001
0000
0000
0100
0000
0000
0010
0000
0001
0000
0000
0010
,  // measure 23
0000
0000
1000
0000
0100
0000
0000
0010
0000
0000
1000
0000
0010
0000
0000
0001
,  // measure 24
0000
1000
1000
0000
0020
0000
0230
0000
,  // measure 25
0310
0000
1000
0000
0001
0000
0000
0010
0000
0000
0001
0000
2000
0000
0000
0000
,  // measure 26
3100
0010
0002
2003
,  // measure 27
3001
0000
0100
0010
0100
0000
0000
0001
0000
0000
1000
0000
0200
0000
0000
0000
,  // measure 28
0310
0010
0001
0000
2000
0000
3020
0000
,  // measure 29
0130
0000
0001
0000
1000
0000
0000
0100
0000
0000
0010
0000
0002
0000
0000
0000
,  // measure 30
0103
0000
0101
0000
1000
0100
1100
0000
,  // measure 31
0001
0010
0011
0000
1000
0010
1010
0000
,  // measure 32
0001
0001
1000
0000
0200
1000
2300
0000
,  // measure 33
3010
0000
0100
0000
0001
0000
0000
0010
0001
0000
1000
0000
0020
0000
0000
0000
,  // measure 34
0130
0001
1000
0000
0002
0010
0023
0000
,  // measure 35
0130
0000
1000
0001
1000
0000
0000
0010
0100
0000
0001
0000
2000
0000
0000
0000
,  // measure 36
3100
0100
0010
0000
0002
0100
0203
0000
,  // measure 37
0310
0000
1000
0000
0100
0000
0000
0010
0100
0000
1000
0000
0002
0000
0000
0000
,  // measure 38
0103
0010
1010
0000
0010
0100
0101
0000
,  // measure 39
0001
0000
1000
0000
1100
0000
0000
0000
1000
0000
0001
0000
0011
0000
0000
1000
,  // measure 40
0000
0000
0001
0000
1001
0000
0000
0000
1000
0000
0001
0000
0100
0010
0000
0100
,  // measure 41
0010
0000
1000
0000
1001
0000
0000
0000
0001
0000
1000
0000
0100
0010
0000
0100
,  // measure 42
0010
0000
0001
0000
1001
0000
0000
0000
1000
0000
0001
0000
0010
0100
0000
0010
,  // measure 43
0100
0000
1000
0000
1001
0000
0000
0000
0001
0000
1000
0000
0010
0100
0000
0010
,  // measure 44
0100
0000
0001
0000
0011
0000
0000
0000
0010
0000
0100
0000
1000
0010
0000
0100
,  // measure 45
0001
0000
1000
0000
1010
0000
0000
0000
0010
0000
0100
0000
0001
0010
0000
0100
,  // measure 46
1000
0000
0001
0000
0101
0000
0000
0000
0100
0000
0010
0000
1000
0100
0000
0010
,  // measure 47
0001
0000
1000
0000
1100
0000
0000
0000
0100
0000
0010
0000
0001
0100
0001
0000
,  // measure 48
1000
0010
1000
0000
0001
0000
0010
0000
0001
0000
0000
0000
1000
0000
0100
0000
,  // measure 49
1000
0000
0010
1000
0010
0000
0100
0001
,  // measure 50
0100
0000
0001
0010
0100
0001
1000
0100
,  // measure 51
0010
0000
0000
0000
0000
0000
0000
0000
0000
0000
0000
0000
0000
0000
0000
0000
0000
0000
0000
0000
0000
0000
0000
0000
1000
0000
0000
0000
0000
0000
0000
0000
0000
0000
0000
0000
0000
0000
0000
0000
0000
0000
0000
0000
0000
0000
0000
0000
0001
0000
0000
0000
0000
0000
0000
0000
0000
0000
0000
0000
0010
0000
0000
0000
0000
0000
0000
0000
0000
0000
0000
0000
0001
0000
0000
0000
0000
0000
0000
0000
0000
0000
0000
0000
0010
0000
0000
0000
0000
0000
0000
0000
0000
0000
0000
0000
0100
0000
0000
0000
0000
0000
0000
0000
0000
0000
0000
0000
1000
0000
0000
0000
0000
0000
0000
0000
0000
0000
0000
0000
0100
0000
0000
0000
0000
0000
0000
0000
0000
0000
0000
0000
1000
0000
0000
0000
0000
0000
0000
0000
0000
0000
0000
0000
0002
0003
0000
0000
0000
0000
0000
0000
0000
0000
0000
0000
0000
0000
0000
0000
0000
0000
0000
0000
0000
0000
0000
0000
0000
0000
0000
0000
0000
0000
0000
0000
0000
0000
0000
0000
0000
0000
0000
0000
0000
0000
0000
0000
0000
0000
0000
0000
,  // measure 52
1000
0000
0000
1010
0000
0000
0001
0000
0000
0101
0000
0000
1000
0000
0100
0000
0010
0000
0001
0000
0000
0110
0000
0000
,  // measure 53
1000
0010
0100
0000
0001
0010
0100
0000
0010
0001
0100
0010
1000
0000
0100
1000
,  // measure 54
0001
0000
0000
0000
0100
0000
0000
0000
0010
0000
0000
0000
1000
0000
0000
0100
0000
0000
0000
0000
0000
1000
0000
0000
0010
0000
0000
0100
0000
0000
0000
0000
0000
0001
0000
0000
0010
0000
0000
0000
0000
0000
0001
0000
0000
0000
0000
0000
,  // measure 55
1000
0010
1000
0010
0100
0001
0100
0001
0011
0000
1000
0000
1100
0000
0001
0000
,  // measure 56
1001
0000
1000
0010
0001
0000
0010
0100
,  // measure 57
0001
0000
0010
1000
0001
0000
0100
0010
,  // measure 58
0001
0000
1000
0010
0100
0000
1000
0001
,  // measure 59
0010
0000
0000
0000
0100
0000
0001
0000
1000
0000
0000
0100
0010
0000
0000
0001
,  // measure 60
1000
0010
0000
1000
0000
0000
1000
0000
0001
0100
0000
0001
0000
0000
0001
0000
,  // measure 61
0010
0001
0000
0010
0000
0000
0010
0000
0100
1000
0000
0100
0000
0000
0100
0000
,  // measure 62
1000
0010
0000
0100
0000
0000
0100
0000
0001
0010
0000
0100
0000
0000
0100
0000
,  // measure 63
0010
0001
0000
1000
0000
1000
0001
0000
0100
0000
0000
0010
0000
0000
1000
0000
,  // measure 64
1100
0000
0011
0000
0110
0000
0010
0001
,  // measure 65
0101
0000
1010
0000
1001
0000
0001
0010
,  // measure 66
0110
0000
1100
0000
0011
0000
1000
0001
,  // measure 67
0101
0000
0000
0000
0100
0000
0010
0000
0100
0000
0000
0001
0000
0000
1000
0000
,  // measure 68
1010
0010
0100
0001
0011
0010
0100
1000
,  // measure 69
1001
0000
0001
0000
0100
0000
0110
0000
0010
0000
1000
0000
,  // measure 70
2002
0000
0000
0000
,  // measure 71
0000
0000
3003
0000
;

//---------------dance-single - ----------------
#NOTEDATA:;
#CHARTNAME:;
#CHARTHASH:1353363743;
#STEPSTYPE:dance-single;
#BANNER:;
#DESCRIPTION:;
#CHARTSTYLE:;
#DIFFICULTY:Hard;
#METER:15;
#METERF:15.000000;
#LASTSECONDHINT:139.895172;
#RADARVALUES:0.695133,1.119164,0.496801,0.333469,0.864298,715.000000,642.000000,73.000000,49.000000,0.000000,0.000000,0.000000,0.000000,0.000000,0.695133,1.119164,0.496801,0.333469,0.864298,715.000000,642.000000,73.000000,49.000000,0.000000,0.000000,0.000000,0.000000,0.000000;
#CREDIT:Supra G.L.;
#NOTES:
// measure 0
0000
0000
0000
0000
,  // measure 1
0000
0000
0000
0000
,  // measure 2
0000
0000
0000
0000
,  // measure 3
0000
0000
0000
0000
,  // measure 4
0000
0000
0000
0000
0000
0000
0000
0000
1000
0100
1000
0100
0110
0000
1000
0001
,  // measure 5
0100
0010
0100
0010
1010
1000
0100
0010
0001
0100
0001
0100
0110
0000
0001
1000
,  // measure 6
0100
0010
0100
0010
0011
0001
0011
0010
0001
0100
0010
0100
1010
0000
0001
0100
,  // measure 7
0010
1000
0100
0010
1100
0100
0010
0001
1000
0100
0010
0100
0011
0000
1000
0100
,  // measure 8
0010
0000
0000
0000
0010
0000
0000
0000
0100
0000
0000
1000
0001
0000
1000
0000
1001
0000
0000
0000
0000
0000
0001
0000
0000
0000
0100
0000
0000
0000
0001
0000
,  // measure 9
0101
0000
0000
1000
0000
0010
0000
1000
1010
0000
0000
0010
0000
0100
0000
0010
,  // measure 10
0110
0000
0000
0100
0000
0001
0101
0000
1010
0000
0000
1000
0000
0010
0000
1000
,  // measure 11
1100
0000
0000
0001
0000
0100
0000
0001
0011
0000
0000
1000
0000
0001
0000
0100
,  // measure 12
0110
0000
0000
0001
0000
1000
1100
0000
0011
0000
0000
0001
0000
0100
0001
0100
,  // measure 13
0010
0000
0000
1000
0000
0100
1000
0100
0010
0000
0000
0001
0000
1000
0010
0100
,  // measure 14
0010
0000
0000
1000
0000
0001
0010
0100
0010
0001
0010
0001
1000
0001
1000
0001
,  // measure 15
1000
0010
1000
0010
0100
0010
0100
0010
0100
0001
0010
0100
1000
0100
0010
0001
,  // measure 16
0000
0000
0000
0000
1000
0000
0000
0010
1000
0000
0001
0000
0100
0000
0000
0001
,  // measure 17
0100
0000
0010
0000
1000
0000
0000
0001
1000
0000
0100
0000
0010
0000
0000
0100
,  // measure 18
0010
0000
0001
0000
0100
0000
0000
0010
0001
0000
0010
0000
1000
0000
0000
0001
,  // measure 19
0010
0000
0100
0000
1000
0000
0000
0010
0100
0000
1000
0000
0100
0000
0000
0001
,  // measure 20
1000
0000
0100
0010
0100
0000
0000
0100
1000
0000
0001
0000
0010
0000
0000
0010
,  // measure 21
0001
0000
1000
0000
0001
0000
0000
0001
0100
0000
0010
0000
1000
0000
0000
1000
,  // measure 22
0010
0000
0100
0000
0010
0000
0000
0010
0100
0000
1000
0000
0100
0000
0000
0100
,  // measure 23
0010
0000
0001
0000
0010
0000
0000
0010
1000
0000
0001
0000
0100
0000
0000
0100
,  // measure 24
0010
0000
1000
0001
1000
0000
0000
0100
2000
0000
0010
0000
3002
0000
0000
0000
,  // measure 25
0103
0000
0020
0000
2030
0000
0000
3200
0010
0000
2300
0000
3002
0000
0000
0000
,  // measure 26
1003
0000
0010
0000
0100
0000
0000
0001
0200
0000
1000
0000
0320
0000
0000
0000
,  // measure 27
1030
0000
0100
0010
0200
0000
0000
2300
0010
0000
3002
0000
0023
0000
0030
0000
,  // measure 28
0110
0000
0110
0000
0100
0000
0000
1000
0200
0000
0001
0000
0320
0000
0000
0000
,  // measure 29
0031
0000
0200
0000
0320
0000
0000
2030
0001
0000
3020
0000
0230
0000
0000
0000
,  // measure 30
0301
0000
1000
0000
1100
0000
0000
0100
1000
0000
0001
0000
0101
0000
0000
0100
,  // measure 31
0010
0000
1000
0000
1010
0000
0000
0010
0100
0000
0001
0000
0011
0000
0000
0010
,  // measure 32
0001
0000
1000
0001
1000
0000
0000
0010
0200
0000
0001
0000
0320
0000
0000
1030
,  // measure 33
0001
0000
0020
0000
0230
0000
0000
2300
0001
0000
3020
0000
0230
0000
0000
0301
,  // measure 34
1000
0000
0100
0000
0010
0000
0000
0001
2000
0000
0100
0000
3002
0000
0000
0013
,  // measure 35
0100
0000
1000
0001
0200
0000
0000
0320
0001
0000
0230
0000
0302
0000
0003
0000
,  // measure 36
1001
0000
1001
0000
1000
0000
0000
0001
0020
0000
0100
0000
0032
0000
0000
1003
,  // measure 37
0010
0000
0200
0000
2300
0000
0000
3200
0010
0000
0302
0000
2003
0000
0000
3001
,  // measure 38
0010
0000
0100
0000
1100
0000
0000
1000
0010
0000
0100
0000
0101
0000
0000
0001
,  // measure 39
0100
0000
0010
0000
1010
0000
0000
1000
0100
0000
0010
0000
0011
0000
0000
0110
,  // measure 40
0000
0000
1000
0000
1001
0000
0000
0001
0100
0000
0100
0000
0001
0010
0000
0010
,  // measure 41
0001
0000
0001
0000
1001
0000
0000
1000
0100
0000
0100
1000
0010
1000
0000
1000
,  // measure 42
0010
0000
0010
0000
0110
0000
0000
0100
0001
0000
0001
0000
0010
0001
0000
0001
,  // measure 43
0010
0000
0010
0000
0110
0000
0000
0100
1000
0000
1000
0100
1000
0010
0000
0010
,  // measure 44
1000
0000
1000
0000
1010
0000
0000
0010
1000
0000
0010
0000
0100
0001
0000
0001
,  // measure 45
0010
0000
0001
0000
0101
0000
0000
0100
0001
0000
0100
0010
1000
0100
0000
0100
,  // measure 46
1000
0000
0001
0000
0011
0000
0000
0010
0100
0000
0010
0000
0001
0100
0000
0100
,  // measure 47
0010
0000
1000
0000
1100
0000
0000
0100
0010
0000
0100
1000
0010
0100
0001
0100
,  // measure 48
0010
1000
0100
0010
0001
0000
0001
0000
0100
0000
0100
0000
0010
0000
0010
0000
,  // measure 49
1000
1000
0100
0100
0010
0010
0001
0001
,  // measure 50
1000
0000
1000
0000
0001
0100
0001
0100
0010
0100
0010
0100
0010
1000
0010
1000
,  // measure 51
0001
0000
0000
0000
0000
0000
0000
0000
0000
0000
0000
0000
1000
0000
0000
0000
0000
0000
0000
0000
0000
0000
0000
0000
0001
0000
0000
0000
0000
0000
0000
0000
0000
0000
0000
0000
1000
0000
0000
0000
0000
0000
0000
0000
0000
0000
0000
0000
0001
0000
0000
0000
0000
0000
0000
0000
0000
0000
0000
0000
0010
0000
0000
0000
0000
0000
0000
0000
0000
0000
0000
0000
0100
0000
0000
0000
0000
0000
0000
0000
0000
0000
0000
0000
1000
0000
0000
0000
0000
0000
0000
0000
0000
0000
0000
0000
0001
0000
0000
0000
0000
0000
0000
0000
0000
0000
0000
0000
0100
0000
0000
0000
0000
0000
0000
0000
0000
0000
0000
0000
0010
0000
0000
0000
0000
0000
0000
0000
0000
0000
0000
0000
1000
0000
0000
0000
0000
0000
0000
0000
0000
0000
0000
0000
0002
0003
0000
0000
0000
0000
0000
0000
0000
0000
0000
0000
0000
0000
0000
0000
0000
0000
0000
0000
0000
0000
0000
0000
0000
0000
0000
0000
0000
0000
0000
0000
0000
0000
0000
0000
0000
0000
0000
0000
0000
0000
0000
0000
0000
0000
0000
0000
,  // measure 52
1000
0000
0000
0000
0000
0000
0000
0000
0000
0000
0000
0000
0000
0000
0000
0000
0000
0000
1000
0000
0000
0000
0000
0000
0100
0000
0000
0000
0000
0000
0000
0000
0000
0000
0000
0000
0001
0000
0000
0000
0000
0000
0000
0000
0000
0000
0000
0000
0100
0000
0000
0000
0000
0000
0000
0000
0000
0000
0000
0000
0010
0000
0000
0000
0000
0000
0000
0000
0000
0000
0000
0000
0110
0000
0000
0000
0000
0000
0000
0000
0000
0000
0000
0000
0100
0000
0000
0000
0000
0000
0000
0000
0000
0000
0000
0000
1100
0000
0000
0000
0000
0000
0000
0000
0000
0000
0000
0000
0000
0000
0000
0000
0011
0000
0000
0000
0000
0000
0000
0000
0000
0000
0000
0000
0000
0000
0000
0000
0101
0000
0000
0000
0000
0000
0000
0000
0000
0000
0000
0000
0000
0000
0000
0000
1010
0000
0000
0000
0000
0000
0000
0000
0000
0000
0000
0000
0000
0000
0000
0000
0000
0000
0000
0000
0000
0000
0000
0000
1001
0000
0000
0000
0000
0000
0000
0000
0000
0000
0000
0000
0000
0000
0000
0000
0000
0000
0000
0000
0000
0000
0000
0000
,  // measure 53
0001
0000
0000
0001
0100
0000
1000
0000
0100
0000
0010
0000
0110
0000
0100
0000
0001
0000
0010
0000
1000
0000
0010
0000
0001
0000
0000
0000
0100
0010
0000
0100
,  // measure 54
0001
0000
0000
0000
0000
0000
0000
0000
0000
0000
0000
0000
0000
0000
0000
0000
0011
0000
0000
0000
0000
0000
0000
0000
0000
0000
0000
0000
0000
0000
0000
0000
1100
0000
0000
0000
0000
0000
0000
0000
0000
0000
0000
0000
0000
0000
0000
0000
1001
0000
0000
0000
0000
0000
0000
0000
0000
0000
0000
0000
0101
0000
0000
0000
0000
0000
0000
0000
0000
0000
0000
0000
0100
0000
0000
0000
0000
0000
0000
0000
0000
0000
0000
0000
0000
0000
0000
0000
0000
0000
0000
0000
0000
0000
0000
0000
0010
0000
0000
0000
0000
0000
0000
0000
0000
0000
0000
0000
1010
0000
0000
0000
0000
0000
0000
0000
0000
0000
0000
0000
1000
0000
0000
0000
0000
0000
0000
0000
0000
0000
0000
0000
0100
0000
0000
0000
0000
0000
0010
0000
0000
0000
0000
0000
0001
0000
0000
0000
0000
0000
0000
0000
0000
0000
0000
0000
0000
0000
0000
0000
0000
0000
0000
0000
0000
0000
0000
0000
0010
0000
0000
0000
0000
0000
0000
0000
0000
0000
0000
0000
0100
0000
0000
0000
0000
0000
0000
0000
0000
0000
0000
0000
,  // measure 55
1000
0010
1000
0010
1000
0010
1000
0010
0100
0001
0100
0001
0100
0001
0100
0001
1000
0000
0010
0000
0001
0000
0010
0000
1010
0000
0000
0000
0101
0000
0000
0000
,  // measure 56
1001
0000
0000
0001
0010
0000
0100
0000
1000
0000
0000
1000
0010
0000
0100
0000
,  // measure 57
0001
0000
0000
0001
0100
0000
0010
0000
1000
0000
0000
1000
0100
0000
0010
0000
,  // measure 58
0001
0000
0000
0000
0000
0000
0000
0000
0000
0000
0000
0000
0000
0000
0000
0000
0000
0000
0000
0000
0000
0000
0000
0000
0000
0000
0000
0000
0000
0000
0000
0000
0000
0000
0000
0000
0001
0000
0000
0000
0000
0000
0000
0000
0000
0000
0000
0000
0020
0030
0000
0000
0000
0000
0000
0000
0000
0000
0000
0000
0000
0000
0000
0000
0000
0000
0000
0000
0000
0000
0000
0000
0020
0030
0000
0000
0000
0000
0000
0000
0000
0000
0000
0000
0000
0000
0000
0000
0000
0000
0000
0000
0000
0000
0000
0000
1000
0000
0000
0000
0000
0000
0000
0000
0000
0000
0000
0000
0000
0000
0000
0000
0000
0000
0000
0000
0000
0000
0000
0000
0000
0000
0000
0000
0000
0000
0000
0000
0000
0000
0000
0000
1000
0000
0000
0000
0000
0000
0000
0000
0000
0000
0000
0000
0200
0300
0000
0000
0000
0000
0000
0000
0000
0000
0000
0000
0000
0000
0000
0000
0000
0000
0000
0000
0000
0000
0000
0000
0200
0300
0000
0000
0000
0000
0000
0000
0000
0000
0000
0000
0000
0000
0000
0000
0000
0000
0000
0000
0000
0000
0000
0000
,  // measure 59
0001
0000
0000
0000
0000
0000
0000
0000
0000
0000
0000
0000
0000
0000
0000
0000
0000
0000
0000
0000
0000
0000
0000
0000
0000
0000
0000
0000
0000
0000
0000
0000
0000
0000
0000
0000
0001
0000
0000
0000
0000
0000
0000
0000
0000
0000
0000
0000
0200
0300
0000
0000
0000
0000
0000
0000
0000
0000
0000
0000
0000
0000
0000
0000
0000
0000
0000
0000
0000
0000
0000
0000
0200
0300
0000
0000
0000
0000
0000
0000
0000
0000
0000
0000
0000
0000
0000
0000
0000
0000
0000
0000
0000
0000
0000
0000
1000
0000
0000
0000
0000
0000
0000
0000
0000
0000
0000
0000
0000
0000
0000
0000
0000
0000
0000
0000
0000
0000
0000
0000
0000
0000
0000
0000
0000
0000
0000
0000
0000
0000
0000
0000
0010
0000
0000
0000
0000
0000
0000
0000
0000
0000
0000
0000
0100
0000
0000
0000
0000
0000
0000
0000
0000
0000
0000
0000
0000
0000
0000
0000
0000
0000
0000
0000
0000
0000
0000
0000
0000
0000
0000
0000
0000
0000
0000
0000
0000
0000
0000
0000
0001
0000
0000
0000
0000
0000
0000
0000
0000
0000
0000
0000
,  // measure 60
1000
0100
0000
1000
0000
1000
0010
1000
0010
0100
0000
0001
0000
0001
0010
0001
,  // measure 61
0010
0100
0000
1000
0000
1000
0100
0010
0100
1000
0000
0001
0000
0001
0100
0010
,  // measure 62
0100
0001
0000
0010
0000
0010
0100
1000
0001
0100
0000
0010
0000
0010
0100
0001
,  // measure 63
1000
0000
0010
0000
0000
0000
0100
0000
0000
0000
0100
0010
0100
0000
0000
0000
0010
0000
0000
0000
0000
0000
0100
0000
0000
0000
0000
0000
0001
0000
0000
0000
,  // measure 64
1000
0000
0010
0000
1010
0000
0100
0000
0101
0000
0001
0000
0010
0100
0010
0100
,  // measure 65
0010
0000
0001
0000
1001
0000
1000
0000
1100
0000
0100
0000
0110
0000
0001
1000
,  // measure 66
0001
0000
0010
0000
0011
0000
0100
0000
1100
0000
1000
0000
0010
0100
0010
0100
,  // measure 67
0010
0000
1000
0000
1001
0000
0001
0000
0101
0000
0100
0010
0100
0000
0001
0000
,  // measure 68
1001
0000
1000
0100
0010
0001
1000
0000
1001
0000
0001
0100
0010
1000
0001
0000
,  // measure 69
0011
0000
0110
0000
1100
0000
1010
0000
0110
0000
0101
0000
,  // measure 70
2002
0000
0000
0000
,  // measure 71
0000
0000
3003
0000
;
