#TITLE:KINGWORLD;
#SUBTITLE:;
#ARTIST:白上フブキ;
#TITLETRANSLIT:;
#SUBTITLETRANSLIT:;
#ARTISTTRANSLIT:Shirakami Fubuki;
#GENRE:;
#CREDIT:;
#BANNER:KINGWORLD.png;
#BACKGROUND:KINGWORLD-bg.png;
#LYRICSPATH:;
#CDTITLE:cdtitle.png;
#MUSIC:KINGWORLD.ogg;
#OFFSET:-0.165000;
#SAMPLESTART:42.915001;
#SAMPLELENGTH:15.000000;
#SELECTABLE:YES;
#DISPLAYBPM:120.000000:240.000000;
#BPMS:0.000000=240.000000
,102.500000=120.000000
,119.000000=240.000000
,246.000000=480.000000
,248.000000=240.000000
,254.000000=480.000000
,256.000000=240.000000
,262.000000=480.000000
,264.000000=240.000000
,296.500000=120.000000
,321.000000=240.000000
,437.000000=480.000000
,439.000000=240.000000
,445.000000=480.000000
,447.000000=240.000000
;
#STOPS:16.000000=0.750000,
75.500000=0.500000,
102.500000=0.375000,
143.000000=1.750000,
246.000000=0.083333,
246.666672=0.083333,
247.333328=0.083334,
254.000000=0.083333,
254.666672=0.083333,
255.333328=0.083334,
262.000000=0.083333,
262.666656=0.083333,
263.333344=0.083334,
269.500000=0.500000,
296.500000=0.375000,
366.000000=1.000000,
437.000000=0.083333,
437.666656=0.083333,
438.333344=0.083334,
445.000000=0.083333,
445.666656=0.083333,
446.333344=0.083334
;
#BGCHANGES:-0.667=KINGWORLD.mp4=1.000=0=0=1=====,
99999=-nosongbg-=1.000=0=0=0 // don't automatically add -songbackground-
;
#KEYSOUNDS:;
#ATTACKS:;

//---------------kb4-single - ----------------
#NOTES:
     kb4-single:
     :
     Hard:
     14:
     0.663113,0.790499,0.316649,0.302256,0.129538,645.000000,601.000000,44.000000,42.000000,0.000000,0.000000,0.663113,0.790499,0.316649,0.302256,0.129538,645.000000,601.000000,44.000000,42.000000,0.000000,0.000000:
0000
0000
0000
0000
,
0000
0000
0000
0000
,
0000
0000
0000
0000
,
0000
0000
0000
0000
,
0000
0000
1000
0000
0001
1000
0001
1000
,
0000
0001
0000
1000
0002
0000
0003
0000
,
1000
0000
0001
0000
1000
0001
1000
0001
,
0000
1000
0000
0001
1000
0002
0000
0003
,
0000
0000
1000
0000
0001
1000
0001
1000
,
0001
1000
0000
0001
1000
0001
1000
0001
,
1000
0000
0001
1000
0001
1000
0001
1000
,
0001
0000
1000
0001
1000
0001
0000
0100
,
0100
0100
0001
0000
1000
0000
0001
0000
,
1000
0001
0000
1000
0002
0000
0003
0000
,
1000
0000
0001
0000
1000
0000
0001
1000
,
0000
0001
2000
0000
3000
0000
0001
1000
,
0001
1000
0001
0000
1000
0001
0000
1000
,
0000
0000
0001
0000
1001
0000
0000
1001
,
0000
0000
0000
0000
0000
0000
0000
0000
1000
0000
0000
0000
0000
0000
0000
0000
0000
0000
0000
0000
0000
0000
0000
0000
1001
0000
0000
0000
0000
0000
0000
0000
0000
0000
0000
0000
0000
0000
0000
0000
0001
0000
0000
0000
0000
0000
0000
0000
0000
0000
0000
0000
0000
0000
0000
0000
2002
3003
0000
0000
0000
0000
0000
0000
,
1000
0000
0001
0000
1000
0001
1000
0001
,
1000
0001
1000
0000
0001
0000
1000
0000
,
0001
0000
1000
0001
1000
0001
1000
0001
,
1000
0000
0001
0000
1000
0001
1000
0001
,
1000
0001
1000
0001
0000
1000
0000
0000
,
0001
0000
1001
0000
0000
1001
0000
1000
,
0000
0000
0000
0000
0000
0000
0000
0000
1001
0000
0000
0000
0000
0000
0000
0000
0000
0000
0000
0000
0000
0000
0000
0000
0001
0000
0000
0000
0000
0000
0000
0000
0000
0000
0000
0000
0000
0000
0000
0000
2002
3003
0000
0000
0000
0000
0000
0000
1000
0000
0000
0000
0000
0000
0000
0000
0000
0000
0000
0000
1000
0000
0000
0000
,
0001
0000
0000
1000
0000
0000
0000
0001
0000
0001
1000
0000
0001
0000
0000
0001
,
1000
0000
1000
0001
0000
0000
1000
0001
0000
0001
1000
0000
0001
0000
0000
0001
,
1000
0000
0000
0001
0000
0000
1000
0001
0000
0001
1000
0000
0001
0000
0000
0001
,
1000
0000
1000
0001
2000
0000
3002
0000
2003
0000
3002
0000
1003
0000
0001
0000
,
1000
0001
0000
1001
0000
1000
0000
1001
,
0000
0001
0000
1001
0000
1000
0001
0000
,
1001
1000
1001
0002
,
0000
1003
0002
0000
0000
1003
0001
0000
,
1000
0001
0000
1000
0001
1000
0002
0000
,
2003
0000
0000
0000
0000
0000
0000
0000
0000
0000
0000
0000
0000
0000
0000
0000
3002
0000
0000
0000
0000
0000
0000
0000
0000
0000
0000
0000
0000
0000
0000
0000
2003
0000
0000
0000
0000
0000
0000
0000
0000
0000
0000
0000
0000
0000
0000
0000
3002
0003
0000
0000
0000
0000
0000
0000
0000
0000
0000
0000
0000
0000
0000
0000
,
1000
0000
0001
1000
0001
1000
0000
0001
,
0000
1000
0002
0000
0003
0000
1001
0000
,
0001
0000
1000
0001
1000
0001
0000
1000
,
0000
0001
1000
0002
0000
0003
1001
0000
,
1000
0001
0000
1000
0001
1000
0000
0001
,
0000
0011
0000
1000
0000
1100
0000
0001
,
0100
0101
0010
1010
,
0000
1000
0001
1000
,
0001
0000
1000
0001
1000
0001
1000
0002
,
0000
0003
2000
0000
3000
0000
1001
0000
,
1000
0000
0001
1000
0001
1000
0001
2000
,
0000
3000
0002
0000
0003
0000
1001
0000
,
0001
1000
0001
1000
0001
0000
1000
0001
,
0000
1000
0001
1000
0000
0000
0001
0000
,
1001
0000
1000
0000
1001
0000
0000
0001
,
1000
0001
1000
0001
0000
0000
1001
0000
,
1000
0000
0001
1000
0001
1000
0001
1000
,
0000
0001
1000
0001
1000
0001
1000
0000
,
0001
1000
0001
1000
0001
1000
0001
1000
,
0000
1000
0000
0001
1000
0001
1000
0000
,
0001
0000
1000
0001
1000
0001
1000
0001
,
0000
1000
0001
1000
0001
1000
0001
0000
,
1000
0001
1000
0001
1000
0001
1000
0000
,
0001
1000
0001
1000
0000
0100
0100
0100
,
1000
0000
0001
0000
1000
0001
0000
1000
,
0000
0000
0000
0001
0000
0000
1000
0000
0000
0000
0000
0000
0001
0000
0000
0000
0001
0000
0000
0000
0001
0000
0000
0000
,
1000
0000
0001
0000
1000
0000
0001
1000
,
0001
0000
0000
1000
0000
0000
0001
0000
0001
0000
0001
0000
,
1000
0001
1000
0001
1000
0000
0001
1000
,
0000
0000
0000
0001
0000
0000
0000
0000
0000
0000
0000
0000
1000
0000
0000
0000
1000
0000
0000
0000
1000
0000
0000
0000
,
1001
0000
0000
1001
0000
0001
0000
1001
,
0000
1000
0000
1001
0001
0000
1000
0000
,
0001
1000
0001
1000
0001
1000
0001
0000
,
1000
0000
0001
0000
1000
0000
0001
1000
,
0001
1000
0001
1000
0001
0000
1000
0000
,
0001
1000
0001
1000
0001
1000
0001
1000
,
0000
0001
0000
0000
1000
0000
1001
0000
,
0000
1001
0000
0001
0000
1001
0000
1000
,
0000
0000
0000
0000
0000
0000
0000
0000
2002
3003
0000
0000
0000
0000
0000
0000
0002
0000
0000
0000
0000
0000
0000
0000
0000
0000
0000
0000
0000
0000
0000
0000
1000
0000
0000
0000
0000
0000
0000
0000
0000
0000
0000
0000
0000
0000
0000
0000
1000
0000
0000
0000
0000
0000
0000
0000
0000
0000
0000
0000
0000
0000
0000
0000
,
2003
0001
0001
3002
,
1000
0000
0000
0000
1000
0000
0000
0000
1003
0000
0001
0000
1000
0001
1000
0001
,
0000
1001
0000
0000
2000
0000
0000
0000
0001
0000
0000
0000
0001
0000
0000
0000
,
3002
1000
1000
2003
,
0001
0000
0000
0000
0001
0000
0000
0000
3001
0000
1000
0001
1000
0001
0000
1000
,
0000
1001
0000
0000
0001
0000
0000
0000
1000
0000
0001
0000
1000
0000
0001
0000
,
1000
0001
1000
0000
0001
0000
1000
0000
,
0001
1000
0001
1000
0001
1000
0001
0000
,
1000
0000
0001
0000
1000
0001
1000
0001
,
1000
0001
1000
0000
0001
0000
1000
0000
,
0001
1000
0001
1000
0001
1000
0000
1001
,
0000
0000
0001
0000
1000
0001
1000
0001
,
1000
0001
1000
0000
0001
0000
1000
0000
,
0001
1000
0001
1000
0001
1000
0001
0000
,
1000
0000
0001
0000
1000
0001
1000
0001
,
1000
0001
1000
0000
0001
0000
1000
0000
,
0001
0000
0000
0000
0000
0000
0000
0000
1000
0000
0000
0000
0000
0000
0000
0000
0000
0000
0000
0000
0000
0000
0000
0000
0001
0000
0000
0000
0000
0000
0000
0000
2000
3000
0000
0000
0000
0000
0000
0000
0000
0000
0000
0000
0000
0000
0000
0000
0001
0000
0000
0000
0000
0000
0000
0000
0000
0000
0000
0000
0000
0000
0000
0000
,
1000
0001
1000
0001
0000
1000
0000
0001
,
2000
3000
1001
1000
,
0001
1000
0001
1000
0000
0001
0000
1000
,
0001
2000
0000
3000
1001
0000
0001
0000
,
1000
0001
1000
0000
0001
1000
0001
0000
,
1000
0001
0000
1000
0000
0000
0100
0000
,
1100
0010
0011
0000
,
0001
1000
0001
1000
,
0001
1000
0001
1000
0001
2000
0000
3002
,
0000
2003
0000
3000
1001
0000
0001
0000
,
1000
0001
1000
0001
1000
0002
0000
2003
,
0000
3002
0000
0003
1001
0000
1000
0001
,
1000
0001
1000
0000
0001
0000
1000
0001
,
1000
0001
0000
0000
1000
0000
1001
0000
,
0001
0000
1001
0000
0000
1000
0001
1000
,
0001
1000
0000
0000
1001
0000
0001
0000
,
0100
0010
0100
0000
1000
0000
0100
0010
,
0100
0000
0000
0001
0000
0001
0000
0001
0000
1000
0000
0000
,
0010
0100
0010
0000
0001
0000
0010
0100
,
0010
0000
0000
0000
0000
0000
1000
0000
0000
0000
1000
0000
0000
0000
1000
0000
0000
0000
0001
0000
0000
1000
0000
0000
,
0001
1000
0001
1000
0001
1000
0001
1000
,
0001
1000
0001
1000
0001
1000
0001
1000
,
0001
1000
0001
1000
0001
1000
0001
1000
,
0001
1000
0100
0100
0100
0100
0000
0000
;

//---------------dance-single - ----------------
#NOTES:
     dance-single:
     :
     Beginner:
     4:
     0.136735,0.207801,0.028786,0.057573,0.000000,133.000000,129.000000,4.000000,8.000000,0.000000,0.000000,0.136735,0.207801,0.028786,0.057573,0.000000,133.000000,129.000000,4.000000,8.000000,0.000000,0.000000:
0000
0000
0000
0000
,
0000
0000
0000
0000
,
0000
0000
0000
0000
,
0000
0000
0000
0000
,
0000
1000
0000
0000
,
0000
0001
0000
0000
,
0000
1000
0000
0000
,
0000
0001
0000
0000
,
0000
1000
0000
0000
,
0000
0100
0000
0000
,
0000
0010
0000
0000
,
0000
0001
0000
0000
,
0000
1000
0000
0000
,
0000
0000
0000
0000
,
0001
0000
0000
0000
,
0000
0000
0000
1000
,
0000
0000
0000
0000
,
0000
0000
1001
0000
,
0000
0000
0000
0000
,
0010
0000
0000
0000
,
0000
0000
0000
0100
,
0000
0000
0000
0000
,
0000
0000
0010
0000
,
0000
0000
0000
0000
,
0000
0110
0000
0000
,
0000
0000
0000
1000
,
0000
0001
0000
0100
,
0000
0010
0000
0001
,
0000
1000
0000
0100
,
0000
0010
0000
1000
,
0000
0000
0000
0001
,
0000
0000
0000
1000
,
0000
1000
0000
1000
,
0000
0000
0000
0010
,
0000
0000
0000
0100
,
0000
0000
0000
0010
,
1000
0000
1000
0000
,
1000
0000
0000
0000
,
0001
0000
0001
0000
,
0001
0000
0000
0000
,
0100
0000
0000
0000
,
0010
0000
0000
0000
,
0100
0000
0100
0000
,
0000
0000
0001
0000
,
0001
0000
0001
0000
,
0001
0000
0000
0000
,
1000
0000
1000
0000
,
1000
0000
0000
0000
,
0100
0000
0000
0000
,
0010
0000
0000
0000
,
0100
0000
0000
0000
,
0010
0000
0000
0000
,
0001
0000
0000
0000
,
0100
0000
0000
0000
,
0010
0000
0000
0000
,
1000
0000
0000
0000
,
0001
0000
0000
0000
,
0100
0000
0000
0000
,
0010
0000
0000
0000
,
1000
0000
0000
0000
,
0001
0000
0000
0000
,
0000
0000
0000
0000
,
1000
0000
0000
0000
,
0000
0000
0000
0000
,
0001
0000
0000
0000
,
0000
0000
0000
0000
,
1001
0000
0000
0000
,
0000
0000
0100
0000
,
0000
0000
0000
0000
,
0000
0010
0000
0000
,
0000
0000
0000
0000
,
0100
0000
0000
0000
,
0000
0000
0000
0110
,
0000
0000
0000
0000
,
0000
0002
0000
0003
,
0200
0000
0300
0020
,
0000
0030
2000
0000
,
3000
0200
0000
0300
,
0020
0000
0030
0002
,
0000
0003
2000
0000
,
3000
0001
0000
0001
,
0000
0000
0000
1000
,
0000
1000
0000
0000
,
0000
0010
0000
0010
,
0000
0000
0000
0100
,
0000
0100
0000
0000
,
0000
0001
0000
0001
,
0000
0000
0000
1000
,
0000
1000
0000
0000
,
0000
0100
0000
0100
,
0000
0000
0000
0010
,
0000
0000
0010
0001
,
0000
0001
0000
0001
,
0000
0000
0000
1000
,
0000
1000
0000
1000
,
0000
0000
0000
0010
,
0000
0000
0000
0100
,
0000
0000
0000
0010
,
0000
0010
0000
0000
,
0000
1000
0000
1000
,
0000
1000
0000
1000
,
0000
0000
0000
0001
,
0000
0001
0000
0001
,
0000
0000
0000
0010
,
0000
0000
0000
0100
,
0000
0000
0000
0010
,
0000
0000
0000
0100
,
0000
0000
0000
1000
,
0000
0000
1000
0000
,
0000
1000
0000
0001
,
0000
0000
0001
0000
,
0000
0001
0000
1000
,
0000
1000
0000
0001
,
0000
0001
0000
0100
,
0000
0100
0000
0010
,
0000
0010
0010
0000
;

//---------------dance-single - ----------------
#NOTES:
     dance-single:
     :
     Easy:
     8:
     0.309453,0.374447,0.057573,0.100752,0.000000,301.000000,293.000000,8.000000,14.000000,0.000000,0.000000,0.309453,0.374447,0.057573,0.100752,0.000000,301.000000,293.000000,8.000000,14.000000,0.000000,0.000000:
0000
0000
0000
0000
,
0000
0000
0000
0000
,
0000
0000
0000
0000
,
0000
0000
0000
0000
,
0000
1000
0000
0001
,
0010
0001
0000
0100
,
0000
0001
0000
1000
,
0010
1000
0000
0100
,
0000
1000
0000
0010
,
0100
0010
0000
1000
,
0100
1000
0001
1000
,
0000
0010
0100
0000
,
0010
0010
0000
1000
,
0000
0001
0000
0100
,
0010
0000
0100
0000
,
0001
0000
1000
0001
,
0000
0010
0000
0100
,
0000
0000
0010
0000
0001
0000
0000
0001
,
0000
0000
0000
1000
0000
0000
0000
1000
,
0001
0000
0100
0000
,
0001
0000
1000
0010
,
0000
1000
0000
0100
,
0000
0010
0100
0000
,
1000
0000
0001
0000
,
1000
0000
0010
0000
0000
0010
0000
0000
,
0000
0100
0000
0000
0000
0100
0001
0000
,
0010
0001
0000
1000
,
0100
1000
0000
0010
,
0100
0010
0000
1000
,
1000
0001
0001
1000
,
0000
0100
0000
0001
,
0000
0100
0000
2000
,
0000
0010
0000
3002
,
0000
0100
0000
1003
,
0000
0010
0000
0001
,
0000
0010
0000
1000
,
0001
0000
1000
0100
,
0010
0000
0100
0000
,
1000
0000
0001
0100
,
0010
0000
0100
0000
,
0001
0010
0001
0000
,
1000
0100
1000
0000
,
1010
0000
0101
0000
,
0000
1000
0001
0000
,
1000
0000
0100
0010
,
0001
0000
0010
0000
,
0001
0000
0100
0010
,
1000
0000
0010
0000
,
0100
0001
0100
0000
,
0010
1000
0010
0000
,
0110
0000
1001
0000
,
1000
0000
0000
1000
0000
0000
1000
0000
,
0001
0000
0010
0100
,
0010
0000
0001
0100
,
0010
1000
0010
0000
,
1000
0100
1000
0000
,
0001
0000
0100
0010
,
0100
0000
0001
0010
,
0001
1000
0001
0000
,
0100
0010
0000
0100
,
0100
0000
0001
0000
,
1000
0000
0020
0000
,
0130
0000
0010
0000
,
1000
0000
0002
0000
,
1003
0000
0100
0000
,
0010
0000
0200
0000
,
1300
0000
0000
1000
0000
0000
0000
0001
,
0000
0000
0000
0001
1000
0000
0000
0000
,
0010
0000
1000
0000
,
0001
0100
0000
0001
,
0000
0010
0000
0100
,
0010
0000
0001
0000
,
1000
0000
0001
0100
,
0000
0100
0000
0000
0000
0010
0000
0000
,
0000
0010
2000
0000
0000
0000
0000
0000
,
3002
0000
0000
0023
,
0000
0000
0130
0100
,
1000
0002
0000
0000
,
2003
0000
0000
3200
,
0000
0000
0310
0010
,
0001
1000
0000
0001
,
0100
0001
0100
0010
,
0000
1000
0100
1000
,
0100
0010
0000
0001
,
1000
0001
1000
0200
,
0000
0001
0000
1000
,
0000
0310
0000
0100
,
1000
0100
1000
0001
,
0000
0100
0001
0100
,
0001
1000
0000
0010
,
0100
0010
0100
0001
,
0000
1000
0000
0000
0001
0000
1000
0000
,
0000
0001
0010
0100
,
0000
0010
0000
0001
,
0000
1000
0010
0100
,
0000
0010
0000
1000
,
0100
1000
0000
0001
,
0010
0001
0000
0101
,
0000
1010
0000
0000
,
0001
1000
0000
0001
,
0000
0010
0100
1000
,
0000
0100
0000
1000
,
0000
0010
0100
0001
,
0000
0100
0000
0010
,
1000
0010
0000
0100
,
0001
0100
0000
0110
,
0000
1001
0000
0001
,
0000
0001
0000
0000
0001
0000
1000
0000
,
0000
0100
0001
0000
,
0100
2000
0000
3001
,
0000
0100
1000
0000
,
0100
0002
0000
1003
,
0010
1000
0100
1000
,
0010
0100
0001
0010
,
0001
0100
0001
0010
,
0100
0000
1000
0000
0001
1000
0000
0000
;

//---------------dance-single - ----------------
#NOTES:
     dance-single:
     :
     Medium:
     11:
     0.471890,0.540868,0.172718,0.086359,0.035983,459.000000,435.000000,24.000000,12.000000,0.000000,0.000000,0.471890,0.540868,0.172718,0.086359,0.035983,459.000000,435.000000,24.000000,12.000000,0.000000,0.000000:
0000
0000
0000
0000
,
0000
0000
0000
0000
,
0000
0000
0000
0000
,
0000
0000
0000
0000
,
0000
0000
1000
0000
0000
0010
0000
0100
,
0000
0010
0000
0000
2000
0000
3000
0000
,
1000
0000
0001
0000
0000
0010
0000
0100
,
0000
0010
0000
0100
0000
2000
0000
3000
,
0000
0001
1000
0001
,
0100
0010
0000
0000
1000
0000
0010
0000
,
1000
0001
0010
0100
,
1000
0000
0100
0000
0010
0100
0000
1000
,
0001
1000
0001
0000
0100
0000
0001
0000
,
0000
0001
0000
0000
0001
0000
0000
0000
,
1000
0000
0010
0000
1000
0000
0000
1000
,
0000
1000
0000
0001
,
0010
0000
0100
0000
0000
0010
0000
0010
,
0000
0000
0100
0000
1000
0000
0000
1100
,
0000
0000
0000
0001
0000
0000
0000
0011
,
1001
1000
0010
0100
,
0001
0010
0100
1100
,
1000
0001
0010
1000
,
0010
0100
0110
0010
,
0001
0100
0010
0001
,
0010
0000
1000
0000
0000
1010
0000
0000
,
0000
0001
0000
0000
0000
0101
1000
0000
,
0100
0000
0010
0001
0010
0000
0100
1000
,
0001
1000
0100
0000
0010
0000
0001
0100
,
0001
0000
1000
0010
1000
0000
0200
0000
,
0320
0000
0031
0001
1000
1000
0001
0000
,
0000
0010
0000
0001
0000
0010
0000
0100
,
0000
1000
0000
0100
0000
0000
1000
0000
,
1000
0010
0010
0200
,
0000
0302
0000
1003
,
0000
0010
0000
0000
1000
0000
0100
0000
,
0010
0001
1000
0001
,
1000
0000
0000
0010
0000
0100
0000
0001
,
0000
1000
0000
1001
,
0001
0000
0000
0010
0000
0100
0000
1000
,
0000
0010
0000
1000
0000
0000
1001
0000
,
1000
0000
0000
0100
0000
0010
0000
0001
,
0000
0001
0000
1000
0000
1000
0000
0000
,
0010
0010
0100
0100
,
0000
0001
0010
0100
,
1000
0000
0000
0001
0000
0100
0000
0010
,
0000
0100
0000
1001
,
0001
0000
0000
1000
0000
0100
0000
0010
,
0000
0100
0000
1001
,
1000
0000
0010
0000
0001
0000
0000
0010
,
0000
1000
0000
0001
0000
0000
0100
0000
,
0100
0010
0010
0000
,
1000
0000
0001
1000
0000
0000
1001
0000
,
0001
0000
0010
0000
0100
0000
1000
0001
,
0000
0100
0001
0100
,
0010
0000
1000
0000
0100
0000
1000
0001
,
0000
0001
0000
0000
0010
0000
0100
0000
,
1000
0000
0001
0000
1000
0000
0010
0100
,
0000
0001
0100
0001
,
1000
0100
0010
0001
,
0010
0000
0100
0010
0000
0001
1000
0001
,
1000
0000
0010
0000
1000
0000
0000
1000
,
0000
0000
0000
0001
0000
0000
1000
0000
0001
0000
1000
0000
,
0001
0000
0100
0000
0001
0000
0000
0001
,
0000
0000
0000
1000
0000
0000
0001
0000
1000
0000
0001
0000
,
1000
0000
0100
0000
0010
0000
0000
0100
,
0000
0000
0000
0100
0000
0000
0000
0000
0000
0000
0000
0000
0010
0000
0000
0000
0001
0000
0000
0000
0010
0000
0000
0000
,
0001
0000
0000
0011
0000
0000
0000
1000
,
0000
0000
0000
1100
1001
0000
0001
0000
,
0100
0010
1000
0100
,
0010
0011
0001
1000
,
0100
0001
0100
0010
,
0110
0100
1000
0010
,
0100
1000
0100
0001
,
0000
0101
0000
0000
0000
1000
0000
0000
,
0000
1010
0002
0000
1000
0000
0010
0000
,
2003
0100
0001
3200
,
0010
0000
1000
0000
0310
0001
0010
0000
,
0100
2000
0001
0100
,
3002
0010
1000
0023
,
0100
0000
0001
0000
0130
1000
0100
0000
,
0010
0001
0100
0010
,
1000
0001
1000
0000
0100
0000
0010
0000
,
1000
0000
0010
0000
0100
1000
0100
0000
,
1000
0010
0001
0010
,
0100
0001
0100
0000
0010
0000
1000
0000
,
0000
0001
0000
0001
0000
1000
0000
1000
,
0000
0001
0010
0100
,
1000
0010
0100
0000
0001
0000
0100
0000
,
1000
0000
0100
0000
0001
0010
0100
0000
,
1000
0100
0001
0100
,
0010
0001
0100
0000
0010
0000
1000
0000
,
1000
0001
0000
0001
1000
0000
0001
0000
,
0000
0100
0000
0010
0000
1000
0000
0000
,
0001
0000
1001
1000
,
0000
0100
0000
0010
0000
0001
0000
0100
,
0000
0001
0000
0000
1001
0000
0001
0000
,
0001
1000
1000
0001
,
0000
0100
0000
0010
0000
0000
0100
0000
,
0100
0010
0010
0000
,
1000
0100
0010
0001
,
0000
1000
0000
0010
0000
1000
0000
0010
,
0000
0100
0000
0000
1001
0000
1000
0000
,
0000
0001
0000
0010
0000
0001
0000
0010
,
0000
0100
0000
0000
1001
0000
0001
0000
,
0100
1000
0100
0001
,
0000
1000
0000
0000
0010
0000
0010
0000
,
0100
0100
0000
0001
,
1000
0001
0000
0000
1001
0000
1000
0000
,
0100
0100
0001
0100
,
0100
0000
0000
1000
0000
0001
0000
1000
0000
0001
0000
0000
,
0100
0100
1000
0100
,
0100
0000
0000
0000
0000
0000
0001
0000
0000
0000
1000
0000
0000
0000
0001
0000
0000
0000
1000
0000
0000
0010
0000
0000
,
1000
0000
0010
0100
0010
0000
0100
0001
,
0100
0000
0001
1000
0001
0000
1000
0100
,
0010
0000
0100
0010
0001
0000
0010
0001
,
0100
0000
0001
1000
0001
1000
0000
0000
;

//---------------dance-single - ----------------
#NOTES:
     dance-single:
     :
     Hard:
     14:
     0.670309,0.790499,0.302256,0.403008,0.125940,652.000000,610.000000,42.000000,56.000000,0.000000,0.000000,0.670309,0.790499,0.302256,0.403008,0.125940,652.000000,610.000000,42.000000,56.000000,0.000000,0.000000:
// measure 0
0000
0000
0000
0000
,  // measure 1
0000
0000
0000
0000
,  // measure 2
0000
0000
0000
0000
,  // measure 3
0000
0000
0000
0000
,  // measure 4
0000
0000
1000
0000
0100
0010
0100
0010
,  // measure 5
0000
0001
0000
0100
0020
0000
0030
0000
,  // measure 6
1000
0000
0001
0000
0010
0100
0010
0100
,  // measure 7
0000
1000
0000
0001
0100
0020
0000
0030
,  // measure 8
0000
0000
1000
0100
0010
0001
0010
0100
,  // measure 9
1000
0010
0000
0010
1000
0001
0010
0100
,  // measure 10
0010
0000
0001
0100
0010
1000
0010
0100
,  // measure 11
0001
0000
0010
0100
1000
0001
0000
0100
,  // measure 12
0100
0100
0001
0000
0010
0000
1000
0000
,  // measure 13
1000
0100
0000
0100
0002
0000
0003
0000
,  // measure 14
1000
0000
0010
0000
0001
0000
0001
0100
,  // measure 15
0000
0100
2000
0000
3000
0000
0001
0100
,  // measure 16
0010
0100
0010
0000
1000
0001
0000
0010
,  // measure 17
0000
0000
0001
0000
0101
0000
0000
1010
,  // measure 18
0000
0000
0000
0000
0000
0000
0000
0000
1000
0000
0000
0000
0000
0000
0000
0000
0000
0000
0000
0000
0000
0000
0000
0000
1100
0000
0000
0000
0000
0000
0000
0000
0000
0000
0000
0000
0000
0000
0000
0000
0001
0000
0000
0000
0000
0000
0000
0000
0000
0000
0000
0000
0000
0000
0000
0000
0022
0033
0000
0000
0000
0000
0000
0000
,  // measure 19
1000
0000
0010
0000
0100
0001
1000
0001
,  // measure 20
0100
0010
1000
0000
0100
0000
0010
0000
,  // measure 21
0001
0000
1000
0010
0100
0010
1000
0001
,  // measure 22
0100
0000
0001
0000
0010
0100
0010
0100
,  // measure 23
1000
0010
0100
0010
0000
1000
0000
0000
,  // measure 24
0001
0000
0011
0000
0000
1100
0000
1000
,  // measure 25
0000
0000
0000
0000
0000
0000
0000
0000
1010
0000
0000
0000
0000
0000
0000
0000
0000
0000
0000
0000
0000
0000
0000
0000
0001
0000
0000
0000
0000
0000
0000
0000
0000
0000
0000
0000
0000
0000
0000
0000
0202
0303
0000
0000
0000
0000
0000
0000
1000
0000
0000
0000
0000
0000
0000
0000
0000
0000
0000
0000
0100
0000
0000
0000
,  // measure 26
1000
0000
0000
0001
0000
0000
0000
0010
0000
0010
0100
0000
1000
0000
0000
0010
,  // measure 27
1000
0000
0001
0100
0000
0000
0010
1000
0000
1000
0001
0000
0010
0000
0000
0100
,  // measure 28
0010
0000
0000
0001
0000
1000
0100
1000
0000
0000
0010
0000
0100
0000
0000
0001
,  // measure 29
0100
0000
0100
0010
2000
0000
3200
0000
0320
0000
0032
0000
1003
0000
0010
0000
,  // measure 30
0100
0010
0000
1010
0000
1000
0000
1100
,  // measure 31
0000
0100
0000
0110
0000
0010
0001
0000
,  // measure 32
0101
1000
1010
0002
,  // measure 33
0003
0001
2000
0000
3000
1000
0001
0000
,  // measure 34
0010
0100
0000
0010
0100
0010
0002
0000
,  // measure 35
0203
0000
0000
0000
0000
0000
0000
0000
0000
0000
0000
0000
0000
0000
0000
0000
0320
0000
0000
0000
0000
0000
0000
0000
0000
0000
0000
0000
0000
0000
0000
0000
2030
0000
0000
0000
0000
0000
0000
0000
0000
0000
0000
0000
0000
0000
0000
0000
3002
0003
0000
0000
0000
0000
0000
0000
0000
0000
0000
0000
0000
0000
0000
0000
,  // measure 36
1000
0000
0100
0010
0001
0010
0000
0001
,  // measure 37
0000
0100
0020
0000
0030
0000
1001
0000
,  // measure 38
0001
0000
0010
0100
1000
0100
0000
1000
,  // measure 39
0000
0001
0100
0020
0000
0030
1001
0000
,  // measure 40
1000
0010
0000
0100
0010
0100
0000
0001
,  // measure 41
0000
0011
0000
1000
0000
1100
0000
0001
,  // measure 42
0100
0101
0010
1010
,  // measure 43
0000
2000
3200
0320
,  // measure 44
0031
0000
1000
0010
0100
0010
0100
0002
,  // measure 45
0000
0003
0020
0000
0030
0000
1001
0000
,  // measure 46
1000
0000
0001
0100
0010
0100
0010
2000
,  // measure 47
0000
3000
0200
0000
0300
0000
1001
0000
,  // measure 48
0001
1000
0010
1000
0001
0000
0010
0100
,  // measure 49
0000
1000
0001
1000
0000
0000
0010
0000
,  // measure 50
0110
0000
0100
0000
0101
0000
0000
0001
,  // measure 51
0010
0100
1000
0001
0000
0000
1001
0000
,  // measure 52
1000
0010
0100
0001
0100
0010
1000
0100
,  // measure 53
0000
0100
1000
0001
0100
0010
0100
0000
,  // measure 54
0001
0010
0100
1000
0100
0010
0001
0100
,  // measure 55
0000
0100
0000
0001
0010
0100
1000
0000
,  // measure 56
0001
0100
0010
1000
0010
0100
0001
0010
,  // measure 57
0000
0010
0001
1000
0010
0100
0010
0000
,  // measure 58
1000
0100
0010
0001
0010
0100
1000
0000
,  // measure 59
0010
0100
0001
1000
0000
0100
0100
0100
,  // measure 60
1000
0000
0001
0000
0100
0010
0000
0100
,  // measure 61
0000
0000
0000
0010
0000
0000
1000
0000
0000
0000
0000
0000
0100
0000
0000
0000
0100
0000
0000
0000
0100
0000
0000
0000
,  // measure 62
1000
0000
0001
0000
0010
0000
0100
0010
,  // measure 63
0100
0000
0000
1000
0000
0000
0010
0000
0010
0000
0010
0000
,  // measure 64
1000
0100
0010
0100
0010
0000
0001
1000
,  // measure 65
0000
0000
0000
0010
0000
0000
0000
0000
0000
0000
0000
0000
1000
0000
0000
0000
1000
0000
0000
0000
1000
0000
0000
0000
,  // measure 66
1100
0000
0000
0011
0000
0001
0000
0101
,  // measure 67
0000
0000
0000
0000
0000
0000
0000
0000
1000
0000
0000
0000
0000
0000
0000
0000
0000
0000
0000
0000
0000
0000
0000
0000
2020
3030
0000
0000
0000
0000
0000
0000
0001
0000
0000
0000
0000
0000
0000
0000
0000
0000
0000
0000
0000
0000
0000
0000
0010
0000
0000
0000
0000
0000
0000
0000
0000
0000
0000
0000
0000
0000
0000
0000
,  // measure 68
0100
1000
0001
1000
0100
0010
0001
0000
,  // measure 69
0100
0000
0010
0000
1000
0000
0001
0010
,  // measure 70
0100
0010
0001
1000
0100
0000
1000
0000
,  // measure 71
0010
0100
0010
0100
0001
0010
0100
0010
,  // measure 72
0000
0001
0000
0000
1000
0000
1010
0000
,  // measure 73
0000
0101
0000
0001
0000
0011
0000
1000
,  // measure 74
0000
0000
0000
0000
0000
0000
0000
0000
2200
3300
0000
0000
0000
0000
0000
0000
0002
0000
0000
0000
0000
0000
0000
0000
0000
0000
0000
0000
0000
0000
0000
0000
1000
0000
0000
0000
0000
0000
0000
0000
0200
0000
0000
0000
0000
0000
0000
0000
0300
0000
0000
0000
0000
0000
0000
0000
0100
0000
0000
0000
0000
0000
0000
0000
,  // measure 75
2003
0000
0100
0002
0003
0001
3200
0000
,  // measure 76
0010
0000
2000
0000
3000
0000
1000
0000
0310
0000
0001
0000
1000
0000
0010
0100
,  // measure 77
0000
0010
0000
0000
2000
0000
0000
0000
0001
0000
0200
0000
0300
0000
0100
0000
,  // measure 78
3002
0000
0100
2000
3000
1000
0203
0000
,  // measure 79
0010
0000
0002
0000
0003
0000
0001
0000
0310
0000
1000
0000
0001
0010
0000
0100
,  // measure 80
0000
0010
0000
0000
0001
0000
0000
0000
1000
0000
0010
0000
0100
0000
0010
0000
,  // measure 81
0001
0010
0100
0000
0001
0000
0010
0000
,  // measure 82
0100
1000
0010
1000
0001
1000
0010
0000
,  // measure 83
0100
0000
0001
0000
0010
0100
0001
0100
,  // measure 84
0010
0100
1000
0000
0010
0000
0100
0000
,  // measure 85
0001
0010
0100
0010
0001
1000
0000
1001
,  // measure 86
0000
0000
0001
0000
1000
0100
0010
1000
,  // measure 87
0010
0100
0010
0000
0001
0000
1000
0000
,  // measure 88
0010
0100
0001
1000
0001
0100
0001
0000
,  // measure 89
0010
0000
0100
0000
1000
0010
0100
1000
,  // measure 90
0100
0010
0100
0000
0001
0000
1000
0100
,  // measure 91
0100
0000
0000
0000
0000
0000
0000
0000
0001
0000
0000
0000
0000
0000
0000
0000
0100
0000
0000
0000
0000
0000
0000
0000
0100
0000
0000
0000
0000
0000
0000
0000
2000
3000
0000
0000
0000
0000
0000
0000
0000
0000
0000
0000
0000
0000
0000
0000
0001
0000
0000
0000
0000
0000
0000
0000
0000
0000
0000
0000
0000
0000
0000
0000
,  // measure 92
0100
0010
1000
0010
0000
1000
0000
0100
,  // measure 93
0020
0030
1001
1000
,  // measure 94
0010
0100
0001
0100
0000
0001
0000
1000
,  // measure 95
0100
0020
0000
0030
1001
0000
0001
0000
,  // measure 96
1000
0010
1000
0000
0001
0100
0001
0000
,  // measure 97
0010
0100
0000
0010
0000
0000
0100
0000
,  // measure 98
1100
0010
0011
0000
,  // measure 99
0002
0203
0320
1030
,  // measure 100
0001
0010
0100
1000
0100
2000
0000
3020
,  // measure 101
0000
0230
0000
0300
1001
0000
0001
0000
,  // measure 102
1000
0100
0010
0001
0010
0002
0000
0203
,  // measure 103
0000
0320
0000
0030
1001
0000
1000
0001
,  // measure 104
0010
0001
1000
0000
0010
0000
0100
0001
,  // measure 105
1000
0001
0000
0000
0010
0000
0110
0000
,  // measure 106
0100
0000
1100
0000
0000
1000
0010
0100
,  // measure 107
0001
1000
0000
0000
1001
0000
0001
0000
,  // measure 108
0010
0100
0010
0000
1000
0000
0010
0100
,  // measure 109
0010
0000
0000
0001
0000
0001
0000
0001
0000
1000
0000
0000
,  // measure 110
0010
0100
0010
0000
0001
0000
0010
0100
,  // measure 111
0010
0000
0000
0000
0000
0000
1000
0000
0000
0000
1000
0000
0000
0000
1000
0000
0000
0000
0001
0000
0000
0100
0000
0000
,  // measure 112
0001
0100
0010
1000
0010
1000
0100
0010
,  // measure 113
0100
0010
0001
1000
0001
1000
0010
0100
,  // measure 114
0010
1000
0001
0010
0100
0010
0001
0100
,  // measure 115
0010
1000
0100
0100
0100
0100
0000
0000
;

//---------------dance-single - ----------------
#NOTES:
     dance-single:
     :
     Challenge:
     17:
     0.909853,1.123340,0.813213,0.446188,0.377820,885.000000,772.000000,113.000000,62.000000,0.000000,0.000000,0.909853,1.123340,0.813213,0.446188,0.377820,885.000000,772.000000,113.000000,62.000000,0.000000,0.000000:
// measure 0
0000
0000
0000
0000
,  // measure 1
0000
0000
0000
0000
,  // measure 2
0000
0000
0000
0000
,  // measure 3
0000
0000
0000
0000
,  // measure 4
0000
0000
1000
0000
0100
0010
0001
0010
,  // measure 5
0000
0011
0000
0100
1100
0000
1000
0001
,  // measure 6
1001
0000
0001
0000
0100
0010
1000
0010
,  // measure 7
0000
1010
0000
1000
0001
1001
0000
0001
,  // measure 8
0100
0001
1000
0100
0010
0001
0010
0100
,  // measure 9
1000
0001
2000
0000
3000
0000
1000
0000
0010
0000
1000
0001
1000
0000
0100
0000
,  // measure 10
0010
0100
1000
0010
0100
0001
0100
0010
,  // measure 11
1000
0000
0001
0000
0010
0000
0100
0000
0010
0000
0001
0000
0000
0000
1000
0001
,  // measure 12
1000
0001
1000
0001
1000
0000
0000
0000
0010
0000
0000
0000
1010
0000
0000
0000
,  // measure 13
1000
0100
0000
0010
0100
1000
0010
0100
,  // measure 14
0001
0000
0010
0000
0011
0000
0001
0100
,  // measure 15
0000
0010
0100
0001
0010
0100
1000
0010
,  // measure 16
0100
0010
0100
0000
0001
1000
0000
1100
,  // measure 17
0000
0000
0100
0010
0011
0001
0000
0101
,  // measure 18
0100
0000
0000
0000
0000
0000
0000
0000
0000
0000
0000
0000
0000
0000
0000
0000
0010
0000
0000
0000
0000
0000
0000
0000
1010
0000
0000
0000
0000
0000
0000
0000
0000
0000
0000
0000
0000
0000
0000
0000
1000
0000
0000
0000
0000
0000
0000
0000
0000
0000
0000
0000
0000
0000
0000
0000
2002
3003
0000
0000
0000
0000
0000
0000
,  // measure 19
0001
0000
0010
0000
0001
0000
0010
0000
0100
0000
1000
0000
0100
1000
0100
0000
,  // measure 20
0010
0000
0001
0000
0100
0000
0001
0100
0001
0000
0010
0000
0100
0000
0010
0000
,  // measure 21
0100
0000
1000
0000
0001
0000
1000
0000
0001
0000
0100
0000
0010
0000
1000
0010
,  // measure 22
1000
0100
0010
0001
1000
0010
1000
0010
,  // measure 23
0100
0000
0001
0000
0100
0001
0100
0000
0010
0000
1000
0000
0100
0000
1000
0100
,  // measure 24
1000
0010
1010
0000
1000
1100
0100
0000
,  // measure 25
0000
0000
0000
0000
0000
0000
0000
0000
0110
0000
0000
0000
0000
0000
0000
0000
0000
0000
0000
0000
0000
0000
0000
0000
0010
0000
0000
0000
0000
0000
0000
0000
0000
0000
0000
0000
0000
0000
0000
0000
2002
3003
0000
0000
0000
0000
0000
0000
0001
0000
0000
0000
0100
0000
0000
0000
0000
0000
0000
0000
0001
0000
0000
0000
,  // measure 26
0000
1000
0000
0010
0100
0010
0100
0001
0100
0002
0000
0000
1003
0100
0010
0001
,  // measure 27
0010
0100
0000
2000
0000
0000
3000
0010
0100
0000
0010
0000
1000
0000
0100
1000
,  // measure 28
0000
0001
0000
0200
0000
0000
0310
0000
1000
0000
0100
0000
0020
0000
0000
0031
,  // measure 29
2000
0000
0000
0000
0000
0000
0000
0000
3001
0100
0001
0000
1000
0100
1000
0000
0001
0010
0001
0000
1000
0010
1000
0000
0001
0000
0000
0000
0100
0000
0000
0000
,  // measure 30
0010
1000
0000
1001
0000
0011
0000
1001
,  // measure 31
0000
1100
0000
1001
0000
0001
0101
0000
,  // measure 32
0101
1010
1010
0210
,  // measure 33
0000
0010
0320
0000
0000
0100
0130
0000
,  // measure 34
0001
1000
0000
0100
0010
0001
0011
0000
,  // measure 35
1100
0000
0000
0000
0000
0000
0000
0000
0000
0000
0000
0000
0000
0000
0000
0000
1010
0000
0000
0000
0000
0000
0000
0000
0000
0000
0000
0000
0000
0000
0000
0000
0102
0000
0000
0000
0000
0000
0000
0000
0000
0000
0000
0000
0000
0000
0000
0000
2003
3000
0000
0000
0000
0000
0000
0000
0000
0000
0000
0000
0000
0000
0000
0000
,  // measure 36
0001
0000
0010
0100
1000
0100
0000
1100
,  // measure 37
0000
0010
0022
0000
0033
0000
1001
0000
,  // measure 38
1000
0000
0010
0100
0001
0100
0000
0101
,  // measure 39
0000
0010
1000
2020
3030
0000
1001
0000
,  // measure 40
0001
0100
0000
0010
0100
0001
0000
0101
,  // measure 41
0000
1010
0000
0101
0000
1010
0000
1000
,  // measure 42
1100
1100
0011
0011
,  // measure 43
0002
0203
0320
0032
2003
3200
0320
2030
,  // measure 44
3001
0000
0010
0100
1000
0100
1000
0001
,  // measure 45
0000
0100
0202
0000
0303
0000
1001
0000
,  // measure 46
1000
0000
0010
0100
0001
0100
0001
1000
,  // measure 47
0000
0100
2200
0000
3300
0000
1001
0000
,  // measure 48
0001
0100
1000
0100
0001
0000
0010
0100
,  // measure 49
0000
1000
0001
1000
0000
0000
1010
0000
,  // measure 50
0110
0000
0101
0000
1001
0000
0000
1000
,  // measure 51
0100
0010
0001
1000
0000
0001
1001
0000
,  // measure 52
1000
0000
0010
0000
0100
0000
0001
0000
0100
0000
0010
0000
1000
0001
2000
0000
,  // measure 53
3000
0000
1000
0000
0100
0000
1000
0001
1000
0000
0010
0000
0100
0000
0010
0000
,  // measure 54
1000
0100
0010
0001
0010
0100
1000
0020
,  // measure 55
0030
0020
0030
1000
0010
0100
0001
1000
,  // measure 56
0001
0000
0010
0000
0100
0000
1000
0000
0100
0000
0010
0000
0001
1000
0002
0000
,  // measure 57
0003
0000
0001
0000
0100
0000
0001
1000
0001
0000
0010
0000
0100
0000
0010
0000
,  // measure 58
0001
0100
0010
1000
0010
0100
0001
1000
,  // measure 59
0100
0000
0010
0000
0100
0000
1000
0000
0000
0000
0001
1000
0001
1000
0001
1000
,  // measure 60
0001
0000
0100
0010
1000
0010
1000
0001
,  // measure 61
0000
0000
0000
0001
0000
0000
0100
0000
0000
0000
0000
0000
0101
0000
0000
0000
0101
0000
0000
0000
0101
0000
0000
0000
,  // measure 62
1000
0000
0100
0010
0001
0010
0001
1000
,  // measure 63
0000
0000
0000
1000
0000
0000
0100
0000
0000
0000
0000
0000
1100
0000
0000
0000
1100
0000
0000
0000
1100
0000
0000
0000
,  // measure 64
0001
0100
0010
0100
0010
0000
1000
0001
,  // measure 65
0000
0000
0000
0011
0000
0000
0000
0000
0000
0000
0000
0000
0110
0000
0000
0000
0110
0000
0000
0000
0110
0000
0000
0000
,  // measure 66
1100
1000
0000
1010
0010
0000
0100
0101
,  // measure 67
0000
0000
0000
0000
0000
0000
0000
0000
0001
0000
0000
0000
0000
0000
0000
0000
0000
0000
0000
0000
0000
0000
0000
0000
2002
3003
0000
0000
0000
0000
0000
0000
1000
0000
0000
0000
0000
0000
0000
0000
0100
0000
0000
0000
0000
0000
0000
0000
1000
0000
0000
0000
0000
0000
0000
0000
0100
0000
0000
0000
0000
0000
0000
0000
,  // measure 68
0010
0000
0001
0000
0010
0001
0010
0000
0100
0000
1000
0000
0010
0000
1000
0010
,  // measure 69
1000
0100
0010
0100
0010
0001
1000
0001
,  // measure 70
1000
0000
0010
0000
0100
0000
0001
0100
0001
0000
0010
0000
0100
0000
1000
0000
,  // measure 71
0001
0000
0100
0000
0001
0000
0100
0000
0010
0000
1000
0000
0010
1000
0010
0000
,  // measure 72
0100
0000
0001
0000
0010
0000
0001
0010
0001
0000
0100
0000
0101
0000
0000
0000
,  // measure 73
0001
0011
0010
0000
0000
0110
0000
0100
,  // measure 74
0000
0000
0000
0000
0000
0000
0000
0000
2002
3003
0000
0000
0000
0000
0000
0000
2000
0000
0000
0000
0000
0000
0000
0000
0010
0000
0000
0000
0000
0000
0000
0000
0001
0000
0000
0000
0000
0000
0000
0000
3001
0000
0000
0000
0100
0000
0000
0000
0000
0000
0000
0000
0001
0000
0000
0000
0000
0000
0000
0000
0000
0000
0000
0000
,  // measure 75
0002
0000
0010
0000
1003
0100
1000
0100
0000
0010
0000
0000
0020
0000
0031
0100
,  // measure 76
0001
0100
0000
0010
1000
0010
0000
1000
0200
0000
0010
0000
1300
0001
0010
0100
,  // measure 77
0000
0010
0000
0000
0002
0000
0100
0000
1003
0010
1000
0010
0000
0100
0001
0000
,  // measure 78
2000
3100
0010
0100
1000
0000
0001
0010
0000
0100
0000
0000
0200
0000
0010
0000
,  // measure 79
1300
0010
1000
0010
0000
0100
0001
0000
1000
0100
1000
0100
0010
0100
0010
0001
,  // measure 80
0010
0001
1000
0001
1001
0000
0000
0000
1000
0000
0010
0000
0100
0000
0010
0000
,  // measure 81
0001
0010
0100
0010
1000
0100
1100
0000
,  // measure 82
0100
1000
0001
1000
0010
1000
0001
1000
,  // measure 83
0100
0010
0110
0000
0010
0100
0001
0100
,  // measure 84
0010
0100
1000
0100
0010
0001
0011
0000
,  // measure 85
0001
0100
1000
0100
0001
0101
0000
1010
,  // measure 86
0000
0000
1001
0000
0001
0010
0001
1000
,  // measure 87
0001
0100
0001
1000
0100
0010
0110
0000
,  // measure 88
0010
0100
0010
1000
0010
0100
0010
0001
,  // measure 89
1000
0100
1100
0000
0100
0010
0100
0001
,  // measure 90
0100
0000
0010
0000
0100
0000
1000
0000
0010
0000
0100
0000
0001
0010
0001
0010
,  // measure 91
0001
0000
0000
0000
0000
0000
0000
0000
1000
0000
0000
0000
0100
0000
0000
0000
1000
0000
0000
0000
0100
0000
0000
0000
1000
0000
0000
0000
0000
0000
0000
0000
0002
0003
0000
0000
0000
0000
0000
0000
0000
0000
0000
0000
0000
0000
0000
0000
1000
0000
0000
0000
0000
0000
0000
0000
0000
0000
0000
0000
0000
0000
0000
0000
,  // measure 92
0100
0010
0001
0010
0000
0011
0000
0100
,  // measure 93
2200
3300
1001
0001
,  // measure 94
0100
0010
1000
0010
0000
1010
0000
0100
,  // measure 95
0001
0202
0303
0000
1001
0000
1000
0000
,  // measure 96
0010
1000
1010
0000
0100
0001
0101
0000
,  // measure 97
0001
1000
0000
0001
0000
0000
0011
0000
,  // measure 98
0011
0000
1100
0000
1100
0000
2000
3020
,  // measure 99
0230
2300
3002
0023
0230
0302
1003
0000
,  // measure 100
0100
0010
0001
0010
0001
1000
0000
1010
,  // measure 101
0000
0202
0303
0000
1001
0000
0001
0000
,  // measure 102
0100
0010
1000
0010
1000
0001
0000
0011
,  // measure 103
0000
2200
3300
0000
1001
0000
1000
0010
,  // measure 104
0001
0010
1000
0000
0100
0000
0010
0001
,  // measure 105
1000
0001
0000
0000
0101
0000
0110
0000
,  // measure 106
1010
0000
1001
0000
0000
0001
0010
0100
,  // measure 107
1000
0001
0000
1000
1001
0000
0001
0100
,  // measure 108
1000
0100
0001
1000
0001
0100
1000
0100
,  // measure 109
0001
0000
0000
1000
0000
0000
1100
0000
0000
0000
0011
0000
0000
0000
1001
0000
0000
0000
1000
0000
0000
0100
0000
0000
,  // measure 110
0001
0100
1000
0001
1000
0100
0001
0100
,  // measure 111
1000
0000
0000
0000
0000
0000
0001
0000
0000
0000
0000
0000
0101
0000
0000
0000
0000
0000
0000
0000
1010
0000
0000
0000
0000
0000
0000
0000
1001
0000
0000
0000
0000
0000
0000
0000
0001
0000
0000
0010
0000
0000
0001
0000
0000
0000
0000
0000
,  // measure 112
0010
0000
0100
0000
1000
0100
1000
0000
0001
0000
0100
0000
0010
1000
0010
0000
,  // measure 113
1000
0000
0001
0000
0100
0001
0100
0000
0010
0000
1000
0000
0001
0010
0001
0010
,  // measure 114
0001
0000
0100
0000
0010
1000
0010
1000
0010
0000
1000
0000
0100
0010
0100
0010
,  // measure 115
0100
1000
1001
1001
1001
1001
0000
0000
;
