#TITLE:気まぐれメルシィ;
#SUBTITLE:;
#ARTIST:八王子P feat. 初音ミク;
#TITLETRANSLIT:KIMAGURE MERCY;
#SUBTITLETRANSLIT:;
#ARTISTTRANSLIT:Hachioji P feat. Hatsune Miku;
#GENRE:;
#CREDIT:;
#BANNER:KIMAGURE MERCY.png;
#BACKGROUND:KIMAGURE MERCY-bg.png;
#LYRICSPATH:;
#CDTITLE:cdtitle.png;
#MUSIC:KIMAGURE MERCY.ogg;
#OFFSET:0.876000;
#SAMPLESTART:57.624001;
#SAMPLELENGTH:15.000000;
#SELECTABLE:YES;
#BPMS:0.000000=160.000000
;
#STOPS:
;
#BGCHANGES:2.125=KIMAGURE MERCY.avi=1.000=1=0=0=StretchNoLoop==CrossFade==,
99999=-nosongbg-=1.000=0=0=0 // don't automatically add -songbackground-
;
#KEYSOUNDS:;
#ATTACKS:;

//---------------dance-single - ----------------
#NOTES:
     dance-single:
     :
     Hard:
     12:
     0.542955,0.605336,0.269871,0.434792,0.179914,507.000000,471.000000,36.000000,58.000000,0.000000,0.000000,0.542955,0.605336,0.269871,0.434792,0.179914,507.000000,471.000000,36.000000,58.000000,0.000000,0.000000:
// measure 0
0000
0000
0000
0000
,  // measure 1
0000
0000
0000
0000
,  // measure 2
0000
0000
0000
0000
,  // measure 3
0000
0000
0000
0000
,  // measure 4
0000
0000
0000
0000
,  // measure 5
0000
0000
0000
0000
,  // measure 6
0000
0000
0000
0000
,  // measure 7
0010
0000
1000
0000
0001
0100
0000
0001
0000
0000
0100
0000
1000
0000
0100
0000
,  // measure 8
0010
0000
1000
0000
0100
1000
0000
0100
0000
0000
0010
0000
0001
0000
0100
0000
,  // measure 9
0010
0000
0001
0000
0010
0100
0000
0010
0000
0000
0100
0000
0001
0000
0010
0000
,  // measure 10
0100
0000
0000
0010
0000
0000
1000
0000
0000
0100
0000
0000
0001
0000
0010
0000
,  // measure 11
0100
0000
0010
0000
0001
0100
0000
0010
0000
0000
0100
0000
0001
0000
0010
0000
,  // measure 12
0100
0000
1000
0000
0010
1000
0000
0100
0000
0000
1000
0000
0100
0000
0010
0000
,  // measure 13
0001
0000
0000
0100
0000
0000
1000
0000
0000
0010
0000
0000
0100
0000
1000
0000
,  // measure 14
0001
0000
0000
0100
0000
0000
0020
0000
0000
0000
0000
0000
0000
0000
0000
0000
,  // measure 15
1030
0100
1000
0010
0100
0010
0001
0100
,  // measure 16
2000
0000
0000
3010
0000
0100
0001
0010
,  // measure 17
0001
0100
0010
0100
0002
0000
1003
0100
,  // measure 18
0010
0200
0000
1300
0000
0010
0100
0001
,  // measure 19
2000
0000
0010
0000
0010
0000
0000
0001
0000
0000
0100
0000
0100
0000
0000
0000
,  // measure 20
3002
0000
0010
0000
0010
0000
0000
1000
0000
0000
0100
0000
0100
0000
0000
0000
,  // measure 21
0023
0000
0100
0000
0100
0000
0000
1000
0000
0000
0001
0000
0001
0000
0000
0000
,  // measure 22
0130
0000
0000
1000
0000
0000
0010
0000
0000
0001
0000
0000
0100
0000
0010
0000
,  // measure 23
0001
1000
0010
0100
0010
1000
0001
0100
,  // measure 24
0020
0000
0000
1030
0000
0100
1000
0010
,  // measure 25
0001
0010
0100
0001
0010
0001
0100
0010
,  // measure 26
1000
0200
0000
0310
0000
0001
1000
0100
,  // measure 27
0020
0000
0001
0000
0001
0000
0000
0100
0000
0000
1000
0000
1000
0000
0000
0000
,  // measure 28
0230
0000
1000
0000
1000
0000
0000
0010
0000
0000
0001
0000
0001
0000
0000
0000
,  // measure 29
2300
0000
0010
0000
0010
0000
0000
0100
0000
0000
0001
0000
0001
0000
0000
0000
,  // measure 30
3010
0000
0000
1000
0000
0000
0100
0000
0000
0001
0000
0000
0010
0000
1000
0000
,  // measure 31
0100
1000
0001
0100
0001
0010
0100
0001
,  // measure 32
0100
1000
0010
0100
0000
0100
1000
0010
,  // measure 33
0200
0000
0301
0020
0000
0032
0000
2003
,  // measure 34
0000
3100
1000
0020
0000
0100
0130
1000
,  // measure 35
0010
1000
0100
0010
0001
0100
0001
0010
,  // measure 36
0100
0010
0001
0100
0000
0100
1000
0100
,  // measure 37
0002
0000
0013
0100
0000
1100
0000
0011
,  // measure 38
0000
1010
0000
0101
0000
0110
1001
0000
,  // measure 39
1010
0000
0101
0000
1000
0100
1000
0010
,  // measure 40
0200
0000
0301
0020
0000
0031
0000
0100
,  // measure 41
0010
1000
0100
1000
0010
0001
0010
0100
,  // measure 42
0002
0000
1003
0200
0000
2300
0000
3000
,  // measure 43
1100
0000
0011
0001
0100
0001
0010
0100
,  // measure 44
2000
0000
3010
0200
0000
0310
0000
0100
,  // measure 45
0001
0010
0001
0100
1000
0100
0001
0010
,  // measure 46
0010
0200
0000
1300
0000
2200
0000
3300
,  // measure 47
1000
0010
1000
0010
1000
0000
0010
0100
0010
0000
0100
0000
0001
0000
0010
0000
,  // measure 48
0002
0000
1003
0200
0000
0310
0000
0100
,  // measure 49
1000
0010
1000
0100
0001
0010
0001
0100
,  // measure 50
0010
0002
0000
0103
0000
0202
0000
0303
,  // measure 51
1000
0000
1100
0100
0010
0000
0110
0100
,  // measure 52
1000
0001
0010
0001
1000
0200
0000
0320
,  // measure 53
0000
0130
1001
0010
1001
0100
0010
0100
,  // measure 54
0010
0000
0000
0000
,  // measure 55
0100
0000
0010
0000
0000
1000
0000
0000
0100
0000
0000
0010
0000
0000
1000
0000
,  // measure 56
0100
0000
0010
0000
0000
0001
0000
0000
0100
0000
0000
1000
0000
0000
0100
0000
,  // measure 57
0001
0000
0010
0000
0000
0001
0000
0000
0100
0000
0000
0010
0000
0000
1000
0000
,  // measure 58
0200
0000
0000
0310
,  // measure 59
0011
0000
1100
0000
0001
0010
0001
0100
,  // measure 60
0020
0000
1030
0002
0000
0103
0000
0010
,  // measure 61
1000
0100
1000
0001
0010
1000
0010
0100
,  // measure 62
2000
0000
3010
0200
0000
0302
0000
0003
,  // measure 63
0101
0000
1010
1000
0100
1000
0001
0010
,  // measure 64
0002
0000
1003
0200
0000
1300
0000
0010
,  // measure 65
0100
0001
1000
0010
0001
0010
1000
0100
,  // measure 66
0100
0020
0000
0031
0000
0022
0000
0033
,  // measure 67
0001
0100
0001
0100
0001
0000
1000
0010
1000
0000
0100
0000
1000
0000
0010
0000
,  // measure 68
0200
0000
0310
2000
0000
3001
0000
0010
,  // measure 69
0001
0100
0010
1000
0100
0001
0010
0001
,  // measure 70
0100
2000
0000
3010
0000
2020
0000
3030
,  // measure 71
0001
0100
0101
0001
0010
0100
0110
0010
,  // measure 72
0001
1000
1100
0100
1000
0020
0000
0230
,  // measure 73
0000
0310
1001
0100
1001
0010
0100
0010
,  // measure 74
0200
0000
0310
2000
0000
3100
0020
0002
,  // measure 75
0000
0000
0000
0000
,  // measure 76
0000
0000
0000
0000
,  // measure 77
0000
0000
0000
0000
0033
0000
0000
0010
,  // measure 78
0001
0000
1000
0100
0000
0100
0001
0000
,  // measure 79
0100
0000
1000
0000
0010
0100
0000
0100
0001
0000
0010
0000
0100
0000
0010
0000
,  // measure 80
0001
0000
0100
0000
0010
1000
0000
1000
0100
0000
1000
0000
0010
0000
0100
0000
,  // measure 81
0001
0000
0000
0101
0000
0000
0010
0000
0000
1010
0000
0000
1000
0000
0100
0000
,  // measure 82
0010
0000
0000
0011
0000
0000
0100
0000
0000
1100
0000
0000
0001
0000
0010
0000
,  // measure 83
0100
0000
0000
1010
0000
0000
0010
0000
0000
0101
0000
0000
0001
0000
0010
0000
,  // measure 84
0000
0000
1100
0000
0000
0011
0000
0000
0210
0000
0000
0000
0000
0000
0000
0000
,  // measure 85
0310
0000
0000
0000
;

//---------------dance-single - ----------------
#NOTES:
     dance-single:
     :
     Easy:
     6:
     0.309495,0.382317,0.194907,0.082461,0.000000,289.000000,263.000000,26.000000,11.000000,0.000000,0.000000,0.309495,0.382317,0.194907,0.082461,0.000000,289.000000,263.000000,26.000000,11.000000,0.000000,0.000000:
0000
0000
0000
0000
,
0000
0000
0000
0000
,
0000
0000
0000
0000
,
0000
0000
0000
0000
,
0000
0000
0000
0000
,
0000
0000
0000
0000
,
0000
0000
0000
0000
,
0001
1000
0010
1001
,
0100
0010
1000
1001
,
0010
0100
0001
1001
,
0010
0010
0100
0100
,
0001
1000
0010
0110
,
0100
0001
1000
0110
,
0100
1000
0010
0001
,
0100
0010
0200
0000
,
0310
0001
0100
0001
,
1000
0000
0100
0000
,
1000
0010
1000
0000
,
0001
0100
0001
0000
,
2000
0100
0100
3100
,
0002
0010
0010
0013
,
0200
0001
0001
0301
,
0010
1000
0100
1000
,
0010
0100
0010
1000
,
0001
0000
0100
0000
,
0001
0010
0001
0100
,
1000
0010
1000
0000
,
0020
0001
0001
0031
,
0200
1000
1000
1300
,
0002
0100
0100
0103
,
0010
0010
0010
0000
,
0001
1000
0001
0100
,
0010
1000
1000
0000
,
0001
0000
1000
0000
,
0100
0100
0100
0000
,
0010
0001
0010
0100
,
1000
0001
0001
0000
,
0100
0000
0000
0001
0000
0001
0000
0010
,
0000
0010
0000
0010
0000
0010
0000
0000
,
1001
1001
1000
0100
,
0010
0001
1000
0000
,
0010
1000
0001
1000
,
0100
0100
0100
0000
,
0110
0110
0010
1000
,
0100
0010
0001
0000
,
0100
0001
0010
0001
,
1000
1000
1000
0000
,
0001
0100
0001
0100
0001
0000
1000
0000
,
0001
0100
0010
0000
,
1000
0010
1000
0100
,
0010
0010
0010
0001
,
0101
0000
1010
0000
,
1100
0000
0000
0000
1001
0000
0000
0110
,
0000
0100
0010
0100
,
0010
0000
0000
0000
,
1000
0000
1000
0000
,
0001
0000
0001
0000
,
0100
0000
0100
0000
,
0020
0000
0000
0030
,
1010
1010
0010
0100
,
0001
1000
0010
0000
,
1000
0100
1000
0010
,
0001
0001
0001
0000
,
0101
0101
0100
0010
,
1000
0001
0100
0000
,
0001
0100
1000
0100
,
0010
0010
0010
0000
,
1000
0100
1000
0100
1000
0000
0001
0000
,
0010
0100
1000
0000
,
0001
0100
0001
0010
,
0100
0100
0100
1000
,
1100
0000
0011
0000
,
0101
0000
0000
0000
0110
0000
0000
1001
,
0000
1000
0001
1000
,
0001
0000
0000
0000
,
2000
0100
0000
3100
,
0002
0100
0000
0103
,
2000
0010
0000
3010
,
0001
0010
0001
0000
,
1000
0001
0100
1001
,
0010
0100
0001
0110
,
1000
1000
1000
1000
,
0001
0001
0001
0001
,
0010
0010
0010
0010
,
0000
0100
0000
0000
0100
0000
0000
0000
,
1001
0000
0000
0000
;

//---------------dance-single - ----------------
#NOTES:
     dance-single:
     :
     Beginner:
     3:
     0.156354,0.223018,0.067468,0.097453,0.000000,146.000000,137.000000,9.000000,13.000000,0.000000,0.000000,0.156354,0.223018,0.067468,0.097453,0.000000,146.000000,137.000000,9.000000,13.000000,0.000000,0.000000:
0000
0000
0000
0000
,
0000
0000
0000
0000
,
0000
0000
0000
0000
,
0000
0000
0000
0000
,
0000
0000
0000
0000
,
0000
0000
0000
0000
,
0000
0000
0000
0000
,
0010
0000
0010
0000
,
0001
0000
0001
0000
,
0100
0000
0100
0000
,
1000
0000
1000
0000
,
0010
0000
0010
0000
,
1000
0000
1000
0000
,
0100
0000
0100
0000
,
0010
0010
0010
0000
,
0001
0000
0000
0000
,
1000
0000
0000
0000
,
0001
0000
0000
0000
,
1000
0000
0000
0000
,
0002
0000
0000
0003
,
0200
0000
0000
0300
,
0020
0000
0000
0030
,
2000
0000
0000
3000
,
0010
0000
0000
0000
,
0100
0000
0000
0000
,
0010
0000
0000
0000
,
0100
0000
0000
0000
,
2000
0000
0000
3000
,
0200
0000
0000
0300
,
0020
0000
0000
0030
,
0002
0000
0000
0003
,
0010
0000
0010
0000
,
1000
0000
1000
0000
,
0100
0000
0100
0000
,
0001
0000
0001
0000
,
0100
0000
0100
0000
,
1000
0000
1000
0000
,
0010
0000
0010
0000
,
0100
0100
0100
0000
,
1001
0000
1000
0000
,
0010
0000
0001
0000
,
0010
0000
1000
0000
,
0010
0010
0010
0000
,
0110
0000
0100
0000
,
0001
0000
0010
0000
,
0001
0000
0100
0000
,
0001
0001
0001
0000
,
0010
0010
0010
0000
,
0100
0000
1000
0000
,
0010
0000
0001
0000
,
0010
0000
1000
0000
,
0100
0000
1001
0000
,
0010
0000
1001
0000
,
0000
0100
0100
0100
,
0100
0000
0000
0000
,
1000
0000
0000
0000
,
0001
0000
0000
0000
,
0100
0000
0000
0000
,
0020
0000
0000
0030
,
0110
0000
0100
0000
,
0001
0000
0010
0000
,
0001
0000
0100
0000
,
0001
0001
0001
0000
,
1001
0000
1000
0000
,
0100
0000
0001
0000
,
0100
0000
1000
0000
,
0100
0100
0100
0000
,
1000
1000
1000
0000
,
0001
0000
0100
0000
,
1000
0000
0010
0000
,
1000
0000
0100
0000
,
0001
0000
0110
0000
,
1000
0000
0110
0000
,
0000
0001
0001
0001
,
0001
0000
0000
0000
,
0020
0000
0000
0030
,
0200
0000
0000
0300
,
2000
0000
0000
3000
,
0002
0000
0000
0003
,
0010
0000
0010
0000
,
1000
0000
1000
0000
,
0100
0000
0000
0000
,
1000
0000
0000
0000
,
0010
0000
0000
0000
,
0001
0000
0000
0000
,
1001
0000
0000
0000
;

//---------------dance-single - ----------------
#NOTES:
     dance-single:
     :
     Medium:
     9:
     0.423012,0.541616,0.157425,0.217396,0.089957,395.000000,374.000000,21.000000,29.000000,0.000000,0.000000,0.423012,0.541616,0.157425,0.217396,0.089957,395.000000,374.000000,21.000000,29.000000,0.000000,0.000000:
0000
0000
0000
0000
,
0000
0000
0000
0000
,
0000
0000
0000
0000
,
0000
0000
0000
0000
,
0000
0000
0000
0000
,
0000
0000
0000
0000
,
0000
0000
0000
0000
,
0001
0000
0100
0000
0001
0000
0000
1000
0000
0000
1000
0000
0100
0000
0000
0000
,
1000
0000
0010
0000
1000
0000
0000
0001
0000
0000
0001
0000
0010
0000
0000
0000
,
0100
0000
1000
0000
0100
0000
0000
0010
0000
0000
0010
0000
0001
0000
0000
0000
,
0100
0000
0000
0100
0000
0000
0010
0000
0000
0010
0000
0000
1000
0000
0000
0000
,
0001
0000
0010
0000
0001
0000
0000
0100
0000
0000
0100
0000
0010
0000
0000
0000
,
1000
0000
0100
0000
1000
0000
0000
0010
0000
0000
0010
0000
0100
0000
0000
0000
,
0001
0000
0000
0001
0000
0000
0100
0000
0000
0100
0000
0000
0010
0000
1000
0000
,
0100
0000
0000
0100
0000
0000
0020
0000
0000
0000
0000
0000
0000
0000
0000
0000
,
0130
0000
1000
0000
0010
0000
1000
0001
,
0020
0000
0000
0031
0000
0100
0010
0000
,
1000
0000
0100
0010
0100
0000
1000
0000
,
0001
0200
0000
0310
0000
0100
0001
0000
,
2000
0010
0001
0010
,
3002
1000
0100
1000
,
0023
1000
0001
1000
,
0130
0000
0000
0100
0000
0000
1000
0000
0000
1000
0000
0000
0001
0000
0000
0000
,
0010
0000
0001
0000
0100
0000
0010
1000
,
0200
0000
0000
1300
0000
0010
0100
0000
,
0001
0000
1000
0100
0010
0100
0010
0000
,
0100
2000
0000
3010
0000
1000
0100
0000
,
0020
0001
0100
0001
,
0230
0010
1000
0010
,
2300
0001
0010
0001
,
3100
0000
0000
0100
0000
0000
0010
0000
0000
0010
0000
0000
0001
0000
0000
0000
,
0100
0000
0010
0000
1000
0000
0001
0010
,
0000
0100
0010
0001
0000
1000
0100
0000
,
2000
0000
3010
0100
0000
0010
0000
1000
,
0000
0001
0010
0200
0000
0010
0310
0000
,
0001
0000
0100
0000
0010
0000
0100
0001
,
0000
0010
0100
1000
0000
0100
0010
0000
,
0002
0000
1003
0100
0000
1010
0000
1100
,
0000
0011
0000
0101
0000
1000
1001
0000
,
0110
1001
0001
0100
,
0010
0000
1000
0100
0000
1000
0010
0000
,
0100
0001
0100
0000
0010
1000
0010
0000
,
0100
0000
0001
0010
0000
0002
0000
0003
,
1001
0110
0100
0001
,
0010
0000
0100
1000
0000
0100
0010
0000
,
0001
0100
0001
0000
1000
0010
1000
0000
,
0001
0010
0000
0001
0000
0020
0000
0030
,
0100
0100
0100
0100
0100
0000
1000
0000
,
0010
0000
0100
0001
0000
0010
0001
0000
,
1000
0100
1000
0000
0001
0010
0001
0000
,
1000
0010
0000
1000
0000
0020
0000
0030
,
0110
0100
0101
0001
,
0011
0000
0100
0000
1100
0000
1000
0010
,
0000
0100
0010
0100
0010
1000
0001
1000
,
0001
0000
0000
0000
,
2000
0100
0100
0100
,
3002
0000
0000
0000
0100
0000
0000
0000
0103
0000
0000
0010
0000
0000
0100
0000
,
2000
0010
0010
0010
,
3200
0000
0000
0310
,
0011
1100
1000
0001
,
0010
0000
0100
0010
0000
0001
1000
0000
,
0010
0100
0001
0000
0010
0100
1000
0000
,
0001
0000
1000
0010
0000
2000
0000
3000
,
1010
0101
0001
1000
,
0100
0000
0010
0001
0000
1000
0100
0000
,
1000
0010
0100
0000
0001
0010
0100
0000
,
1000
0100
0000
1000
0000
0200
0000
0300
,
0010
0010
0010
0010
0010
0000
0001
0000
,
0100
0000
0010
1000
0000
0001
0100
0000
,
0010
1000
0001
0000
0100
0001
1000
0000
,
0001
0100
0000
0001
0000
0200
0000
0300
,
0110
0010
1010
1000
,
1100
0000
0010
0000
0011
0000
0001
0200
,
0000
0310
0100
0010
0100
0001
1000
0001
,
1000
0000
0000
0000
,
0002
0010
0010
0010
,
2003
0010
0010
0010
,
3002
0100
0100
0100
,
0013
0000
0100
1000
0000
0001
0010
0000
,
0001
0000
0100
0000
0010
0000
0000
1000
0000
0000
1000
0000
0100
0000
0000
0000
,
0010
0000
0100
0000
1000
0000
0000
0001
0000
0000
0001
0000
0010
0000
0000
0000
,
0001
0000
0000
0001
0000
0000
1000
0000
0000
1000
0000
0000
0001
0000
1000
0000
,
0010
0000
0000
0010
0000
0000
0100
0000
0000
0100
0000
0000
0010
0000
0100
0000
,
0001
0000
0000
0001
0000
0000
0100
0000
0000
0100
0000
0000
0010
0000
1000
0000
,
0000
0000
0100
0000
0000
0100
0000
0000
0200
0000
0000
0000
0000
0000
0000
0000
,
0310
0000
0000
0000
;
