#TITLE:It's Going Down Now;
#SUBTITLE:;
#ARTIST:Lotus Juice, Azumi Takahashi, ATLUS Sound Team;
#TITLETRANSLIT:;
#SUBTITLETRANSLIT:;
#ARTISTTRANSLIT:;
#GENRE:;
#CREDIT:;
#BANNER:It's Going Down Now.png;
#BACKGROUND:It's Going Down Now-bg.png;
#LYRICSPATH:;
#CDTITLE:cdtitle.png;
#MUSIC:It's Going Down Now.ogg;
#OFFSET:0.679900;
#SAMPLESTART:33.963001;
#SAMPLELENGTH:15.000000;
#SELECTABLE:YES;
#BPMS:0.000000=167.999496
;
#STOPS:
;
#BGCHANGES:;
#KEYSOUNDS:;
#ATTACKS:;

//---------------dance-single - ----------------
#NOTES:
     dance-single:
     :
     Beginner:
     2:
     0.100841,0.164836,0.015514,0.240467,0.000000,91.000000,89.000000,2.000000,31.000000,0.000000,0.000000,0.100841,0.164836,0.015514,0.240467,0.000000,91.000000,89.000000,2.000000,31.000000,0.000000,0.000000:
0000
0000
0000
0000
,
0000
0000
0000
0000
,
0000
0000
0000
0000
,
0000
0000
0000
0000
,
0000
0000
0000
0000
,
1000
0000
0000
0000
,
0001
0000
0000
0000
,
0100
0000
0000
0000
,
0010
0000
0000
0000
,
1000
0000
0000
0000
,
0001
0000
0001
0000
,
0001
0000
0000
0000
,
1000
0000
1000
0000
,
1000
0000
0000
0000
,
0010
0000
0010
0000
,
0100
0000
0100
0000
,
0010
0000
0010
0000
,
1000
0000
0000
0000
,
0100
0000
0000
0000
,
0010
0000
0000
0000
,
0001
0000
1000
0000
,
0001
0000
0000
0000
,
0100
0000
0000
0000
,
0010
0000
0000
0000
,
1000
0000
0001
0000
,
2000
0000
0000
0000
,
3000
0000
1000
0000
,
0002
0000
0000
0000
,
0003
0000
0001
0000
,
0020
0000
0030
0000
,
0200
0000
0300
0000
,
2000
0000
3000
0000
,
0002
0000
0003
0000
,
0200
0000
0000
0000
,
0300
0000
0100
0000
,
0020
0000
0030
0000
,
0100
0000
0010
0000
,
2000
0000
3000
0000
,
0002
0000
0003
0000
,
0010
0000
0100
0000
,
0010
0000
0100
0000
,
2000
0000
0000
0000
,
0000
0000
3000
0000
,
0002
0000
0000
0000
,
0000
0000
0003
0000
,
0200
0000
0000
0000
,
0000
0000
0300
0000
,
0020
0000
0000
0000
,
0000
0000
0030
0000
,
2002
0000
0000
0000
,
0000
0000
3003
0000
,
0220
0000
0000
0000
,
0000
0000
0330
0000
,
2000
0000
3000
0000
,
0002
0000
0003
0000
,
0200
0000
0300
0000
,
0010
0000
1000
0000
,
0002
0000
0000
0000
,
0003
0000
0001
0000
,
2000
0000
0000
0000
,
3000
0000
1000
0000
,
0200
0000
0300
0000
,
0020
0000
0030
0000
,
0002
0000
0003
0000
,
2000
0000
3000
0000
,
0020
0000
0000
0000
,
0030
0000
0010
0000
,
0200
0000
0300
0000
,
0010
0000
0100
0000
,
0002
0000
0003
0000
,
2000
0000
3000
0000
,
0100
0000
0010
0000
,
0100
0000
0010
0000
,
0001
0000
0000
0000
,
0001
0000
0000
0000
,
1000
0000
0000
0000
,
1000
0000
0000
0000
,
0010
0000
0000
0000
,
0010
0000
0000
0000
,
0100
0000
0000
0000
,
0100
0000
0000
0000
,
0001
0000
0000
0000
,
1000
0000
0000
0000
,
0010
0000
0000
0000
,
0100
0000
0000
0000
,
0001
0000
0000
0000
;

//---------------dance-single - ----------------
#NOTES:
     dance-single:
     :
     Easy:
     6:
     0.240467,0.329672,0.077570,0.372335,0.000000,217.000000,207.000000,10.000000,48.000000,0.000000,0.000000,0.240467,0.329672,0.077570,0.372335,0.000000,217.000000,207.000000,10.000000,48.000000,0.000000,0.000000:
0000
0000
0000
0000
,
0000
0000
0000
0000
,
0000
0000
0000
0000
,
0000
0000
0000
0000
,
0000
0000
0000
0000
,
1000
0000
0000
0010
0000
0000
1000
0000
,
0000
0100
0000
0000
1000
0000
0000
0000
,
0001
0000
0000
0010
0000
0000
0001
0000
,
0000
0100
0000
0000
0001
0000
0000
0000
,
1000
0010
1000
0000
,
0001
0100
0001
0000
,
0010
0001
0010
0000
,
0100
1000
0100
1000
,
0000
0000
0001
0000
,
1000
0010
0100
0000
,
0001
0010
0100
1000
,
0100
0010
0001
0000
,
1000
0020
0030
1000
,
0000
0000
0001
0000
0000
0010
0000
0200
,
0000
0000
0000
0320
0000
0000
0000
0000
,
0030
0100
1000
1000
,
0001
0002
0000
0000
0000
0000
0000
0103
,
0000
0020
0000
0000
0000
0000
0000
1030
,
0000
0200
0000
0000
0000
0000
0000
0000
,
0310
0100
1000
0001
,
2000
0000
3020
0000
,
0130
0001
1000
0100
,
0020
0000
0032
0000
,
0203
0000
0310
1000
,
1001
0000
0100
0001
,
1001
0000
0010
0010
,
0020
0000
1000
0000
,
0230
0000
0301
1000
,
0002
0000
0023
0000
,
0130
1000
0001
0100
,
0020
0000
0000
0000
0000
1030
0000
0002
,
0000
0000
0023
0000
,
0230
0000
0310
0001
,
2000
0000
3010
0100
,
0001
0000
1000
0000
,
1001
0000
0110
0000
,
1002
0000
0000
0000
,
0000
0000
0000
0000
,
2003
0000
0000
0000
,
0000
0000
0000
0000
,
3200
0000
0000
0000
,
0000
0000
0000
0000
,
0320
0000
0000
0000
,
0000
0000
0000
0000
,
0032
0000
0000
0000
,
0000
0000
0000
0000
,
0203
0000
0000
0000
,
0310
0000
1000
0000
,
0002
0000
0000
0000
,
2003
0000
0000
0000
,
3100
0000
0010
0000
,
0100
0010
0001
1000
,
0002
0100
0203
0010
,
0310
1000
0001
0010
,
0200
1000
2300
0010
,
3020
0100
0130
0001
,
1001
0000
0010
1000
,
1001
0000
0100
0100
,
0200
0010
0001
0010
,
0320
0100
1030
0001
,
2000
0100
3200
0010
,
0310
0001
1000
0010
,
0200
0000
0000
0000
0000
0301
0000
2000
,
0000
0000
3200
0000
,
0320
0000
0130
1000
,
0002
0000
0103
0010
,
1000
0000
0001
0000
,
1001
0000
0110
0000
,
2001
0000
0001
0000
0001
0000
0000
0100
,
0000
0100
0000
0000
0001
0000
3002
0000
,
0203
0000
0010
0000
0010
0000
0000
0001
,
0000
0001
0000
0000
0010
0000
0010
0000
,
0320
0000
0100
0000
0100
0000
0000
1000
,
0000
1000
0000
0000
0100
0000
0230
0000
,
0302
0000
1000
0000
1000
0000
0000
0010
,
0000
0010
0000
0000
1000
0000
1000
0000
,
1003
0000
0100
0000
0100
0000
0000
0010
,
0000
0010
0000
0000
0001
0000
1000
0000
,
0001
0000
0100
0000
0100
0000
0000
0010
,
0000
0010
0000
0000
1000
0000
0001
0000
,
1000
0000
0000
0000
;

//---------------dance-single - ----------------
#NOTES:
     dance-single:
     :
     Medium:
     9:
     0.365687,0.461541,0.147383,0.574017,0.019392,330.000000,311.000000,19.000000,74.000000,0.000000,0.000000,0.365687,0.461541,0.147383,0.574017,0.019392,330.000000,311.000000,19.000000,74.000000,0.000000,0.000000:
0000
0000
0000
0000
,
0000
0000
0000
0000
,
0000
0000
0000
0000
,
0000
0000
0000
0000
,
0000
0000
0000
0000
,
1001
0000
1000
0100
0000
1000
0100
0000
,
0010
0001
0000
0010
0001
0000
1000
0000
,
1001
0000
0001
0100
0000
0001
0100
0000
,
0010
1000
0000
0010
1000
0000
0001
0000
,
1000
0100
0010
0001
,
0100
0010
0100
0000
0001
1000
0001
0000
,
0010
0001
0010
0000
0100
0000
1000
0000
,
0010
1000
0010
0000
0100
0000
0001
1000
,
0000
0000
0200
0320
,
0031
0000
1000
0000
0010
0100
0001
0000
,
0010
0100
1000
0000
0001
0100
0010
0000
,
1000
0100
0010
0001
0010
0100
1000
0000
,
0001
0000
2002
0000
3003
1000
0000
1000
,
0000
0001
0000
0001
0000
0100
0000
0020
,
0000
0000
0000
2030
0000
0000
0000
0000
,
3000
0001
0010
0001
0011
0000
1100
0000
,
1000
2000
0000
0000
0000
0000
0000
3010
,
0000
0200
0000
0000
0000
0000
0000
0301
,
0000
0020
0000
0000
0000
0000
0000
0000
,
0031
0000
0000
0000
1000
0000
0000
0000
0001
0000
0000
0100
0000
0000
0010
0000
,
2000
0100
3002
0010
,
2003
0000
0000
0000
3100
0000
0000
0000
0010
0000
0000
0001
0000
0000
0100
0000
,
0020
1000
0230
0001
,
0320
0000
1000
0000
0130
0000
0001
1000
,
0000
0200
0000
0000
0310
0000
0001
1000
,
0000
0020
0000
0000
0130
0000
0010
0000
,
2000
0000
0001
0000
0100
0000
0000
3002
,
0000
0000
0000
0000
0010
0000
0000
0000
1003
0000
0000
0010
0000
0000
0100
0000
,
0002
1000
0023
0100
,
0032
0013
0100
1000
,
0002
0000
0000
0000
0000
0103
0010
2000
,
0000
0000
3200
0000
,
0320
0000
0000
0031
1000
0010
0000
0200
,
0000
0000
0000
0301
0010
0000
0100
0000
,
2000
0000
3002
0000
,
0203
0010
0320
0100
,
2030
0001
0001
0001
,
0100
0100
0100
0100
,
3002
1000
1000
1000
,
0203
0001
0001
0001
,
0320
0100
0100
0100
,
1000
1000
1000
1000
,
0230
0010
0010
0010
,
0302
0100
0100
0103
,
2002
0000
0000
0000
,
0000
3003
0001
0010
,
0220
0000
0000
0330
,
1100
0000
0011
0000
,
2002
0000
0000
3003
,
2020
0000
0000
3030
,
0101
0000
0110
0000
,
1001
0000
0001
0000
1000
0000
0100
0010
,
0002
0000
1003
0010
2000
0000
3001
0100
,
0002
0000
0000
0000
0103
0000
0000
0000
0010
0000
0000
1000
0000
0000
0100
0000
,
0020
0000
0130
1000
0200
0000
0310
0001
,
0020
0000
0130
1000
0100
0010
0001
1000
,
0000
0020
0000
0000
0130
0010
1000
0001
,
0000
0020
0000
0000
0130
0000
0010
0000
,
0002
0000
1000
0000
0100
0000
0000
2003
,
0000
0000
0000
0000
0010
0000
0000
0000
3001
0000
0000
0010
0000
0000
0100
0000
,
2000
0000
3010
0100
0002
0000
0013
0100
,
2000
3010
0100
0001
,
2000
0000
0000
0000
0000
3100
0010
0002
,
0000
0000
0203
0000
,
0320
0000
0000
1030
0001
0010
0000
0200
,
0000
0000
0000
1300
0010
0000
0100
0000
,
0002
0000
2003
0000
,
3200
0010
0320
0100
,
0032
0000
1000
0000
1000
0000
0000
0100
,
0000
0100
0100
0000
1000
0000
2003
0000
,
3200
0000
0010
0000
0010
0000
0000
1000
,
0000
1000
0000
0010
0010
0000
1000
0000
,
0320
0000
0100
0000
0100
0000
0000
0001
,
0000
0001
0001
0000
0100
0000
0230
0000
,
2300
0000
0001
0000
0001
0000
0000
0010
,
0000
0010
0010
0000
0001
0000
0010
0000
,
3001
0000
0101
0000
1010
0000
0000
1000
,
0000
1000
0010
0000
1000
0000
0002
0000
,
1003
0000
1100
0000
0011
0000
0000
0001
,
0000
0001
0000
0010
0001
0000
0010
0000
,
0110
0000
0000
0000
;

//---------------dance-single - ----------------
#NOTES:
     dance-single:
     :
     Hard:
     13:
     0.530800,0.725278,0.255981,0.729157,0.131869,479.000000,446.000000,33.000000,94.000000,0.000000,0.000000,0.530800,0.725278,0.255981,0.729157,0.131869,479.000000,446.000000,33.000000,94.000000,0.000000,0.000000:
// measure 0
0000
0000
0000
0000
,  // measure 1
0000
0000
0000
0000
,  // measure 2
0000
0000
0000
0000
,  // measure 3
0000
0000
0000
0000
,  // measure 4
0000
0000
0000
0000
,  // measure 5
1002
0000
0013
2000
0000
3001
0200
0000
,  // measure 6
1300
0002
0000
0103
0020
0000
1000
1030
,  // measure 7
2001
0000
3100
0002
0000
1003
0020
0000
,  // measure 8
0031
0000
2000
0000
0000
0000
3010
0000
0200
0000
0000
0000
0301
0000
0001
1000
,  // measure 9
0001
0010
0100
0001
0100
1000
0100
0000
,  // measure 10
0010
0100
0010
0000
0001
0000
0010
0000
1000
0000
0010
0000
0100
0000
1000
0000
,  // measure 11
0010
0000
0100
0001
0100
0000
0001
0000
0010
0000
1000
0000
0010
0000
0001
0000
,  // measure 12
0010
0100
0000
0010
0100
0000
1000
0000
0100
0000
0001
0000
0100
0000
1000
0000
,  // measure 13
0000
0000
0000
0000
0000
0000
0000
0000
0001
0100
0000
0000
0010
0100
0010
0000
,  // measure 14
1000
0000
0010
0000
0001
0000
0010
0000
1000
0100
1000
0100
1000
0000
0000
0000
,  // measure 15
0001
0000
0100
0000
1000
0000
0100
0000
0001
0000
0010
0100
0010
0100
0010
0000
,  // measure 16
0001
0000
1000
0001
1000
0000
0010
0000
0100
0000
0001
0010
0001
0010
0001
0000
,  // measure 17
1000
0000
2002
0000
3003
0001
1000
0100
,  // measure 18
0000
1000
0001
0100
0000
0020
0030
0200
,  // measure 19
0001
0000
0010
0320
1000
0000
0100
0000
,  // measure 20
1030
0000
0100
0000
0010
0000
0001
0000
1000
0010
0000
0000
0100
0001
0000
0000
,  // measure 21
1000
2000
0100
0000
0001
0000
0100
3200
,  // measure 22
0300
0020
0001
0000
0100
0000
0001
0032
,  // measure 23
0003
0200
0010
0000
1000
0000
0010
0000
,  // measure 24
0301
0000
1000
0000
0001
1000
0001
1000
0001
0000
0010
0000
0100
0000
0010
0100
,  // measure 25
2000
0000
3001
0100
0002
0000
1003
0010
,  // measure 26
2000
0000
0000
0000
3100
0000
0010
0000
0100
0000
0000
1000
0000
0000
0010
0000
,  // measure 27
0200
0000
0310
1000
0020
0000
0130
0001
,  // measure 28
0200
0000
0301
1000
0001
0010
0100
2000
,  // measure 29
0000
0010
3020
0000
1030
0100
0010
0002
,  // measure 30
0000
0100
0103
0000
1010
0000
0011
0000
,  // measure 31
2100
0000
0001
0000
0010
0000
0001
3002
,  // measure 32
1000
0000
0000
0000
0103
0000
0001
0000
1000
0000
0100
0000
0010
0000
0100
0010
,  // measure 33
0002
0000
0103
0010
2000
0000
3010
0100
,  // measure 34
0001
0011
1100
0101
,  // measure 35
2010
0000
0001
0000
3010
0100
0001
0020
,  // measure 36
0100
0001
0230
1000
,  // measure 37
0320
0000
0000
0031
0100
0010
0000
2000
,  // measure 38
0000
0000
0000
3100
0020
0000
0032
0000
,  // measure 39
0203
0000
0000
0010
0320
0000
0000
0100
,  // measure 40
0130
0000
0110
0010
0100
0000
1001
1000
,  // measure 41
0002
0000
0000
0023
0000
0000
0230
0000
,  // measure 42
0000
0000
0000
0000
0320
0000
0030
0001
,  // measure 43
2000
0000
3010
0002
0000
2003
0000
3200
,  // measure 44
0000
0000
0000
0000
0000
0000
0310
1000
,  // measure 45
0002
0000
0000
0023
0000
0000
2030
0000
,  // measure 46
0000
0000
0000
3001
0200
0000
2300
0000
,  // measure 47
3020
0000
0000
0230
,  // measure 48
0302
0000
0000
0000
0000
0013
0100
1000
,  // measure 49
2002
0000
0000
0000
,  // measure 50
0000
0000
3003
0000
0001
0000
0100
0010
,  // measure 51
0220
0000
0000
0000
0330
0000
0000
0100
,  // measure 52
0101
0000
0000
0000
1010
0000
0000
0001
,  // measure 53
0022
0000
0000
0000
0033
0000
0000
0010
,  // measure 54
0220
0000
0030
0000
0320
0000
0000
0130
,  // measure 55
1100
0000
0000
0000
0011
0000
0000
1000
,  // measure 56
1001
0000
0000
0000
0001
0000
1000
0001
1000
0000
0010
0000
0100
0000
0010
0100
,  // measure 57
0001
1000
0100
1000
0010
0100
1000
0100
,  // measure 58
0010
0000
0001
0000
0010
0000
1000
0000
0001
0000
0010
0100
0000
0010
0100
0000
,  // measure 59
1000
0001
0100
0001
0010
0100
0001
0100
,  // measure 60
0010
1000
0010
0001
0100
0010
1000
1100
,  // measure 61
0000
0001
0011
0000
1000
0010
0100
0101
,  // measure 62
0000
0010
1010
0000
0020
0000
0230
0000
,  // measure 63
0302
0000
1000
0000
0010
0000
1000
2003
,  // measure 64
0001
0000
0000
0000
3100
0000
1000
0000
0001
0000
0100
0000
0010
0000
0100
0010
,  // measure 65
1000
0100
0001
0100
1000
0001
0010
1000
,  // measure 66
0010
0001
2000
0000
3200
0000
0320
0000
,  // measure 67
0032
0000
1000
0000
0013
0100
1000
0020
,  // measure 68
0100
1000
0230
0001
,  // measure 69
0320
0000
0000
1030
0100
0010
0000
0002
,  // measure 70
0000
0000
0000
0103
0020
0000
2030
0000
,  // measure 71
3200
0000
0000
0010
0320
0000
0000
0100
,  // measure 72
0130
0000
0110
0010
0100
0000
1001
0001
,  // measure 73
2000
0000
0000
0000
0001
0000
0000
0000
3010
0000
1000
0001
2000
0000
0001
0000
,  // measure 74
0000
0100
0100
0000
0001
0000
3002
0000
,  // measure 75
0203
0000
0000
0000
0010
0000
0000
0000
0301
0000
0100
0010
0200
0000
0010
0000
,  // measure 76
0000
1000
0000
0010
0310
0000
0110
0000
,  // measure 77
0020
0000
0000
0000
0100
0000
0000
0000
1030
0000
0010
0100
0020
0000
0100
0000
,  // measure 78
0000
0001
0001
0000
0100
0000
0230
0000
,  // measure 79
0302
0000
0000
0000
1000
0000
0000
0000
0103
0000
0001
1000
0002
0000
1000
0000
,  // measure 80
0000
0000
0010
0000
0013
0000
0011
0000
0001
0000
0100
0010
1000
0000
0100
0010
,  // measure 81
0001
0000
0000
0000
1001
0000
0000
0000
1000
0000
0010
0100
0010
0000
0100
0000
,  // measure 82
0000
0001
0001
0000
0100
0000
0020
0000
,  // measure 83
1030
0000
0000
0000
1001
0000
0000
0000
0001
0000
0010
0100
0010
0000
0100
0000
,  // measure 84
0000
1000
0000
0100
0100
0000
1100
0000
,  // measure 85
0011
0000
0000
0000
;
