#TITLE:Ignition;
#SUBTITLE:(Supra's Edit);
#ARTIST:Audio Magnetics;
#TITLETRANSLIT:;
#SUBTITLETRANSLIT:;
#ARTISTTRANSLIT:;
#GENRE:;
#CREDIT:;
#BANNER:Ignition (Supra's Edit).png;
#BACKGROUND:Ignition (Supra's Edit)-bg.png;
#LYRICSPATH:;
#CDTITLE:cdtitle.png;
#MUSIC:Ignition (Supra's Edit).ogg;
#OFFSET:0.000000;
#SAMPLESTART:54.620998;
#SAMPLELENGTH:15.000000;
#SELECTABLE:YES;
#BPMS:0.000000=145.000000
;
#STOPS:
;
#BGCHANGES:;
#KEYSOUNDS:;
#ATTACKS:;

//---------------dance-single - ----------------
#NOTES:
     dance-single:
     :
     Beginner:
     3:
     0.115188,0.168690,0.042438,0.031828,0.000000,76.000000,72.000000,4.000000,3.000000,0.000000,0.000000,0.115188,0.168690,0.042438,0.031828,0.000000,76.000000,72.000000,4.000000,3.000000,0.000000,0.000000:
// measure 0
0000
0000
0000
0000
,  // measure 1
0000
0000
0000
0000
,  // measure 2
0000
0000
0000
0000
,  // measure 3
0000
0000
0000
0000
,  // measure 4
1000
0000
0000
0000
,  // measure 5
1000
0000
0000
0000
,  // measure 6
0001
0000
0000
0000
,  // measure 7
0001
0000
0000
0000
,  // measure 8
0002
0000
0000
0003
,  // measure 9
0001
0000
0000
0000
,  // measure 10
1000
0000
0000
0000
,  // measure 11
1000
0000
0000
0000
,  // measure 12
1000
0000
0000
0000
,  // measure 13
0010
0010
0000
0000
,  // measure 14
0010
0010
0000
0000
,  // measure 15
0100
0100
0000
0000
,  // measure 16
0100
0100
0000
0000
,  // measure 17
1001
0000
0000
0000
,  // measure 18
1001
0000
0000
0000
,  // measure 19
1001
0000
0000
0000
,  // measure 20
1001
0000
0000
0000
,  // measure 21
1000
0000
0000
0000
,  // measure 22
1000
0000
0000
0000
,  // measure 23
0001
0000
0000
0000
,  // measure 24
0001
0000
0000
0000
,  // measure 25
1000
0000
0000
0000
,  // measure 26
1000
0000
0000
0000
,  // measure 27
0010
0000
0000
0000
,  // measure 28
0010
0000
0000
0000
,  // measure 29
0100
0000
0000
0000
,  // measure 30
0100
0000
0000
0000
,  // measure 31
0001
0000
0000
0000
,  // measure 32
0001
0000
0000
0000
,  // measure 33
1000
1000
0000
0000
,  // measure 34
1000
1000
0000
0000
,  // measure 35
0001
0001
0000
0000
,  // measure 36
0001
0001
0000
0000
,  // measure 37
0010
0000
0010
0000
,  // measure 38
0100
0000
0100
0000
,  // measure 39
0010
0000
0010
0000
,  // measure 40
0200
0000
0000
0300
,  // measure 41
0000
1000
0000
1000
,  // measure 42
0000
1000
0000
1000
,  // measure 43
0000
0001
0000
0001
,  // measure 44
0000
0001
0000
0001
,  // measure 45
0000
0010
0000
0010
,  // measure 46
0000
0010
0000
0010
,  // measure 47
0000
0100
0000
0100
,  // measure 48
0000
0100
0000
0100
,  // measure 49
0000
1000
0000
1000
,  // measure 50
1000
0000
1000
0000
,  // measure 51
0001
0000
0001
0000
,  // measure 52
2000
0000
0000
3000
,  // measure 53
1000
0000
0000
0000
;

//---------------dance-single - ----------------
#NOTES:
     dance-single:
     :
     Easy:
     4:
     0.171266,0.224919,0.084875,0.053047,0.000000,113.000000,105.000000,8.000000,5.000000,0.000000,0.000000,0.171266,0.224919,0.084875,0.053047,0.000000,113.000000,105.000000,8.000000,5.000000,0.000000,0.000000:
// measure 0
0000
0000
0000
0000
,  // measure 1
0000
0000
0000
0000
,  // measure 2
0000
0000
0000
0000
,  // measure 3
0000
0000
0000
0000
,  // measure 4
0010
0000
0000
0000
,  // measure 5
0100
0000
0000
0000
,  // measure 6
0001
0000
1000
0000
,  // measure 7
0001
0000
1000
0000
,  // measure 8
0020
0000
0000
0030
,  // measure 9
0010
0000
0100
0000
,  // measure 10
0010
0000
0100
0000
,  // measure 11
0001
0000
1000
0000
,  // measure 12
0001
0000
0001
0000
,  // measure 13
1000
0000
1000
0000
,  // measure 14
0100
0000
0100
0000
,  // measure 15
0010
0000
0010
0000
,  // measure 16
0002
0000
0000
0003
,  // measure 17
1000
0100
0000
0000
,  // measure 18
0001
0010
0000
0000
,  // measure 19
1000
0100
0000
0000
,  // measure 20
0001
0010
0000
0000
,  // measure 21
0100
1000
0000
0000
,  // measure 22
0010
0001
0000
0000
,  // measure 23
0100
1000
0000
0000
,  // measure 24
0010
0001
0000
0000
,  // measure 25
1000
0000
1000
0000
,  // measure 26
1001
0000
0010
0000
,  // measure 27
0100
0000
0001
0000
,  // measure 28
1001
0000
0000
0000
,  // measure 29
1001
0000
0100
0000
,  // measure 30
1001
0000
0000
0000
,  // measure 31
0110
0000
0000
0000
,  // measure 32
1001
0000
0000
0000
,  // measure 33
0001
1000
0001
0000
,  // measure 34
0010
0000
0010
0000
,  // measure 35
1000
0001
1000
0000
,  // measure 36
0100
0000
0100
0000
,  // measure 37
0010
1000
0100
0000
,  // measure 38
0010
0000
0010
0000
,  // measure 39
0010
0001
0100
0000
,  // measure 40
1002
0000
0000
0003
,  // measure 41
1000
0000
0010
0010
,  // measure 42
0100
0000
0001
0001
,  // measure 43
1000
0000
1000
1000
,  // measure 44
0010
0100
0001
0000
,  // measure 45
0010
1000
0010
0000
,  // measure 46
1000
0010
1000
0000
,  // measure 47
0001
0100
0001
0000
,  // measure 48
0100
0001
0100
0000
,  // measure 49
0010
1000
0100
0000
,  // measure 50
0002
0000
1003
0000
,  // measure 51
2000
0000
3001
0000
,  // measure 52
1000
1000
0001
0001
,  // measure 53
1001
0000
0000
0000
;

//---------------dance-single - ----------------
#NOTES:
     dance-single:
     :
     Medium:
     7:
     0.287970,0.365494,0.021219,0.021219,0.000000,190.000000,188.000000,2.000000,2.000000,0.000000,0.000000,0.287970,0.365494,0.021219,0.021219,0.000000,190.000000,188.000000,2.000000,2.000000,0.000000,0.000000:
// measure 0
0000
0000
0000
0000
,  // measure 1
0000
0000
0000
0000
,  // measure 2
0000
0000
0000
0000
,  // measure 3
0000
0000
0000
0000
,  // measure 4
0010
0000
1000
0000
,  // measure 5
0100
0100
1000
0000
,  // measure 6
0010
0010
0001
0100
,  // measure 7
0001
0001
0010
0000
,  // measure 8
0001
0100
0010
0000
,  // measure 9
1000
0100
1000
0000
0001
0000
0000
0000
,  // measure 10
0001
0100
0001
0000
1000
0000
0000
0000
,  // measure 11
0010
0010
0010
0000
0000
0000
0000
0000
,  // measure 12
0100
0100
0100
0000
0000
0000
0000
0000
,  // measure 13
0010
0010
0010
0000
0001
0000
0001
0000
,  // measure 14
1000
1000
1000
0000
0100
0000
0000
0000
,  // measure 15
0010
0010
0010
0000
0001
0000
0001
0000
,  // measure 16
0100
0001
0100
0000
0010
0100
0010
0000
,  // measure 17
1000
0000
0100
0000
1000
1000
0000
0000
,  // measure 18
0001
0000
0100
0000
0001
0001
0000
0000
,  // measure 19
0010
0000
0100
0000
1000
1000
0000
0000
,  // measure 20
0001
0001
0001
0001
0000
0000
0000
0000
,  // measure 21
0001
0000
0010
0000
0001
0001
0000
0000
,  // measure 22
1000
0000
0010
0000
1000
1000
0000
0000
,  // measure 23
0100
0000
0010
0000
0001
0001
0000
0000
,  // measure 24
1000
1000
1000
1000
0000
0000
0000
0000
,  // measure 25
1000
0010
1000
0010
,  // measure 26
0001
1000
0010
1000
,  // measure 27
0001
0100
0001
0100
,  // measure 28
0001
1000
0100
1000
,  // measure 29
0010
0000
0001
0000
,  // measure 30
1000
0000
0001
0000
,  // measure 31
0100
0000
0000
0000
,  // measure 32
1001
0000
0000
0000
,  // measure 33
0100
1000
1000
1000
,  // measure 34
0001
0010
0001
0001
,  // measure 35
0100
0001
0100
0100
,  // measure 36
1000
0010
1000
1000
,  // measure 37
0100
1000
0001
0001
,  // measure 38
0100
0010
1000
1000
,  // measure 39
0100
0010
0001
0001
,  // measure 40
1000
0100
2000
3000
,  // measure 41
1000
0001
1000
1000
,  // measure 42
0100
0010
0001
0001
,  // measure 43
0010
0100
1000
1000
,  // measure 44
0010
0000
0100
0000
0001
0100
0001
0000
,  // measure 45
1000
0010
0100
0100
,  // measure 46
0001
1000
0010
0010
,  // measure 47
0001
1000
0100
0100
,  // measure 48
1000
0001
0200
0300
,  // measure 49
1000
0000
1000
0000
0100
0100
0100
0000
,  // measure 50
0010
0000
0010
0000
0001
0001
0001
0000
,  // measure 51
0100
0000
0100
0000
0010
0010
0010
0000
,  // measure 52
0010
0100
0001
0000
0010
0100
1000
0000
,  // measure 53
1001
0000
0000
0000
;

//---------------dance-single - ----------------
#NOTES:
     dance-single:
     :
     Hard:
     10:
     0.413767,0.534184,0.148532,0.180360,0.000000,273.000000,259.000000,14.000000,17.000000,0.000000,0.000000,0.413767,0.534184,0.148532,0.180360,0.000000,273.000000,259.000000,14.000000,17.000000,0.000000,0.000000:
// measure 0
0000
0000
0000
0000
,  // measure 1
0000
0000
0000
0000
,  // measure 2
0000
0000
0000
0000
,  // measure 3
0000
0000
0000
0000
,  // measure 4
0002
0000
0100
0103
,  // measure 5
2000
0000
0100
3100
,  // measure 6
0002
0000
1000
0013
,  // measure 7
2000
0000
0001
3010
,  // measure 8
0002
1003
2002
3003
,  // measure 9
2000
3020
0130
0001
,  // measure 10
2000
0000
3020
0000
0130
0001
0001
0000
,  // measure 11
0002
0023
0130
0100
,  // measure 12
1000
1000
0010
0000
0001
0001
0010
0000
,  // measure 13
2000
0000
3100
0000
0010
0100
0010
0100
,  // measure 14
2000
0000
3001
0000
0100
0010
0100
0010
,  // measure 15
2000
0000
3010
0000
0100
0100
0010
0000
,  // measure 16
0001
0010
0001
0010
0100
1000
0100
1000
,  // measure 17
0010
0000
0100
0000
0001
0100
0001
0000
,  // measure 18
0100
0000
0010
0000
1000
0010
1000
0010
,  // measure 19
1000
0000
0001
0000
1000
0100
1000
0000
,  // measure 20
0001
0000
0010
0000
0001
0010
0001
0001
,  // measure 21
1000
0000
0010
0000
0100
0001
0100
0000
,  // measure 22
1000
1000
1000
1000
0100
0000
0100
0000
,  // measure 23
0001
0001
0001
0001
0100
0000
0100
0000
,  // measure 24
1000
1000
0001
0001
0000
0000
0000
0000
,  // measure 25
1001
0000
1000
0100
0000
0100
1000
0010
,  // measure 26
0010
0000
0100
0001
0000
0001
0100
0010
,  // measure 27
0010
0000
1000
0001
0000
0001
1000
0000
,  // measure 28
0010
0100
0010
0100
0001
1000
0001
0000
,  // measure 29
1001
0000
0010
0100
0000
0100
0010
0000
,  // measure 30
0110
0000
0000
0000
,  // measure 31
1001
0000
0000
0000
,  // measure 32
0110
0000
0000
0000
,  // measure 33
0001
0000
1000
0000
0010
1000
0100
0000
,  // measure 34
0010
0000
0001
1000
0100
0000
0010
0000
,  // measure 35
1000
0000
0001
0000
0010
0001
0100
0000
,  // measure 36
0001
0000
0100
0010
1000
0000
0001
0000
,  // measure 37
1000
0100
1000
0100
1000
0000
0001
0000
,  // measure 38
0010
0001
0010
0001
0010
0000
0100
0000
,  // measure 39
1000
0010
1000
0010
1000
0000
0100
0000
,  // measure 40
0001
0100
0001
0100
0002
0000
0000
0003
,  // measure 41
1000
1000
0100
0100
0010
0010
0001
0000
,  // measure 42
1000
1000
0010
0010
0100
0001
1000
0000
,  // measure 43
0001
0001
0010
0010
0100
0100
1000
0000
,  // measure 44
0001
0001
0010
0100
0010
0001
0100
0000
,  // measure 45
0010
0010
1000
0010
1000
0100
0001
0000
,  // measure 46
0010
0010
0001
0010
0001
0100
1000
0000
,  // measure 47
0010
0010
0100
0010
1000
0001
0010
0000
,  // measure 48
0001
0010
0100
0000
1000
0010
0100
0000
,  // measure 49
1100
0101
1010
0011
,  // measure 50
1010
1000
1010
0000
0011
0001
0011
0000
,  // measure 51
1000
0100
1000
0100
1000
0100
1000
0100
,  // measure 52
0010
0001
0100
0010
1000
0001
0100
0010
,  // measure 53
1000
0000
0000
0000
;

//---------------dance-double - ----------------
#NOTES:
     dance-double:
     :
     Beginner:
     3:
     0.109125,0.140575,0.000000,0.031828,0.000000,72.000000,72.000000,0.000000,3.000000,0.000000,0.000000,0.109125,0.140575,0.000000,0.031828,0.000000,72.000000,72.000000,0.000000,3.000000,0.000000,0.000000:
00000000
00000000
00000000
00000000
,
00000000
00000000
00000000
00000000
,
00000000
00000000
00000000
00000000
,
00000000
00000000
00000000
00000000
,
10000000
00000000
00000000
00000000
,
10000000
00000000
00000000
00000000
,
01000000
00000000
00000000
00000000
,
01000000
00000000
00000000
00000000
,
00020000
00000000
00000000
00030000
,
00010000
00000000
00000000
00000000
,
00001000
00000000
00000000
00000000
,
00001000
00000000
00000000
00000000
,
00001000
00000000
00000000
00000000
,
00010000
00010000
00000000
00000000
,
00001000
00001000
00000000
00000000
,
00000100
00000100
00000000
00000000
,
00000010
00000010
00000000
00000000
,
00000001
00000000
00000000
00000000
,
00000001
00000000
00000000
00000000
,
00001000
00000000
00000000
00000000
,
00001000
00000000
00000000
00000000
,
00000001
00000000
00000000
00000000
,
00000001
00000000
00000000
00000000
,
00000100
00000000
00000000
00000000
,
00000100
00000000
00000000
00000000
,
00001000
00000000
00000000
00000000
,
00001000
00000000
00000000
00000000
,
00010000
00000000
00000000
00000000
,
00010000
00000000
00000000
00000000
,
01000000
00000000
00000000
00000000
,
01000000
00000000
00000000
00000000
,
10000000
00000000
00000000
00000000
,
10000000
00000000
00000000
00000000
,
00100000
00100000
00000000
00000000
,
01000000
01000000
00000000
00000000
,
00100000
00100000
00000000
00000000
,
01000000
01000000
00000000
00000000
,
00010000
00000000
00010000
00000000
,
10000000
00000000
10000000
00000000
,
01000000
00000000
01000000
00000000
,
00020000
00000000
00000000
00030000
,
00000000
00001000
00000000
00001000
,
00000000
00001000
00000000
00001000
,
00000000
00000010
00000000
00000010
,
00000000
00000010
00000000
00000010
,
00000000
00000001
00000000
00000001
,
00000000
00000001
00000000
00000001
,
00000000
00000100
00000000
00000100
,
00000000
00000100
00000000
00000100
,
00000000
00000001
00000000
00000001
,
00000001
00000000
00000100
00000000
,
00001000
00000000
00001000
00000000
,
00020000
00000000
00000000
00030000
,
00010000
00000000
00000000
00000000
;

//---------------dance-double - ----------------
#NOTES:
     dance-double:
     :
     Easy:
     4:
     0.163688,0.224919,0.063656,0.053047,0.000000,108.000000,102.000000,6.000000,5.000000,0.000000,0.000000,0.163688,0.224919,0.063656,0.053047,0.000000,108.000000,102.000000,6.000000,5.000000,0.000000,0.000000:
00000000
00000000
00000000
00000000
,
00000000
00000000
00000000
00000000
,
00000000
00000000
00000000
00000000
,
00000000
00000000
00000000
00000000
,
10000000
00000000
00000000
00000000
,
01000000
00000000
00000000
00000000
,
00010000
00000000
00001000
00000000
,
00010000
00000000
00001000
00000000
,
00020000
00000000
00000000
00030000
,
00002000
00000000
00000000
00003000
,
00000100
00000000
00000001
00000000
,
00001000
00000000
00000001
00000000
,
00000100
00000000
00001000
00000000
,
00010000
00000000
00010000
00000000
,
01000000
00000000
01000000
00000000
,
00100000
00000000
00100000
00000000
,
00020000
00000000
00000000
00030000
,
10000000
01000000
00000000
00000000
,
00010000
00001000
00000000
00000000
,
00000100
00000001
00000000
00000000
,
00000010
00001000
00000000
00000000
,
00010000
01000000
00000000
00000000
,
10000000
00100000
00000000
00000000
,
00010000
00001000
00000000
00000000
,
00000100
00000001
00000000
00000000
,
00001000
00000000
00001000
00000000
,
00001001
00000000
00000100
00000000
,
00001000
00000000
00010000
00000000
,
00011000
00000000
00000000
00000000
,
00010000
00000000
00010000
00000000
,
10000000
00000000
00000000
00000000
,
01100000
00000000
00000000
00000000
,
00011000
00000000
00000000
00000000
,
00000010
00000100
00000010
00000000
,
00000100
00000000
00000100
00000000
,
00001000
00010000
00001000
00000000
,
00010000
00000000
00010000
00000000
,
00100000
01000000
00100000
00000000
,
01000000
00000000
01000000
00000000
,
10000000
00010000
10000000
00000000
,
10010000
00000000
00000000
00000000
,
00010000
00000000
00001000
00000000
,
00010000
00000000
00000010
00000000
,
00000100
00000000
00000001
00000001
,
00001000
00000001
00000100
00000000
,
00001000
00010000
00001000
00000000
,
00100000
00010000
00100000
00000000
,
10000000
01000000
10000000
00000000
,
00010000
01000000
00010000
00000000
,
00001000
00010000
00001000
00000000
,
00000200
00000000
00001300
00000000
,
00000002
00000000
00001003
00000000
,
00000001
00000001
00001000
00001000
,
00001001
00000000
00000000
00000000
;

//---------------dance-double - ----------------
#NOTES:
     dance-double:
     :
     Medium:
     7:
     0.292516,0.365494,0.053047,0.021219,0.000000,193.000000,188.000000,5.000000,2.000000,0.000000,0.000000,0.292516,0.365494,0.053047,0.021219,0.000000,193.000000,188.000000,5.000000,2.000000,0.000000,0.000000:
00000000
00000000
00000000
00000000
,
00000000
00000000
00000000
00000000
,
00000000
00000000
00000000
00000000
,
00000000
00000000
00000000
00000000
,
00000001
00000000
00000100
00000000
,
00001000
00001000
00010000
00000000
,
00010000
00010000
00001000
00010000
,
00100000
00100000
10000000
00000000
,
10010000
10010000
10010000
00000000
,
00100000
01000000
00100000
00000000
00010000
00000000
00000000
00000000
,
00000010
00000100
00000010
00000000
00001000
00000000
00000000
00000000
,
00010000
00010000
00010000
00000000
00000000
00000000
00000000
00000000
,
00001000
00001000
00001000
00000000
00000000
00000000
00000000
00000000
,
00000100
00000100
00000100
00000000
00000001
00000000
00000001
00000000
,
00001000
00001000
00001000
00000000
00000010
00000000
00000000
00000000
,
00010000
00010000
00010000
00000000
00001000
00000000
00001000
00000000
,
01000000
00010000
01000000
00000000
01000000
00100000
01000000
00000000
,
10000000
00000000
01000000
00000000
00010000
00010000
00000000
00000000
,
00001000
00000000
00000100
00000000
00000001
00000001
00000000
00000000
,
00001000
00000000
00000100
00000000
00010000
00010000
00000000
00000000
,
00001000
00010000
00001000
00010000
00000000
00000000
00000000
00000000
,
00100000
00000000
00010000
00000000
10000000
10000000
00000000
00000000
,
00010000
00000000
01000000
00000000
00001000
00001000
00000000
00000000
,
00010000
00000000
00000010
00000000
00000100
00000100
00000000
00000000
,
00000001
00001000
00000001
00001000
00000000
00000000
00000000
00000000
,
00000100
00001000
00000100
00001000
,
00010000
00001000
00010000
00001000
,
01000000
00010000
01000000
00010000
,
10000000
01000000
10000000
01000000
,
00100000
00000000
00001000
00000000
,
00010000
00000000
00000010
00000000
,
00000100
00000000
00000000
00000000
,
00001001
00000000
00000000
00000000
,
00000001
00000100
00000100
00000100
,
00001000
00010000
01000000
01000000
,
10000000
00010000
10000000
10000000
,
00100000
00010000
00001000
00001000
,
00010000
00000100
00000010
00000010
,
00000001
00000100
00001000
00010000
,
01000000
10000000
01000000
01000000
,
00010000
00001000
00020000
00030000
,
00000010
00000100
00000001
00000001
,
00001000
00000100
00010000
00010000
,
00001000
00100000
01000000
01000000
,
10000000
00000000
00010000
00000000
10000000
01000000
10000000
00000000
,
00010000
01000000
00001000
00001000
,
00010000
00000100
00000010
00000010
,
00000001
00000100
00001000
00001000
,
00010000
00001000
00020000
00030000
,
00100000
00000000
00100000
00000000
01000000
01000000
01000000
00000000
,
10000000
00000000
10000000
00000000
00010000
00010000
00010000
00000000
,
10000000
00000000
01000000
00000000
00010000
00010000
00010000
00000000
,
00000010
00001000
00000100
00000000
00000010
00000001
00000100
00000000
,
00001001
00000000
00000000
00000000
;

//---------------dance-double - ----------------
#NOTES:
     dance-double:
     :
     Hard:
     11:
     0.407704,0.477954,0.106094,0.148532,0.000000,269.000000,259.000000,10.000000,14.000000,0.000000,0.000000,0.407704,0.477954,0.106094,0.148532,0.000000,269.000000,259.000000,10.000000,14.000000,0.000000,0.000000:
00000000
00000000
00000000
00000000
,
00000000
00000000
00000000
00000000
,
00000000
00000000
00000000
00000000
,
00000000
00000000
00000000
00000000
,
20000000
00000000
01000000
30010000
,
00200000
00000000
00010000
00301000
,
00020000
00000000
00001000
00030010
,
00002000
00000000
00000100
00003001
,
00000100
00001000
00022000
00033000
,
00100000
00010000
20000000
30000000
,
01000000
00000000
00010000
00000000
00002000
00010000
00013000
00000000
,
00000200
00000320
00000031
00000100
,
00001000
00001000
00010000
00000000
00010000
00010000
00001000
00000000
,
00200000
00000000
00310000
00000000
10000000
01000000
10000000
01000000
,
20000000
00000000
30010000
00000000
01000000
00010000
01000000
00010000
,
02000000
00000000
03001000
00000000
00010000
00010000
00001000
00000000
,
00000100
00000010
00000100
00000010
00001000
00000001
00001000
00000001
,
00000000
00000000
00000100
00000000
00001000
00010000
00001000
00000000
,
01000000
00000000
00100000
00000000
10000000
00100000
10000000
00100000
,
10000000
00000000
01000000
00000000
00010000
00001000
00010000
00000000
,
00000010
00000000
00001000
00000000
00000100
00000010
00000001
00000001
,
00001000
00000000
00000001
00000000
00000100
00001000
00010000
00000000
,
00001000
00010000
01000000
10000000
10000000
00000000
01000000
00000000
,
00010000
00001000
00000100
00000001
00000001
00000000
00000010
00000000
,
00001000
00010000
01000000
10000000
00000000
00000000
00000000
00000000
,
10010000
00000000
10000000
01000000
00000000
01000000
00010000
00001000
,
00001000
00000000
00000100
00000001
00000000
00000010
00001000
00010000
,
00010000
00000000
00000010
00000100
00000000
00001000
00010000
00000000
,
00100000
01000000
00100000
10000000
01000000
00010000
00001000
00000000
,
00011000
00000000
00000010
00001000
00000000
00001000
00000100
00000000
,
00000110
00000000
00000000
00000000
,
01100000
00000000
00000000
00000000
,
00011000
00000000
00000000
00000000
,
00000010
00000000
00000100
00000000
00000001
00000100
00001000
00000000
,
00010000
00000000
00100000
10000000
01000000
00000000
00010000
00000000
,
00001000
00000000
00100000
00000000
00010000
10000000
01000000
00000000
,
00010000
00000000
00001000
00000100
00000001
00000000
00001000
00000000
,
00000001
00000100
00000001
00000100
00001000
00000000
00010000
00000000
,
00001000
00010000
00001000
00010000
00100000
00000000
10000000
00000000
,
01000000
00010000
01000000
00010000
00001000
00000000
00000100
00000000
,
00000010
00000100
00000010
00000100
00002000
00000000
00000000
00003000
,
00000001
00001000
00000001
00000100
00001000
00010000
00010000
00000000
,
00001000
00010000
00001000
00100000
00010000
01000000
01000000
00000000
,
10000000
00010000
10000000
01000000
00010000
00001000
00001000
00000000
,
00010000
00001000
00010000
00000100
00000010
00000001
00000001
00000000
,
00001000
00000001
00000100
00001000
00010000
01000000
10000000
00000000
,
00010000
10000000
00100000
00010000
00001000
00000010
00000001
00000000
,
00000100
00000010
00001000
00000100
00010000
00001000
00100000
00000000
,
01000000
00100000
00010000
00000000
10000000
01000000
00010000
00000000
,
00011000
00010100
00001100
00000011
,
00000001
00000100
00001000
00000100
00000001
00000100
00001000
00010000
,
00100000
10000000
00100000
00010000
00100000
10000000
00100000
00010000
,
00001000
00000100
00000001
00000010
00001000
00010000
01000000
10000000
,
00100000
00000000
00000000
00000000
;

//---------------dance-single - ----------------
#NOTES:
     dance-single:
     :
     Challenge:
     14:
     0.688096,0.815333,0.328892,0.180360,0.397853,454.000000,423.000000,31.000000,17.000000,0.000000,0.000000,0.688096,0.815333,0.328892,0.180360,0.397853,454.000000,423.000000,31.000000,17.000000,0.000000,0.000000:
// measure 0
0000
0000
0000
0000
,  // measure 1
0000
0000
0000
0000
,  // measure 2
0000
0000
0000
0000
,  // measure 3
0000
0000
0000
0000
,  // measure 4
0020
0000
0000
0000
,  // measure 5
0230
0000
0000
0000
0300
0000
0010
1000
0000
0010
1000
0000
0100
0000
1000
0000
,  // measure 6
0020
0000
0000
0000
0030
0000
0100
0001
0000
0100
0001
0000
0010
0000
0001
0000
,  // measure 7
2000
0000
0000
0000
3000
0000
0100
1000
0000
0010
1000
0000
0100
0000
0010
0000
,  // measure 8
0001
0000
0001
0000
0001
0000
0001
0000
1000
0100
1000
0100
1000
0100
1000
0100
,  // measure 9
0010
0000
0010
0000
0010
0000
0100
1000
0000
0100
1000
0000
0010
0000
0100
0000
,  // measure 10
0001
0000
0001
0000
0001
0000
0010
0100
0000
0010
0100
0000
1000
0000
0010
0000
,  // measure 11
0100
0000
0100
0000
0100
0000
0001
0010
0000
0001
0010
0000
0100
0000
1000
0000
,  // measure 12
0010
0000
0010
0000
0010
0000
1000
0100
0000
1000
0010
0000
1000
0000
0001
0000
,  // measure 13
0010
0000
0010
0000
0010
0000
0010
0001
0000
0001
0100
0000
0010
0000
1000
0000
,  // measure 14
0100
0000
0100
0000
0100
0000
0100
1000
0000
1000
0010
0000
0100
0000
0001
0000
,  // measure 15
1000
0000
1000
0000
1000
0000
1000
0100
0000
0100
0010
0000
0001
0000
0100
0000
,  // measure 16
0001
0000
0001
0000
0001
0000
0001
0000
1000
0100
1000
0100
1000
0100
1000
0100
,  // measure 17
0010
0010
0011
0001
1000
0100
1100
0000
,  // measure 18
0010
0010
1010
1000
0001
0010
0011
0000
,  // measure 19
0100
0100
0110
0010
1000
0001
1001
0000
,  // measure 20
0001
0001
0011
0100
1000
0010
0101
0000
,  // measure 21
1000
0000
0000
0010
1000
0000
0001
0000
0010
0000
0001
0000
0101
0000
0000
0000
,  // measure 22
0010
0000
0000
1000
0100
0000
1000
0000
0001
0000
0010
0000
0011
0000
0000
0000
,  // measure 23
0001
0000
0000
0100
0010
0000
0100
0000
0001
0000
0010
0000
0110
0000
0000
0000
,  // measure 24
1000
0000
0000
0100
1000
0000
0010
0000
0100
0000
0001
0000
1001
0000
0000
0000
,  // measure 25
1000
0000
0000
0001
0010
0001
0010
0000
0000
0000
0001
0000
0101
0000
0100
0010
,  // measure 26
0100
0000
0000
0010
1000
0010
1000
0000
0000
0000
0100
0000
1100
0000
1000
0010
,  // measure 27
1000
0000
0000
0001
0010
0100
0010
0000
0000
0000
0001
0000
0011
0000
0010
0100
,  // measure 28
1000
0000
0000
0010
0100
0010
1000
0000
0000
0000
0001
0000
0101
0000
0100
0010
,  // measure 29
1000
0000
0000
0100
0010
0001
1000
0000
0000
0000
0010
0000
0110
0000
0100
0001
,  // measure 30
1000
0010
0100
0001
0010
0100
1000
0001
,  // measure 31
1000
0100
1000
0000
0010
0100
0010
0000
0100
0001
0100
0000
0001
0010
0001
0000
,  // measure 32
1000
0010
1000
0010
1000
0010
1000
0010
1000
0001
1000
0001
1000
0001
1000
0001
,  // measure 33
0010
0100
1000
0001
0010
0001
0100
0001
,  // measure 34
0010
1000
0010
0100
1000
0010
0100
0010
,  // measure 35
1000
0100
0001
0100
0010
0001
1000
0001
,  // measure 36
0100
0010
0001
0010
1000
0100
0010
0001
,  // measure 37
1000
0010
0100
0010
2000
0100
3002
0100
,  // measure 38
0013
1000
0010
0100
0002
0010
2003
0010
,  // measure 39
3100
0001
0010
0100
0020
0001
0230
1000
,  // measure 40
0310
0000
0010
0000
0010
0000
0010
0000
0100
1000
0100
1000
0100
1000
0100
1000
,  // measure 41
0001
0010
0100
0010
0011
0001
0101
0001
,  // measure 42
0010
1000
0010
0100
1100
1000
1010
1000
,  // measure 43
0100
0001
0100
1000
1010
0010
0110
0010
,  // measure 44
0100
0001
0010
0100
1100
1000
0010
1000
,  // measure 45
0100
1000
0010
0100
0201
0310
1200
0310
,  // measure 46
0001
0010
1000
0010
0021
0130
1020
0130
,  // measure 47
0010
1000
0100
0010
0012
0103
2100
3010
,  // measure 48
0100
0010
1000
0001
0012
1000
0100
0013
,  // measure 49
0001
1000
0100
1000
0010
0100
0010
1000
,  // measure 50
0001
0001
0010
0010
0100
0100
1000
1000
,  // measure 51
0010
0100
0001
0000
0010
0100
1000
0000
0001
0010
0100
0000
1000
0010
0100
0000
,  // measure 52
0001
0010
0001
0010
0100
1000
0100
1000
0001
0010
0100
0010
0001
1000
0100
0010
,  // measure 53
0100
0000
0000
0000
;
