#TITLE:Hyper Bomb;
#SUBTITLE:(Supra's Edit);
#ARTIST:Yunosuke;
#TITLETRANSLIT:;
#SUBTITLETRANSLIT:;
#ARTISTTRANSLIT:;
#GENRE:;
#CREDIT:;
#BANNER:Hyper Bomb (Supra's Edit).png;
#BACKGROUND:Hyper Bomb (Supra's Edit)-bg.png;
#LYRICSPATH:;
#CDTITLE:cdtitle.png;
#MUSIC:Hyper Bomb (Supra's Edit).ogg;
#OFFSET:0.000000;
#SAMPLESTART:85.500000;
#SAMPLELENGTH:15.000000;
#SELECTABLE:YES;
#BPMS:0.000000=160.000000
;
#STOPS:
;
#BGCHANGES:;
#KEYSOUNDS:;
#ATTACKS:;

//---------------dance-single - ----------------
#NOTES:
     dance-single:
     :
     Beginner:
     3:
     0.162907,0.287171,0.131579,0.026316,0.000000,130.000000,115.000000,15.000000,3.000000,0.000000,0.000000,0.162907,0.287171,0.131579,0.026316,0.000000,130.000000,115.000000,15.000000,3.000000,0.000000,0.000000:
0000
0000
0000
0000
,
0000
0000
0000
0000
,
0000
0000
0000
0000
,
0000
0000
0000
0000
,
0000
0000
0000
0000
,
0001
0000
0000
0000
,
0001
0000
0000
0000
,
1000
0000
0000
0000
,
1000
0000
0000
0000
,
0001
0000
0010
0000
,
0001
0000
0001
0000
,
0100
0000
0010
0000
,
1000
0000
0000
0000
,
1000
0000
0010
0000
,
1000
0000
1000
0000
,
0100
0000
0010
0000
,
0001
0000
0000
0000
,
0001
0000
0010
0000
,
0001
0000
0010
0000
,
1000
0000
1000
0000
,
1000
0000
0000
0000
,
1000
0000
0010
0000
,
1000
0000
0010
0000
,
0001
0000
0001
0000
,
0001
0000
0000
0000
,
1001
0000
0000
0000
,
0001
0001
0001
0000
,
1001
0000
0000
0000
,
1000
1000
1000
0000
,
1001
0000
0000
0000
,
1001
0000
0000
0000
,
0010
0000
0100
0000
,
1000
0000
0000
0000
,
2000
0000
0000
0000
,
3000
0000
0000
0000
,
0002
0000
0000
0000
,
0003
0000
0000
0000
,
0001
0000
0100
0000
,
1000
0000
0000
0000
,
0001
0000
0010
0000
,
1000
0000
0000
0000
,
1000
0000
0010
0000
,
0100
0000
0010
0000
,
1000
0000
0100
0000
,
0001
0000
0000
0000
,
0001
0000
0010
0000
,
0100
0000
0010
0000
,
0001
0000
0100
0000
,
1000
0000
0000
0000
,
1001
0000
0000
0000
,
0000
0000
0000
0000
,
1001
0000
0000
0000
,
0000
0000
0000
0000
,
1000
1000
1000
0000
,
0010
0010
0010
0000
,
0001
0001
0001
0000
,
1001
0000
0000
0000
,
1001
0000
1001
0000
,
0010
0010
0100
0000
,
1001
0000
1001
0000
,
0100
0100
0010
0000
,
0001
0000
0010
0000
,
1000
0000
0100
0000
,
1000
0000
0010
0000
,
0001
0000
0000
0000
,
1001
0000
1001
0000
,
0100
0100
0010
0000
,
1001
0000
1001
0000
,
0010
0010
0100
0000
,
1000
0000
0100
0000
,
0001
0000
0010
0000
,
2000
0000
3000
0000
,
0010
0010
0010
0010
;

//---------------dance-single - ----------------
#NOTES:
     dance-single:
     :
     Easy:
     7:
     0.304511,0.446711,0.394737,0.236842,0.000000,243.000000,198.000000,45.000000,27.000000,0.000000,0.000000,0.304511,0.446711,0.394737,0.236842,0.000000,243.000000,198.000000,45.000000,27.000000,0.000000,0.000000:
0000
0000
0000
0000
,
0000
0000
0000
0000
,
0000
0000
0000
0000
,
0000
0000
0000
0000
,
0000
0000
0000
0000
,
1001
0000
0000
0000
,
0000
0000
0000
0000
,
0110
0000
0000
0000
,
0001
1000
0001
1000
,
0010
1000
1001
0000
,
0010
0001
1001
0000
,
0100
1000
0110
0000
,
0100
0001
0110
0000
,
0001
0001
0101
0101
,
1000
1000
1100
1100
,
1001
0000
0110
0000
,
2002
0000
3003
0000
,
0001
0010
0001
0010
,
1000
0010
1000
0010
,
0001
0010
0001
0010
,
1000
0010
2002
3003
,
0001
0100
0001
0100
,
1000
0100
1000
0100
,
0001
0010
0100
1000
,
0220
0000
0330
0000
,
0001
0001
0110
0110
,
1000
1000
0101
0101
,
0010
0010
1001
1001
,
0100
0100
1010
1010
,
1000
0100
0001
0001
,
0100
1000
0001
1000
,
0001
0100
0010
1000
,
0002
0003
2000
3000
,
2002
0000
0000
0000
,
0000
0000
0000
0000
,
3003
0000
0000
0000
,
0000
0000
0000
0000
,
0001
0100
0100
0001
,
1000
0010
0010
1000
,
0001
1000
0001
1000
,
0020
0030
0100
0100
,
0001
0010
1000
0010
,
0001
1000
0001
0000
,
1000
0010
0001
0010
,
1000
1000
0001
0001
,
0000
1001
0000
0110
,
0000
1001
0000
0110
,
0110
0000
1001
0000
,
1000
0100
0010
0001
,
1001
0000
0000
0000
,
0000
0000
0000
0000
,
0010
0010
0010
0000
0000
0000
0000
0000
,
2002
0000
3003
0000
,
1000
0010
0100
0001
,
1000
0100
0010
0001
,
0100
0010
1000
0001
,
2002
0000
0000
3003
,
0100
0001
0011
0011
,
0100
1000
1010
1010
,
2002
3003
0010
0100
,
0001
0010
0100
1000
,
2000
3000
0020
0030
,
0200
0300
0002
0003
,
1000
0100
0010
0001
,
0011
0000
1001
0000
,
0010
1000
1100
1100
,
0010
0001
0101
0101
,
2002
3003
0100
0010
,
1000
0100
0010
0001
,
0002
0003
0200
0300
,
0020
0030
2000
3000
,
0001
0010
0100
1000
,
0100
0100
0100
0100
;

//---------------dance-single - ----------------
#NOTES:
     dance-single:
     :
     Medium:
     11:
     0.530075,0.701974,0.850877,0.192982,0.065789,423.000000,326.000000,97.000000,22.000000,0.000000,0.000000,0.530075,0.701974,0.850877,0.192982,0.065789,423.000000,326.000000,97.000000,22.000000,0.000000,0.000000:
0000
0000
0000
0000
,
0000
0000
0000
0000
,
0000
0000
0000
0000
,
0000
0000
0000
0000
,
0000
0000
0000
0000
,
0001
1000
0000
0000
0000
0000
0000
0000
,
0000
0000
0000
0000
0000
0000
0000
0010
,
0100
0010
0000
0000
0000
0000
0000
0000
,
0011
1010
0011
1001
,
0000
0011
0000
0011
0000
0101
0000
0101
,
0000
0011
0000
0011
0000
1010
0000
1010
,
0000
1100
0000
1100
0000
1010
0000
1010
,
0000
0110
0000
0110
0000
1001
0000
1001
,
0001
0100
0001
0000
1000
0100
1000
0000
,
0001
0100
0001
0000
1000
0100
1000
0000
,
0010
0100
0010
0100
0010
0100
0010
0100
,
0010
0010
0010
1001
,
0001
0010
0100
0010
0001
0010
1000
0010
,
0001
0011
0100
0101
,
1000
0010
0100
0010
1000
0010
0001
0010
,
1000
1010
2002
3003
,
0001
0100
0010
0100
1000
0100
0010
0100
,
0001
0011
0110
1001
,
1000
0010
1000
0010
0100
0001
0100
0001
,
1000
0000
0000
0001
0000
0000
2002
0000
0000
0000
0000
0000
3003
0000
0000
0000
,
0010
0001
0011
0000
0100
0001
1001
0000
,
0010
1000
1010
0000
0100
1000
1001
0000
,
0110
0100
0101
0000
0110
0100
1100
0000
,
0011
0001
0101
0000
1010
1000
1100
0000
,
0010
0000
0000
0001
0000
0000
0100
0000
1001
0000
0000
0000
0010
0000
0000
1000
,
0000
0100
1001
0000
0110
0000
1001
0000
,
1000
0100
1000
0100
0010
0001
0010
0210
,
0000
0000
1300
0000
,
2002
0000
0000
0000
,
0000
0000
0000
0000
,
3003
0000
0000
0000
,
0000
0000
0000
0000
,
0110
0000
0000
0000
0110
0000
0000
0000
1001
0000
0000
0001
0000
0000
0010
0000
,
1001
0000
0000
1000
0000
0000
0010
0000
2002
0000
0000
0000
3003
0000
0000
0000
,
0001
0100
1000
0100
0001
0010
1000
0010
,
0001
0000
0000
0001
0000
0000
1000
0000
0000
1000
0000
0000
1001
0000
0000
0000
,
0001
0100
0010
1000
0001
0100
0010
1000
,
0001
0010
0100
0010
0001
0000
1001
0000
,
1000
0100
0010
0100
0010
0001
1000
0000
,
0010
0000
0010
1000
0000
0000
0001
0000
0001
0100
0000
0000
,
0001
1001
0000
0110
,
1000
1001
0000
0110
,
1001
0000
0000
1000
0000
1000
0100
0000
0000
0010
0000
0010
,
0001
0000
0000
0100
0000
0100
0020
0000
0000
2030
0000
0000
,
3001
1000
0000
0000
0000
0000
0000
0000
,
0000
0000
0000
0000
0000
0000
0000
0010
,
0100
0100
0100
0000
0001
0010
0000
2002
,
0000
3003
0110
1001
,
0001
1000
0100
1000
0010
0000
0110
0000
,
1000
0001
0100
0001
0010
0000
0110
0000
,
0001
1000
0010
0100
0001
1000
0010
0100
,
0020
0000
0100
0130
,
0110
0000
1001
0000
0001
0010
0100
1000
,
0110
0000
1001
0000
1000
0010
0100
0001
,
0110
0000
1001
0000
0001
0010
0100
0010
,
0011
0101
1010
1100
,
0210
1300
0210
0301
,
0120
0031
0120
1030
,
0010
0100
0001
1000
0100
0010
0001
1001
,
0000
1010
0000
0011
0000
1010
0000
0011
,
1001
0000
0110
0000
0100
0010
0001
0100
,
1001
0000
0110
0000
0100
0010
1000
0100
,
1001
0000
0110
0000
1000
0010
0001
0010
,
1010
1100
0101
0011
,
1002
0103
2001
3100
,
1002
0013
2001
3010
,
0010
1000
0100
0010
0001
0100
0010
1000
,
0001
0000
0001
1000
0000
1000
0001
0000
0001
1000
0000
0000
;

//---------------dance-single - ----------------
#NOTES:
     dance-single:
     :
     Hard:
     15:
     0.695489,0.829605,0.877193,0.210526,0.486842,555.000000,455.000000,100.000000,24.000000,0.000000,0.000000,0.695489,0.829605,0.877193,0.210526,0.486842,555.000000,455.000000,100.000000,24.000000,0.000000,0.000000:
0000
0000
0000
0000
,
0000
0000
0000
0000
,
0000
0000
0000
0000
,
0000
0000
0000
0000
,
0000
0000
0000
0000
,
0011
1001
0000
0000
0000
0000
0000
0000
,
0000
0000
0000
0000
0000
0000
0000
0010
,
1010
1001
0000
0000
0000
0000
0000
0000
,
0002
0000
0000
0000
2003
0000
0000
0000
3001
0000
0010
0100
0010
0000
0000
0000
,
0000
0101
0000
1100
0000
0101
0000
1100
,
0000
0011
0000
1010
0000
0011
0000
1010
,
0000
0011
0000
1100
0000
0011
0000
1100
,
0000
0101
0000
1010
0000
0101
0000
1010
,
1000
0000
0100
0000
1000
0100
0010
0000
0001
0000
0100
0000
0001
0100
0010
0000
,
1000
0000
0100
0000
1000
0100
0010
0000
0001
0000
0100
0000
0001
0100
0010
0000
,
1000
0100
0010
0000
0100
0010
0001
0000
0100
0010
0100
0010
1000
0001
1000
0001
,
0100
0100
0100
1001
,
1000
0000
0001
0000
0010
0001
0000
1001
0000
0000
0001
0000
0010
0000
0100
0000
,
1000
0000
0001
0000
1000
0010
0000
0000
1000
0001
0000
1000
0002
0000
0003
0000
,
1000
0000
0001
0000
0100
0001
0000
1001
0000
0000
1000
0000
0100
0000
0010
0000
,
0001
0100
0001
0000
1000
0010
1000
0000
0002
0000
0000
1000
0000
0000
1003
0000
,
0010
0000
0100
0000
0001
0100
0000
0101
0000
0000
0100
0000
0001
0000
0010
0000
,
0100
0000
1000
0000
0010
1000
0000
0000
0010
0100
0000
0010
0200
0000
0300
0000
,
0001
0000
1000
0010
0100
0000
0001
0010
0100
0000
1000
0010
0100
0000
0001
0000
,
0101
0000
0000
1100
0000
0000
2002
0000
0000
0000
0000
0000
3003
0000
0000
0000
,
1001
0100
0110
0001
1001
0010
0110
1000
,
1001
0100
0110
0001
1001
0010
0110
0000
,
0011
0001
0101
1000
1100
1000
1010
0001
,
0011
0001
0101
1000
1100
0010
0110
0000
,
0011
0000
0000
0001
0100
0000
0010
0000
1010
0000
0000
0000
1010
0000
0000
1000
,
0100
0010
0011
0000
0110
0000
1001
0000
,
1000
0100
1000
0100
0010
0001
0010
0001
0100
0000
0010
0000
0100
0000
0210
0000
,
0000
1300
0001
1000
,
2002
0000
0000
0000
,
0000
0000
0000
0000
,
3003
0000
0000
0000
,
0000
0000
0000
0000
,
0011
0000
0000
0000
1001
0000
0000
0000
1100
0000
0000
0100
0010
0000
0001
0000
,
0101
0000
0000
0100
0010
0000
1000
0000
1010
0000
0000
0000
0110
0000
0000
0000
,
1000
0100
1000
0100
0010
0100
0010
0000
0001
0100
0001
0100
0010
0100
0010
0000
,
1010
0000
0000
1100
0000
0000
0011
0000
0000
0101
0000
0000
1001
0000
0000
0000
,
1001
0000
0000
0000
0010
0000
0000
0110
0000
0000
0010
0000
1000
0000
0100
0010
,
0000
0000
0001
0000
0000
0001
0000
0000
1001
0000
0000
0001
2000
0000
0000
0000
,
3010
0000
0000
0000
0100
0000
0000
0110
0000
0000
0100
0000
1001
0000
0000
0000
,
0001
0010
0100
1000
0000
0000
1000
0010
0100
0001
0000
0000
,
1000
1010
0001
0011
,
0100
1001
0010
1001
,
1001
0000
0000
0010
1000
0100
0110
0000
0000
0010
0001
0100
,
0110
0000
0000
0010
1000
0100
0020
0000
0000
0032
0000
0000
,
1003
1001
0000
0000
0000
0000
0000
0000
,
0000
0000
0000
0000
0000
0000
0000
0010
,
0100
0001
0010
0000
1001
0000
0000
0000
0010
0000
1000
0000
0000
0000
2010
0000
,
0000
3001
0000
0000
0101
0000
1001
0000
,
0010
0001
0010
0001
0100
0010
0100
0010
,
1000
0100
1000
0100
0010
0001
1000
0001
,
1000
0001
0010
0000
0100
1000
0010
0000
0100
0001
1000
0000
0001
1000
0001
1000
,
0001
0000
0100
0001
0010
0000
0100
0010
0100
0010
0100
0000
0110
0000
0000
0000
,
1100
0000
0000
0000
1001
0000
0000
0000
0001
0100
0010
1000
0001
0010
0100
0000
,
0110
0000
0000
0000
1001
0000
0000
0000
1000
0010
0100
0001
1000
0100
0010
0000
,
0220
0000
0000
0000
0330
0000
0000
0000
0001
0010
0100
1000
0001
0010
0100
1000
,
0002
0203
0320
2030
,
3001
0000
0100
0000
0010
0000
1000
0100
1000
0000
0100
0000
0010
0000
0001
1000
,
0001
0000
0100
0000
0010
0000
1000
0001
1000
0000
0001
0000
0010
0000
0001
1000
,
0010
0000
0100
0001
0010
0000
0100
1000
0010
0000
0100
0001
0010
0000
0001
0000
,
0100
1100
0100
0101
0010
1010
0010
0011
,
1001
0000
0000
0000
0110
0000
0000
0000
1000
0100
0010
0001
0010
0100
1000
0001
,
0010
0000
0000
0000
1001
0000
0000
0000
0001
0100
0010
1000
0010
0100
0001
1000
,
0020
0000
0000
0000
0030
0000
0000
0000
0001
0010
0001
0010
0100
1000
0100
1000
,
0002
0023
0230
1300
,
1100
1000
1010
0000
0101
0001
0011
0000
,
1010
1000
1100
0000
0011
0001
1001
0000
,
0001
0100
0010
0000
1000
0100
0010
0000
0001
0010
0100
1000
0010
0100
0001
1000
,
0001
1000
0001
1000
0001
1000
0010
0010
0010
0010
0000
0000
;

//---------------dance-double - ----------------
#NOTES:
     dance-double:
     :
     Easy:
     6:
     0.273183,0.382895,0.219298,0.228070,0.000000,218.000000,193.000000,25.000000,26.000000,0.000000,0.000000,0.273183,0.382895,0.219298,0.228070,0.000000,218.000000,193.000000,25.000000,26.000000,0.000000,0.000000:
00000000
00000000
00000000
00000000
,
00000000
00000000
00000000
00000000
,
00000000
00000000
00000000
00000000
,
00000000
00000000
00000000
00000000
,
00000000
00000000
00000000
00000000
,
00011000
00000000
00000000
00000000
,
00000000
00000000
00000000
00000000
,
00011000
00000000
00000000
00000000
,
00001000
00010000
00001000
00010000
,
00001000
00000010
00001000
00000000
,
00001000
00010000
00001000
00000000
,
00010000
00100000
00010000
00000000
,
00010000
00001000
00010000
00000000
,
00010000
00010000
01000000
01000000
,
00010000
00010000
00001000
00001000
,
00000100
00001000
00010000
00000000
,
00011000
00000000
00000000
00000000
,
00000010
00000001
00000010
00000001
,
00001000
00000010
00001000
00000010
,
00010000
00001000
00010000
00001000
,
01000000
00010000
20020000
30030000
,
00100000
10000000
00100000
10000000
,
00010000
00100000
00010000
00100000
,
00001000
00010000
00001000
00010000
,
00022000
00000000
00033000
00000000
,
00001000
00000010
00000110
00000110
,
00000001
00001000
00001001
00000000
,
00000100
00010000
00011000
00011000
,
01000000
00010000
10010000
00000000
,
10000000
01000000
00010000
00010000
,
00001000
00000010
00000001
00001000
,
00000002
00000003
00000200
00000300
,
00002000
00003000
00020000
00030000
,
00022000
00000000
00000000
00000000
,
00000000
00000000
00000000
00000000
,
00033000
00000000
00000000
00000000
,
00000000
00000000
00000000
00000000
,
00100000
00100000
00010000
00010000
,
10000000
10000000
01000000
01000000
,
00010000
00001000
00010000
00001000
,
00022000
00000000
00033000
00000000
,
00001000
00000010
00000001
00000010
,
00001000
00000000
00011000
00000000
,
00001000
00000100
00000001
00000100
,
00001000
00001000
00010000
00000000
,
00010000
00100000
01100000
00000000
,
10000000
00010000
10010000
00000000
,
02000000
03000000
00002000
00003000
,
00010000
00000100
00001000
00000001
,
00001001
00000000
00000000
00000000
,
00000000
00000000
00000000
00000000
,
00010000
00010000
00010000
00000000
00000000
00000000
00000000
00000000
,
00022000
00000000
00033000
00000000
,
00100000
00010000
10000000
01000000
,
00100000
00010000
10000000
01000000
,
00100000
00001000
00010000
00001000
,
00022000
00000000
00000000
00033000
,
00000100
00000010
00000001
00000011
,
00000001
00000100
00000010
00000110
,
00010000
00001000
00010000
00001000
,
00010000
01000000
10000000
00000000
,
20000000
30000000
02000000
03000000
,
00200000
00300000
00020000
00030000
,
00001000
00000100
00000010
00000001
,
00001001
00000000
00000110
00000000
,
00000010
00000100
00000001
00000011
,
00000001
00000010
00000100
00001100
,
00010000
00001000
00010000
00100000
,
00010000
00100000
10000000
00000000
,
20000000
30000000
00200000
00300000
,
02000000
03000000
00020000
00030000
,
00001000
00000010
00000100
00000001
,
00001000
00001000
00001000
00001000
;

//---------------dance-double - ----------------
#NOTES:
     dance-double:
     :
     Medium:
     11:
     0.508772,0.574342,0.833333,0.219298,0.052632,406.000000,311.000000,95.000000,25.000000,0.000000,0.000000,0.508772,0.574342,0.833333,0.219298,0.052632,406.000000,311.000000,95.000000,25.000000,0.000000,0.000000:
00000000
00000000
00000000
00000000
,
00000000
00000000
00000000
00000000
,
00000000
00000000
00000000
00000000
,
00000000
00000000
00000000
00000000
,
00000000
00000000
00000000
00000000
,
10000000
00010000
00000000
00000000
00000000
00000000
00000000
00000000
,
00000000
00000000
00000000
00000000
00000000
00000000
00000000
00010000
,
00001000
00010000
00000000
00000000
00000000
00000000
00000000
00000000
,
00001010
00000011
00001010
00000011
,
00000000
00000101
00000000
00000101
00000000
00001100
00000000
00001100
,
00000000
00011000
00000000
00011000
00000000
00110000
00000000
00110000
,
00000000
01010000
00000000
01010000
00000000
11000000
00000000
11000000
,
00000000
10010000
00000000
10010000
00000000
01100000
00000000
01100000
,
00100000
00001000
00100000
00000000
00001000
00010000
00001000
00000000
,
00010000
00000100
00010000
00000000
00000100
00001000
00000100
00000000
,
00001000
00000001
00001000
00000001
00000100
00000010
00000100
00000010
,
00000100
00000100
00000100
00001001
,
00000001
00000100
00000010
00000100
00001000
00000000
00010000
00000000
,
00011000
00100000
00110000
01000000
,
00010000
01000000
00100000
01000000
10000000
00000000
01000000
00000000
,
01100000
10100000
20020000
30030000
,
10000000
01000000
00100000
01000000
00010000
00000000
00001000
00000000
,
00011000
00000010
00001010
00001001
,
00000001
00000100
00000001
00000100
00000010
00001000
00000010
00001000
,
00000100
00000000
00000000
00010000
00000000
00000000
00022000
00000000
00000000
00000000
00000000
00000000
00033000
00000000
00000000
00000000
,
00100000
00010000
01010000
00000000
00100000
10000000
10010000
00000000
,
01000000
00010000
00110000
00000000
00001000
00010000
00011000
00000000
,
00001100
00000000
00001100
00000000
00000010
00000100
00000110
00000000
,
00001001
00000000
00001001
00000000
00000100
00001000
00001100
00000000
,
00000100
00000000
00000000
00001000
00000000
00000000
00010000
00000000
00110000
00000000
00000000
00000000
01000000
00000000
00000000
00010000
,
00000000
00001000
00001010
00000000
00000110
00000000
00001001
00000000
,
00000001
00000010
00000001
00000010
00001000
00010000
00001000
00021000
,
00000000
00000000
01030000
00000000
,
20020000
00000000
00000000
00000000
,
00000000
00000000
00000000
00000000
,
30030000
00000000
00000000
00000000
,
00000000
00000000
00000000
00000000
,
00011000
00000000
00000000
00000000
00001010
00000000
00000000
00000000
00001001
00000000
00000000
00000001
00000000
00000000
00000100
00000000
,
00001100
00000000
00000000
00001000
00000000
00000000
00010000
00000000
00022000
00000000
00000000
00000000
00033000
00000000
00000000
00000000
,
00010000
00100000
10000000
01000000
00010000
01000000
10000000
00100000
,
00010000
00000000
00000000
00010000
00000000
00000000
00001000
00000000
00000000
00001000
00000000
00000000
00011000
00000000
00000000
00000000
,
00001000
00000100
00000001
00000100
00001000
00000100
00000001
00000000
,
00000010
00000100
00001000
00000100
00010000
00000000
00011000
00000000
,
00100000
00010000
01000000
00100000
01000000
00100000
10000000
00000000
,
01000000
00000000
01000000
00100000
00000000
00000000
00001000
00000000
00001000
00010000
00000000
00000000
,
00000100
00001100
00000000
00000011
,
00000001
00000101
00000000
00001100
,
00010100
00000000
00000000
00001000
00000000
00001000
01000000
00000000
00000000
00010000
00000000
00010000
,
00100000
00000000
00000000
01000000
00000000
01000000
20000000
00000000
00000000
30200000
00000000
00000000
,
00310000
00001000
00000000
00000000
00000000
00000000
00000000
00000000
,
00000000
00000000
00000000
00000000
00000000
00000000
00000000
00000001
,
00000010
00000010
00000010
00000000
00000100
00001000
00000000
00022000
,
00000000
00033000
00011000
00011000
,
00001000
00100000
00010000
01000000
00100000
00000000
10100000
00000000
,
10000000
01000000
00100000
00001000
00010000
00000000
00011000
00000000
,
00001000
00000010
00000001
00000000
00001000
00000010
00000001
00000000
,
00000020
00000001
00000100
00001030
,
00001010
00000000
00011000
00000000
00010000
00001000
00100000
00010000
,
01010000
00000000
10100000
00000000
00100000
10000000
01000000
00100000
,
00110000
00000000
00011000
00000000
00001000
00010000
00000100
00001000
,
00001010
00000101
00000011
00001100
,
00020100
00031000
00102000
00013000
,
00020010
00031000
01002000
00013000
,
00010000
00100000
00010000
00100000
10000000
00100000
10000000
01000000
,
00000000
01100000
00000000
00101000
00000000
00011000
00000000
00010010
,
00001010
00000000
00001001
00000000
00000100
00000010
00000001
00000100
,
00001001
00000000
00000110
00000000
00001000
00000100
00010000
00001000
,
00011000
00000000
01010000
00000000
00010000
01000000
00100000
10000000
,
10100000
11000000
01010000
00110000
,
00102000
00013000
00020010
00031000
,
01002000
00013000
00020100
00031000
,
00001000
00000010
00000001
00000000
00000100
00000010
00001000
00000000
,
00020000
20030000
30020000
00031000
;

//---------------dance-double - ----------------
#NOTES:
     dance-double:
     :
     Hard:
     15:
     0.690476,0.829605,0.877193,0.192982,0.486842,551.000000,451.000000,100.000000,22.000000,0.000000,0.000000,0.690476,0.829605,0.877193,0.192982,0.486842,551.000000,451.000000,100.000000,22.000000,0.000000,0.000000:
00000000
00000000
00000000
00000000
,
00000000
00000000
00000000
00000000
,
00000000
00000000
00000000
00000000
,
00000000
00000000
00000000
00000000
,
00000000
00000000
00000000
00000000
,
00011000
00011000
00000000
00000000
00000000
00000000
00000000
00000000
,
00000000
00000000
00000000
00000000
00000000
00000000
00000000
00000010
,
00000110
00000110
00000000
00000000
00000000
00000000
00000000
00000000
,
00001000
00000000
00000000
00000000
00010000
00000000
00000000
00000000
01000000
00000000
10000000
00010000
10000000
00000000
00000000
00000000
,
00000000
10100000
00000000
00110000
00000000
10100000
00000000
00110000
,
00000000
00101000
00000000
00011000
00000000
00101000
00000000
00011000
,
00000000
00010100
00000000
00001100
00000000
00010100
00000000
00001100
,
00000000
00000101
00000000
00001010
00000000
00000101
00000000
00001010
,
00000010
00000000
00001000
00000000
00000100
00010000
00001000
00000000
00100000
00000000
00010000
00000000
01000000
00100000
10000000
00000000
,
01000000
00000000
10000000
00000000
00100000
01000000
00010000
00000000
00100000
00000000
00001000
00000000
00010000
00000100
00001000
00000000
,
00000001
00000010
00000100
00000000
00000010
00000100
00001000
00000000
00000010
00000100
00000010
00000100
00000010
00001000
00000010
00001000
,
00000010
00010000
00001000
00011000
,
00100000
00000000
00010000
00000000
01000000
00100000
00000000
01100000
00000000
00000000
00100000
00000000
10000000
00000000
01000000
00000000
,
00100000
00000000
00001000
00000000
00010000
00001000
00000000
00000000
00010000
00000010
00000000
00001000
00000020
00000000
00000030
00000000
,
00000100
00000000
00000001
00000000
00000010
00000001
00000000
00001001
00000000
00000000
00000001
00000000
00000100
00000000
00000010
00000000
,
00001000
00000100
00001000
00000000
00000100
00010000
00000100
00000000
00020000
00000000
00000000
00001000
00000000
00000000
00031000
00000000
,
01000000
00000000
00010000
00000000
00100000
00010000
00000000
00110000
00000000
00000000
00010000
00000000
00100000
00000000
01000000
00000000
,
10000000
00000000
00100000
00000000
10000000
00100000
00000000
00000000
01000000
00010000
00000000
01000000
00020000
00000000
00030000
00000000
,
00100000
00000000
00001000
00010000
00000100
00000000
00001000
00000010
00010000
00000000
00001000
01000000
00010000
00000000
00000000
00000000
,
00110000
00000000
00000000
00101000
00000000
00000000
00022000
00000000
00000000
00000000
00000000
00000000
00033000
00000000
00000000
00000000
,
00010100
00001000
00001100
00000000
00001010
00000001
00000101
00000000
,
00000110
00001000
00001010
00000000
00010100
00001000
00011000
00000000
,
00101000
00100000
00110000
00010000
01010000
01000000
01100000
10000000
,
10100000
10000000
11000000
01000000
01100000
00100000
00110000
00000000
,
00011000
00000000
00000000
00001000
00010000
00000000
00000010
00000000
00001010
00000000
00000000
00000000
00000101
00000000
00000000
00000001
,
00000010
00000100
00010100
00000000
00011000
00000000
01010000
00000000
,
00100000
10000000
00100000
10000000
00010000
01000000
00010000
01000000
00001000
00000000
00010000
00000000
00001000
00000000
00012000
00000000
,
00000000
00003100
00000001
00001000
,
00002002
00000000
00000000
00000000
,
00000000
00000000
00000000
00000000
,
00003003
00000000
00000000
00000000
,
00000000
00000000
00000000
00000000
,
00000011
00000000
00000000
00000000
00000110
00000000
00000000
00000000
00001100
00000000
00000000
00000100
00010000
00000000
00001000
00000000
,
00011000
00000000
00000000
00100000
00010000
00000000
01000000
00000000
01100000
00000000
00000000
00000000
10100000
00000000
00000000
00000000
,
10000000
01000000
10000000
01000000
00100000
00010000
00100000
00000000
00001000
00010000
00001000
00010000
00000010
00001000
00000010
00000000
,
00001010
00000000
00000000
00001100
00000000
00000000
00000011
00000000
00000000
00000101
00000000
00000000
00001001
00000000
00000000
00000000
,
00000110
00000000
00000000
00000000
00000001
00000000
00000000
00001001
00000000
00000000
00000001
00000000
00000100
00000000
00001000
00010000
,
00000000
00000000
00100000
00000000
00000000
00100000
00000000
00000000
01100000
00000000
00000000
00100000
20000000
00000000
00000000
00000000
,
31000000
00000000
00000000
00000000
00010000
00000000
00000000
00011000
00000000
00000000
00001000
00000000
00011000
00000000
00000000
00000000
,
00000100
00001000
00000001
00000010
00000000
00000000
00000001
00000100
00000010
00001000
00000000
00000000
,
00000100
00010100
00001000
00011000
,
01000000
00110000
01000000
10010000
,
01100000
00000000
00000000
10000000
01000000
00010000
00011000
00000000
00000000
00001000
00000010
00000001
,
00001001
00000000
00000000
00000001
00000100
00001000
00020000
00000000
00000000
00230000
00000000
00000000
,
10300000
10010000
00000000
00000000
00000000
00000000
00000000
00000000
,
00000000
00000000
00000000
00000000
00000000
00000000
00000000
00100000
,
00010000
00001000
00000100
00000000
00000110
00000000
00000000
00000000
00000001
00000000
00000010
00000000
00000000
00000000
00002001
00000000
,
00000000
00003100
00000000
00000000
00010100
00000000
00011000
00000000
,
01000000
00010000
01000000
00010000
10000000
01000000
10000000
01000000
,
00100000
00010000
00100000
00010000
00001000
00000100
00001000
00000100
,
00000010
00000001
00001000
00000000
00000010
00000100
00001000
00000000
00010000
00001000
01000000
00000000
00010000
10000000
00010000
10000000
,
00010000
00000000
10000000
01000000
00010000
00000000
00001000
00010000
00001000
00010000
00001000
00000000
00011000
00000000
00000000
00000000
,
00001010
00000000
00000000
00000000
00001001
00000000
00000000
00000000
00000001
00000100
00000010
00001000
00000100
00010000
00001000
00000000
,
00011000
00000000
00000000
00000000
00110000
00000000
00000000
00000000
00010000
01000000
00100000
10000000
01000000
00100000
00010000
00000000
,
00220000
00000000
00000000
00000000
00330000
00000000
00000000
00000000
00001000
00010000
00001000
00010000
00000010
00001000
00000010
00001000
,
00000002
00000023
00002030
00023000
,
01030000
00000000
10000000
00000000
00100000
00000000
01000000
00010000
01000000
00000000
00010000
00000000
00100000
00000000
00001000
00010000
,
00001000
00000000
00010000
00000000
00000100
00000000
00001000
00000010
00001000
00000000
00000001
00000000
00000010
00000000
00000001
00000100
,
00000010
00000000
00001000
00000100
00010000
00000000
00001000
00100000
00010000
00000000
01000000
00100000
10000000
00000000
01000000
00000000
,
00010000
00011000
00001000
01001000
00010000
00011000
00010000
00010100
,
00001100
00000000
00000000
00000000
00001001
00000000
00000000
00000000
00000001
00000100
00000010
00000100
00000001
00001000
00000100
00010000
,
00001000
00000000
00000000
00000000
01010000
00000000
00000000
00000000
00100000
10000000
00010000
10000000
00100000
01000000
00010000
00100000
,
00002000
00000000
00000000
00000000
00003000
00000000
00000000
00000000
00010000
00000010
00010000
00000010
00001000
00000010
00001000
00000010
,
00000200
00000302
00002003
00003100
,
00011000
00001000
01001000
00000000
01100000
00100000
10100000
00000000
,
01010000
00010000
00110000
00000000
00010100
00000100
00001100
00000000
,
00000100
00000010
00000001
00000000
00000100
00000001
00000010
00000000
00000100
00010000
00001000
00100000
00010000
01000000
00100000
10000000
,
01000000
00010000
00001000
00000010
00001000
00010000
00001000
00001000
00001000
00001000
00000000
00000000
;

//---------------dance-single - ----------------
#NOTES:
     dance-single:
     :
     Challenge:
     17:
     0.879699,1.021053,0.631579,0.333333,0.960526,702.000000,630.000000,72.000000,38.000000,0.000000,0.000000,0.879699,1.021053,0.631579,0.333333,0.960526,702.000000,630.000000,72.000000,38.000000,0.000000,0.000000:
// measure 0
0000
0000
0000
0000
,  // measure 1
0000
0000
0000
0000
,  // measure 2
0000
0000
0000
0000
,  // measure 3
0000
0000
0000
0000
,  // measure 4
0000
0000
0000
0000
,  // measure 5
0110
1001
0000
0000
0000
0000
0000
0000
,  // measure 6
0000
0000
0000
0000
0000
0000
0000
0011
,  // measure 7
0110
1001
0000
0000
0000
0000
0000
0000
,  // measure 8
0101
0000
0000
0000
1100
0000
0000
0000
0011
0000
0100
0010
1000
0100
0010
0001
,  // measure 9
1000
1100
0001
0011
0100
0101
0010
1010
,  // measure 10
1000
1100
0100
0101
0001
0011
0010
1010
,  // measure 11
1000
0000
0000
0000
0000
0000
0001
0000
0010
0000
0001
0000
0010
0000
0000
0001
0000
0000
0010
0000
0000
0001
0000
0000
1000
0000
0000
0100
0000
0000
1000
0000
0000
0100
0000
0000
1000
0000
0000
0100
0000
0000
1000
0000
0000
0000
0000
0000
,  // measure 12
0001
0000
0000
0000
0000
0000
0011
0000
0000
0000
0000
0000
0100
0000
0000
0000
0000
0000
1000
0000
0100
0000
1000
0000
0100
0000
0000
1000
0000
0000
0001
0000
0000
0100
0000
0000
0010
0000
0000
0100
0000
0000
0001
0000
0000
1000
0000
0000
,  // measure 13
0001
1000
0001
1000
0010
0100
0010
0100
,  // measure 14
0001
0010
0001
0010
0100
1000
0100
1000
,  // measure 15
0001
0010
0001
1000
0100
1000
0010
0100
0001
0010
0100
1000
0001
0100
0010
1000
,  // measure 16
0100
0000
0100
0000
0100
0000
1001
0100
,  // measure 17
0010
0001
1000
0000
0100
0010
0000
0100
1000
0000
0001
0000
0010
0100
1000
0100
,  // measure 18
0010
0000
0001
0000
0100
0010
0000
0000
1000
0100
0000
0010
0002
0000
2003
0000
,  // measure 19
3010
0100
0001
0000
0010
0100
0000
0010
0001
0000
1000
0000
0100
0010
0001
0010
,  // measure 20
0100
1000
0100
1000
0001
0010
0001
0010
0002
0000
0000
1000
0000
0000
1003
0000
,  // measure 21
0010
0100
0010
0000
1001
0000
0000
0001
0010
0000
0100
0000
1001
0000
0100
0010
,  // measure 22
0100
0000
0001
0000
0011
0000
0000
0000
0100
1000
0000
0010
1010
0000
1000
0000
,  // measure 23
0001
0100
0001
0100
0010
1000
0010
1000
0100
0010
0001
0010
0100
1000
0001
0100
,  // measure 24
0010
0000
0000
1100
0000
0000
0011
0000
0000
0000
1000
0100
0010
0001
0010
0100
,  // measure 25
1000
0000
0001
0100
0000
0010
1000
0100
0000
0010
0001
0100
0000
0010
0100
0001
,  // measure 26
0000
0010
0100
1000
0000
0010
1000
0001
0000
0010
0001
1000
0000
0100
0010
0001
,  // measure 27
1000
0000
0100
0010
0000
0100
1000
0001
0000
0100
0001
1000
0000
0100
0010
0001
,  // measure 28
0000
0100
0010
1000
0000
0100
1000
0010
0000
0100
0001
0010
0000
0001
0010
0100
,  // measure 29
1000
0000
0000
0001
0010
0000
0011
0000
0101
0000
0000
0000
0110
0000
0000
1000
,  // measure 30
0100
1100
1010
0000
0110
0000
1001
0000
,  // measure 31
0001
0010
0100
1000
0100
0010
0100
1000
0010
0100
0001
0100
0010
0100
0001
1000
,  // measure 32
0002
2003
3020
0130
,  // measure 33
2002
0000
0000
0000
3003
0000
0000
0000
1000
0000
0000
0010
0000
0000
0001
0000
,  // measure 34
0100
0000
0000
1000
0000
0000
0010
0000
0100
0000
0000
0000
0001
0000
0000
0000
,  // measure 35
2002
0000
0000
0000
3003
0000
0000
0000
0001
0000
0000
0100
0000
0000
1000
0000
,  // measure 36
0010
0000
0000
0001
0000
0000
0100
0000
0010
0000
0000
0000
1000
0000
0000
0000
,  // measure 37
1001
0000
0000
0000
1100
0000
0000
0001
0011
0000
0000
0000
0101
0000
0000
0000
,  // measure 38
0110
0000
0000
0000
1010
0000
0000
1000
1100
0000
0000
0000
0011
0000
0000
0000
,  // measure 39
1000
0010
0100
0001
0010
0100
0010
0001
0100
0010
1000
0100
0010
0100
1000
0001
,  // measure 40
0010
0000
0000
0011
0000
0000
1100
0000
0010
0010
0000
0100
0001
0010
0001
0000
,  // measure 41
1000
0100
0010
0001
1000
0100
0010
0001
1000
0010
0100
0001
1000
0010
0100
0001
,  // measure 42
1000
0100
0010
0001
1000
0100
0010
0001
1000
0010
0100
0001
2000
0000
0000
0000
,  // measure 43
3001
0010
0100
1000
0001
0010
0100
1000
0001
0100
0010
1000
0002
0000
0000
0000
,  // measure 44
1003
0010
0001
0010
1000
0001
0100
1000
0100
0001
0010
0100
,  // measure 45
1000
1100
0001
0011
,  // measure 46
1000
0100
0010
0001
0100
0010
1000
0000
0001
0100
0000
0010
,  // measure 47
1001
0000
0000
1000
0100
0001
1001
0000
0000
0001
0010
1000
,  // measure 48
1001
0000
0000
0000
0000
0000
0000
0000
0000
0000
0000
0000
0100
0000
0000
0000
0010
0000
0000
0000
0001
0000
0000
0000
1000
0000
0000
0100
0000
0000
1000
0000
0000
0100
0000
0000
1000
0000
0000
0010
0000
0000
0100
0000
0000
0001
0000
0000
,  // measure 49
2000
0000
0000
0000
3020
0000
0000
0230
,  // measure 50
0000
0000
0000
0000
0302
0000
1003
0001
,  // measure 51
1000
0100
0010
0001
1000
0000
0000
0000
0001
0000
1000
0000
1010
0000
0010
0000
,  // measure 52
1010
0000
1000
0001
0010
0001
0100
0000
0101
0000
0000
0000
0110
0000
0000
0000
,  // measure 53
1000
0100
1000
0100
0010
0100
0010
0100
,  // measure 54
0010
0001
0010
0001
0100
0010
0100
0010
,  // measure 55
1000
0100
1000
0100
0010
0001
0010
0001
1000
0100
0010
0001
1000
0010
0100
0001
,  // measure 56
1000
0000
0010
0100
0010
0000
1000
0001
0100
0010
0100
0000
1001
0000
0000
0000
,  // measure 57
1100
0000
0000
0000
0101
0000
0000
0000
1000
0100
0010
0001
1000
0100
0010
0001
,  // measure 58
1000
0000
0000
0000
1010
0000
0000
0000
0001
0100
0010
1000
0001
0100
0010
1000
,  // measure 59
0002
0000
0000
0000
0013
0000
0000
0000
1000
0100
1000
0100
0010
0001
0010
0001
,  // measure 60
2000
0001
3002
0100
0203
0010
0320
1000
,  // measure 61
2030
0100
0100
0100
3002
0100
0100
0100
,  // measure 62
2003
0010
0010
0010
3002
0010
0010
0010
,  // measure 63
1003
0000
0100
0010
0001
0000
0010
0001
1000
0000
0001
1000
0010
0000
0100
0000
,  // measure 64
0010
1100
0010
0101
0010
1100
0010
0101
,  // measure 65
1001
0000
0100
0000
1010
0000
0001
0000
1000
0100
0010
0001
0010
0100
1000
0001
,  // measure 66
0010
0000
0100
0000
0011
0000
1000
0000
0001
0100
0010
1000
0010
0100
0001
1000
,  // measure 67
0020
0000
0100
0000
0100
0000
0100
0000
1030
0100
0010
0001
1000
0010
0100
0001
,  // measure 68
2000
0010
3002
0010
2003
0100
3002
0103
,  // measure 69
0201
0310
1200
0310
0102
0013
2100
3010
,  // measure 70
0021
0000
0000
0130
0000
0000
1020
0000
0000
0130
0000
0000
0012
0000
0000
0103
0000
0000
2010
0000
0000
3100
1000
0100
,  // measure 71
1000
0100
0010
0001
0100
0010
1000
0100
0001
0100
0010
0001
0100
1000
0100
0010
,  // measure 72
1000
0001
0010
1000
0100
0001
0010
0010
0010
0110
0000
0000
;
