#VERSION:0.83;
#TITLE:星屑ブレスレット;
#SUBTITLE:;
#ARTIST:Qrispy Joybox;
#TITLETRANSLIT:Hoshikuzu bracelet;
#SUBTITLETRANSLIT:;
#ARTISTTRANSLIT:;
#GENRE:;
#ORIGIN:;
#TAGS:;
#CREDIT:;
#BANNER:Hoshikuzu bracelet.png;
#BACKGROUND:Hoshikuzu bracelet_bg.png;
#PREVIEWVID:;
#JACKET:Hoshikuzu bracelet_jacket.png;
#CDIMAGE:;
#DISCIMAGE:;
#LYRICSPATH:;
#CDTITLE:cdtitle.png;
#MUSIC:Hoshikuzu bracelet.ogg;
#OFFSET:-0.500000;
#SAMPLESTART:53.460999;
#SAMPLELENGTH:15.000000;
#SELECTABLE:YES;
#BPMS:0.000000=179.000000;
#STOPS:;
#DELAYS:;
#WARPS:;
#TIMESIGNATURES:0.000000=4=4;
#TICKCOUNTS:0.000000=4;
#COMBOS:0.000000=1;
#SPEEDS:0.000000=1.000000=0.000000=0;
#SCROLLS:0.000000=1.000000;
#FAKES:;
#LABELS:0.000000=Song Start;
#BGCHANGES:;
#KEYSOUNDS:;
#ATTACKS:
;

//---------------dance-single - ----------------
#NOTEDATA:;
#CHARTNAME:;
#CHARTHASH:2147483647:
#STEPSTYPE:dance-single;
#BANNER:;
#DESCRIPTION:;
#CHARTSTYLE:;
#DIFFICULTY:Beginner;
#METER:4;
#METERF:0.000000;
#RADARVALUES:0.155358,0.339302,0.130501,0.156601,0.000000,125.000000,110.000000,15.000000,18.000000,0.000000,0.000000,0.000000,0.000000,0.000000,0.155358,0.339302,0.130501,0.156601,0.000000,125.000000,110.000000,15.000000,18.000000,0.000000,0.000000,0.000000,0.000000,0.000000;
#CREDIT:Supra the Hedgehog;
#NOTES:
0000
0000
0000
0000
,
0000
0000
0000
0000
,
0000
0000
0000
0000
,
0000
0000
0000
0000
,
0000
0000
0000
0000
,
0000
0000
0000
0000
,
0000
0000
0000
0000
,
0000
0000
0000
0000
,
0010
0000
0100
0000
,
0001
0000
1000
1000
,
1000
0000
0100
0000
,
0010
0000
0100
0100
,
0100
0000
1000
0000
,
0001
0000
0010
0010
,
0010
0000
0001
0000
,
0100
0000
0001
0001
,
0002
0000
0000
0003
,
0020
0000
0000
0030
,
2000
0000
0000
3000
,
0200
0000
0000
0300
,
1001
0000
0000
0000
,
1001
0000
0000
0000
,
0110
0000
0000
0000
,
0110
0000
0000
0000
,
1000
0000
0100
0000
,
0010
0000
0001
0001
,
0001
0000
0100
0000
,
0010
0000
1000
0000
,
0000
0110
0000
0110
,
0000
1001
0000
1001
,
1001
0000
0000
0000
,
0110
0000
0000
0000
,
1001
0000
0000
0000
,
1000
0000
0000
0000
,
0010
0000
0000
0000
,
0100
0000
0000
0000
,
1001
0000
0000
0000
,
0001
0000
0000
0000
,
0200
0000
0000
0000
,
0300
0000
0000
0000
,
0001
0001
0001
0001
,
0002
0000
0003
0000
,
1000
1000
1000
1000
,
2000
0000
3000
0000
,
0010
0000
0100
0000
,
0001
0000
0000
0000
,
0100
0000
0010
0000
,
1000
0000
0000
0100
,
0200
0000
0300
1000
,
2000
0000
3000
0001
,
0002
0000
0003
0010
,
0020
0000
0030
0000
,
0200
0000
0000
0000
,
0000
0000
0300
0000
,
2002
0000
0000
0000
,
0000
0000
3003
0000
,
1000
0000
0000
0000
,
1000
0000
0000
0000
,
0001
0000
0000
0000
,
0001
0000
0001
0000
,
0010
0000
0000
0000
,
0100
0000
0000
0000
,
0010
0000
0000
0000
,
0220
0000
0330
0000
,
1000
1000
1000
0000
,
0010
0010
0010
0000
,
0100
0100
0100
0000
,
0001
0001
0001
0001
,
0001
0000
1000
0000
,
0010
0000
0100
0000
,
2002
0000
0000
0000
,
3003
0000
0000
0000
,
0100
0000
0000
0000
,
0010
0000
0000
0000
,
1000
0000
0000
0000
,
0001
0000
0000
0000
,
1000
0000
0000
0000
,
0100
0000
0000
0000
,
0010
0000
0000
0000
;

//---------------dance-single - ----------------
#NOTEDATA:;
#CHARTNAME:;
#CHARTHASH:2147483647:
#STEPSTYPE:dance-single;
#BANNER:;
#DESCRIPTION:;
#CHARTSTYLE:;
#DIFFICULTY:Easy;
#METER:8;
#METERF:0.000000;
#RADARVALUES:0.295801,0.542883,0.339302,0.252301,0.000000,238.000000,199.000000,39.000000,29.000000,0.000000,0.000000,0.000000,0.000000,0.000000,0.295801,0.542883,0.339302,0.252301,0.000000,238.000000,199.000000,39.000000,29.000000,0.000000,0.000000,0.000000,0.000000,0.000000;
#CREDIT:Supra the Hedgehog;
#NOTES:
0000
0000
0000
0000
,
0000
0000
0000
0000
,
0000
0000
0000
0000
,
0000
0000
0000
0000
,
0000
0000
0000
0000
,
0000
0000
0000
0000
,
0000
0000
0000
0000
,
0000
0000
0000
0000
,
0001
1000
0001
1000
,
0001
0010
0100
1000
,
0020
1000
1000
1000
,
0230
0001
0302
1003
,
0100
0010
0100
0010
,
0100
1000
0001
0010
,
0002
0100
0103
0010
,
2000
0001
3001
0100
,
0002
0010
0010
0013
,
2000
0010
0010
3010
,
0002
0100
0100
0103
,
2000
0100
0100
3100
,
1001
0000
0000
0000
,
0110
0000
0000
0000
,
1001
0000
0000
0000
,
0110
0000
0000
0000
,
1001
0001
0100
0001
,
1000
0100
0010
0001
,
1001
1000
0100
1000
,
0001
0100
0010
1000
,
0100
0110
0010
0110
,
1000
1001
0001
1001
,
1001
0000
0000
0000
,
0110
0000
0000
0000
,
1001
0000
1000
0000
,
0001
0000
0100
0010
,
0110
0000
0100
0000
,
0010
0000
1000
0001
,
1001
0000
0001
0000
,
1000
0000
0010
0100
,
0220
0000
0000
0000
,
0330
0000
0000
0000
,
2000
0100
0100
3100
,
1100
0101
1100
0101
,
0002
0010
0010
0013
,
0011
1010
0011
1010
,
1000
0010
0100
0001
,
0200
0000
0310
0100
,
0001
0010
0100
1000
,
0020
0000
0030
1000
,
0002
0100
0010
0103
,
2000
0100
0010
3100
,
0020
1000
0100
1030
,
0100
0010
0001
1000
,
0210
0001
0010
0001
,
0010
1000
0010
1300
,
2002
0000
0000
0000
,
0000
0000
3003
0000
,
1000
1000
1000
1000
,
2000
0000
0000
3000
,
0001
0001
0001
0001
,
0001
0000
0001
0000
,
0020
0000
0100
0030
,
0200
0000
0010
0310
,
2000
0000
0001
3000
,
0220
0000
0000
0330
,
1001
1000
0010
0100
,
1001
0001
0010
0100
,
1001
1000
0100
0010
,
0011
1010
0101
1100
,
1001
0010
1010
1000
,
1100
0001
0011
0100
,
0220
0000
0000
0000
,
0330
0000
0000
0000
,
0010
0000
0000
0000
,
0100
0000
0000
0000
,
0001
0000
0000
0000
,
1000
0000
0000
0000
,
0001
0000
0000
0000
,
0010
0000
0000
0000
,
0100
0000
0000
0000
;

//---------------dance-single - ----------------
#NOTEDATA:;
#CHARTNAME:;
#CHARTHASH:1802040823:
#STEPSTYPE:dance-single;
#BANNER:;
#DESCRIPTION:;
#CHARTSTYLE:;
#DIFFICULTY:Medium;
#METER:13;
#METERF:0.000000;
#RADARVALUES:0.565503,0.721668,0.313201,0.226201,0.709053,455.000000,419.000000,36.000000,26.000000,0.000000,0.000000,0.000000,0.000000,0.000000,0.565503,0.721668,0.313201,0.226201,0.709053,455.000000,419.000000,36.000000,26.000000,0.000000,0.000000,0.000000,0.000000,0.000000;
#CREDIT:Supra the Hedgehog;
#NOTES:
0000
0000
0000
0000
,
0000
0000
0000
0000
,
0000
0000
0000
0000
,
0000
0000
0000
0000
,
0000
0000
0000
0000
,
0000
0000
0000
0000
,
0000
0000
0000
0000
,
0000
0000
0000
0000
,
1001
0000
0000
1000
0000
0100
0010
0000
0000
0001
0000
0100
,
0010
0000
0000
0100
0000
0001
0010
0000
0100
1000
0100
0010
,
0100
0000
0000
1000
0000
0001
0010
0000
0000
0001
0000
1000
,
0010
0000
0000
0100
0000
0001
0010
0100
0010
0001
0100
0001
,
1000
0000
0000
0100
0000
0010
0001
0000
0000
0100
0000
0010
,
1000
0000
0000
0001
0000
1000
0100
0000
0010
0001
0010
0100
,
0010
0000
0000
0001
0000
0100
1000
0000
0000
0100
0000
0010
,
0001
0000
0000
0010
0000
1000
0001
0100
0001
0010
0000
0000
,
0100
1000
0100
1000
0100
1000
0100
1000
0100
1000
0000
0000
,
0001
0100
0001
0100
0001
0100
0001
0100
0001
0100
0000
0000
,
0010
0100
0010
0100
0010
0100
0010
0100
0010
0100
0000
0000
,
0001
1000
0001
1000
0001
1000
0001
1000
0001
1000
0000
0000
,
0002
0000
0000
0003
0000
0000
0101
0000
0000
0100
0010
1000
,
0200
0000
0000
0300
0000
0000
1100
0000
0000
0100
1000
0001
,
0020
0000
0000
0030
0000
0000
0011
0000
0000
0001
0100
0010
,
2000
3000
1001
0000
,
1000
0000
1000
0010
0000
0010
0100
0000
0000
0001
0010
0100
,
1000
0002
0203
0320
,
0130
0000
0100
0001
0000
0001
0010
0000
0000
0100
1000
0001
,
0020
0031
0200
1300
,
0010
0000
0000
0011
0000
0000
0100
0000
0000
1100
0000
1000
,
0010
0000
0000
0110
0000
0000
1000
0000
0000
1001
0000
0001
,
2000
0000
3010
0100
,
0002
0000
0000
0013
0001
0010
0001
0000
0000
1000
0100
1000
,
0100
0000
0010
0100
0000
0000
0010
0000
0000
0000
0000
0000
,
0002
0000
0000
0000
0000
0000
1003
0000
0000
0001
0000
0100
,
0101
0000
0001
0010
0000
0000
0001
0000
0000
1000
0000
0100
,
2000
0000
0000
0010
0000
0000
3001
0000
0000
1000
0010
1000
,
0010
0000
0100
0001
0000
0000
1000
0000
0000
0100
0010
0100
,
0010
0001
0010
0001
1000
0001
1000
0000
0000
0001
0100
0001
,
0100
0000
0000
0001
0100
0010
1000
0000
0000
0100
0010
0100
,
0020
0030
0011
1010
,
0100
0000
0000
0100
0000
1000
0100
0000
0000
1100
0000
0000
,
1000
0010
0100
0001
0000
0000
1000
0000
0000
0010
0000
0010
,
0100
0000
0000
0100
0000
0001
0100
0000
0000
0101
0000
0000
,
0001
0010
0100
1000
0000
0000
0001
0000
0000
0010
0000
0100
,
0110
0000
0000
0010
0000
0000
0011
0000
0000
0001
0000
0100
,
0101
0000
0000
0001
0010
0100
0010
0000
0000
0001
0000
1000
,
1010
0000
0000
0010
0000
0000
0110
0000
0000
0100
0000
0001
,
0101
0000
0000
0100
0001
0010
0100
0000
0000
1000
0100
1000
,
0010
0000
0000
0100
0001
0100
0001
0000
0000
0010
0001
0010
,
0100
0000
0000
1000
0010
1000
0010
0000
0000
1000
0100
0010
,
0100
0000
0000
0010
0001
0010
0001
0000
0000
0100
0010
1000
,
0100
1100
1001
0011
,
0110
0000
0000
0001
0010
0001
0010
0000
0000
0100
1000
0100
,
1000
0000
0000
0010
0100
0010
0100
0010
0100
0010
0000
0000
,
2002
0000
0000
0000
,
0000
3000
1000
1000
,
0013
0000
0000
0010
0000
0001
0010
0000
0000
0001
0000
0000
,
0010
0100
1000
0002
0000
0000
1003
0000
0000
0001
0000
0010
,
0100
0000
0000
0100
0000
1000
0100
0000
0000
1000
0000
0000
,
0010
0100
0001
2000
0000
0000
3001
0010
0100
1000
0000
0000
,
0002
0010
0010
0010
,
0103
0000
0000
0010
0000
0000
1000
0000
0000
0001
0010
0100
,
2000
0100
0100
0100
,
3010
0100
0010
0100
0010
0100
0010
0000
1000
0001
0000
0000
,
1001
0000
0000
1000
0010
1000
0010
0000
0100
0001
0000
0000
,
0011
0000
0000
0001
0100
0001
0100
0000
0010
1000
0000
0000
,
1100
0000
0000
0100
0010
0100
0010
0000
0001
1000
0000
0000
,
1010
0101
0011
1100
,
0110
0000
0000
1000
0100
1000
0100
0000
0000
0010
0001
0010
,
0001
0000
0000
0100
0010
0100
0010
0100
0010
0100
0000
0000
,
2002
0000
0000
0000
,
3003
0000
0000
0001
0000
0001
1000
0000
0000
1001
0000
0000
,
0000
0000
0000
0010
0000
0001
0010
0000
0000
0010
0000
0001
,
0100
0010
1000
0001
,
0010
0000
0010
0200
0000
0000
0000
0000
0000
0300
0000
0000
,
0220
0000
0000
0000
,
0330
0000
0000
0100
0000
1000
0100
0000
0000
0100
0000
1000
,
0010
0100
0001
1000
,
0200
0000
0000
0000
,
0300
0000
0000
0000
;

//---------------dance-single - ----------------
#NOTEDATA:;
#CHARTNAME:;
#CHARTHASH:920179369:
#STEPSTYPE:dance-single;
#BANNER:;
#DESCRIPTION:;
#CHARTSTYLE:;
#DIFFICULTY:Hard;
#METER:16;
#METERF:0.000000;
#RADARVALUES:0.764361,0.893494,0.356702,0.156601,1.335456,615.000000,574.000000,41.000000,18.000000,0.000000,0.000000,0.000000,0.000000,0.000000,0.764361,0.893494,0.356702,0.156601,1.335456,615.000000,574.000000,41.000000,18.000000,0.000000,0.000000,0.000000,0.000000,0.000000;
#CREDIT:Supra the Hedgehog;
#NOTES:
// measure 0
0000
0000
0000
0000
,  // measure 1
0000
0000
0000
0000
,  // measure 2
0000
0000
0000
0000
,  // measure 3
0000
0000
0000
0000
,  // measure 4
0000
0000
0000
0000
,  // measure 5
0000
0000
0000
0000
,  // measure 6
0000
0000
0000
0000
,  // measure 7
0000
0000
0000
0000
,  // measure 8
1001
0000
0000
1000
0100
1000
0010
0000
0000
0100
0001
0100
,  // measure 9
0010
0000
0000
0100
0001
0010
0100
1000
0100
0010
0001
1000
,  // measure 10
0100
0000
0000
0010
0001
0010
0100
0000
0000
1000
0010
1000
,  // measure 11
0100
0000
0000
0010
0100
0010
0001
0010
0100
1000
0001
0010
,  // measure 12
0100
0000
0000
1000
0001
1000
0100
0000
0000
0010
0001
1000
,  // measure 13
0001
0000
0000
0010
0100
0010
0001
1000
0100
0010
0100
1000
,  // measure 14
0010
0000
0000
0100
0001
0100
1000
0000
0000
0100
0010
0001
,  // measure 15
0010
0000
0000
1000
0100
1000
0001
1000
0001
0100
0001
0010
,  // measure 16
0100
1000
0100
1000
0100
1000
0100
1000
0100
0010
0000
0000
,  // measure 17
0001
0100
0001
0100
0001
0100
0001
0100
0001
0010
0000
0000
,  // measure 18
0100
0010
0100
0010
0100
0010
0100
0010
0100
1000
0000
0000
,  // measure 19
0001
1000
0001
1000
0001
1000
0001
1000
0001
0100
0000
0000
,  // measure 20
0010
0100
0001
0100
0010
1000
0100
0010
0100
1000
0001
0100
,  // measure 21
0001
0010
0100
0010
0001
0100
0010
0100
0001
0010
0100
1000
,  // measure 22
0010
1000
0001
0100
0001
0010
0100
0010
0001
1000
0100
1000
,  // measure 23
0001
1000
0010
0100
0010
1000
1001
0000
0000
0000
0000
0000
,  // measure 24
0001
0000
0001
0010
0000
0010
0100
0000
0000
1000
0010
0100
,  // measure 25
0001
0000
0000
1000
0000
1000
0100
0000
0100
0001
0000
0001
,  // measure 26
0100
0000
0100
1000
0000
1000
0010
0000
0000
0100
0001
0010
,  // measure 27
0100
0000
0100
1000
0000
1000
0001
0100
0001
0010
0001
0100
,  // measure 28
0010
0000
1000
1010
0000
0000
0001
0000
0100
0101
0000
0001
,  // measure 29
0010
0000
0100
0110
0000
0000
1000
0000
0001
1001
1000
0001
,  // measure 30
1000
0100
0010
0001
0100
0010
0001
0010
0100
0001
1000
0100
,  // measure 31
0010
1000
0010
0100
1000
0010
0200
0000
0000
0310
0100
0010
,  // measure 32
0110
0000
0001
0100
0000
0000
0101
0000
0000
0000
0000
0000
,  // measure 33
1000
0100
1000
0100
1000
0100
1000
0000
0000
1001
0000
1001
,  // measure 34
0001
0000
0010
0100
0000
1000
1010
0000
0000
0012
0000
0013
,  // measure 35
0001
0100
0001
0100
0001
0100
0001
0000
0000
1010
0010
0100
,  // measure 36
0101
0000
0001
0010
0000
0010
0100
0000
0000
1000
0001
1000
,  // measure 37
0001
0010
0100
0010
0001
1000
0100
0000
0000
1000
0010
0100
,  // measure 38
0110
0000
0000
0001
0010
0100
1000
0000
0000
0100
0010
0100
,  // measure 39
0002
0003
0100
0100
,  // measure 40
1100
0000
0000
0101
0000
0001
1100
0000
0000
1001
0000
1000
,  // measure 41
0010
0100
0001
1000
0000
0000
0100
1000
0100
0010
0001
0010
,  // measure 42
0011
0000
0000
1010
0000
1000
0011
0000
0000
1001
0000
0001
,  // measure 43
0010
0100
1000
0001
0000
0000
0100
0001
0100
0010
1000
0010
,  // measure 44
1010
0000
0000
1000
0000
0001
0011
0000
0000
0010
0100
1000
,  // measure 45
1100
0000
0000
1000
0010
1000
0001
0010
0100
1000
0010
0100
,  // measure 46
0101
0000
0000
0001
0000
1000
1100
0000
0000
0100
0010
0001
,  // measure 47
0011
0000
0000
0001
0100
0010
1000
0001
0010
0001
0100
0010
,  // measure 48
1010
0000
0000
0100
0010
1000
1001
0000
0000
0100
0100
0010
,  // measure 49
0110
0000
0000
0001
0010
0100
1000
0100
0010
0001
0001
0100
,  // measure 50
0101
0000
0000
0010
0100
0001
0011
0000
0000
0100
0010
1000
,  // measure 51
1001
0000
0000
0100
0010
0100
1000
0010
0100
0010
1000
0001
,  // measure 52
1001
0000
0000
0100
1000
0100
0010
0000
0000
0001
0010
0001
,  // measure 53
0100
0000
0000
0010
1000
0010
0100
0001
0010
0100
1000
0001
,  // measure 54
2002
0000
0000
0000
,  // measure 55
3000
0000
1000
1000
,  // measure 56
0013
0000
0000
0010
0000
1000
0010
0000
0000
0010
0000
0000
,  // measure 57
0001
0100
0010
1000
0000
0000
0100
0010
0001
1000
0000
1000
,  // measure 58
0010
0000
0000
0010
0000
0001
0010
0000
0000
0010
0000
0000
,  // measure 59
1000
0100
0010
0001
0000
0000
0100
0010
1000
0001
0010
0100
,  // measure 60
1000
0100
1000
0100
1000
0100
1000
0100
1000
0100
1000
0100
,  // measure 61
2000
0000
0000
0000
0000
0000
3001
0000
0000
1000
0010
0100
,  // measure 62
0001
0010
0001
0010
0001
0010
0001
0010
0001
0010
0001
0010
,  // measure 63
0001
0100
0100
0010
1000
1000
0001
0000
0001
1000
0000
0000
,  // measure 64
1001
0000
0000
0001
0010
0100
1000
0000
0000
0010
0100
0001
,  // measure 65
1000
0000
0000
0100
0010
0001
0100
0010
0100
0001
1000
0100
,  // measure 66
0010
0000
0000
0001
1000
0010
0100
0000
0000
0010
1000
0001
,  // measure 67
0100
1000
0100
0001
0100
0001
0010
1000
0010
0001
0010
0001
,  // measure 68
0100
0000
0000
0010
1000
0010
0100
0000
0000
0001
0100
0001
,  // measure 69
1000
0100
0001
0100
1000
0010
0100
0001
0010
1000
0010
0001
,  // measure 70
0100
0010
0100
0010
0100
0010
0100
0010
0100
0010
0100
0010
,  // measure 71
0100
0000
0000
0001
0000
0001
1000
0000
0000
0100
0000
0000
,  // measure 72
1001
0000
0000
0010
0000
0010
0010
0000
0000
0010
0000
0010
,  // measure 73
0002
0203
0320
2030
,  // measure 74
3100
0000
0100
0020
0000
0000
0000
0000
0000
0030
0000
0000
,  // measure 75
0202
0000
0000
0303
,  // measure 76
1010
0000
0000
0100
0000
0100
0100
0000
0000
0100
0000
0100
,  // measure 77
2000
3020
0230
0302
,  // measure 78
0203
0000
0000
0000
,  // measure 79
0300
0000
0000
0000
;
