#TITLE:Habits;
#SUBTITLE:;
#ARTIST:organic742;
#TITLETRANSLIT:;
#SUBTITLETRANSLIT:;
#ARTISTTRANSLIT:;
#GENRE:;
#CREDIT:;
#BANNER:Habits.png;
#BACKGROUND:Habits-bg.png;
#LYRICSPATH:;
#CDTITLE:cdtitle.png;
#MUSIC:Habits.ogg;
#OFFSET:0.115000;
#SAMPLESTART:31.737000;
#SAMPLELENGTH:15.000000;
#SELECTABLE:YES;
#BPMS:0.000000=162.000000
;
#STOPS:279.000000=0.185185,
279.500000=0.185185
;
#BGCHANGES:;
#KEYSOUNDS:;
#ATTACKS:;

//---------------dance-single - ----------------
#NOTES:
     dance-single:
     :
     Beginner:
     5:
     0.198280,0.321065,0.063814,0.119652,0.003988,174.000000,166.000000,8.000000,15.000000,0.000000,0.000000,0.198280,0.321065,0.063814,0.119652,0.003988,174.000000,166.000000,8.000000,15.000000,0.000000,0.000000:
// measure 0
0000
0000
0000
0000
,  // measure 1
0000
0000
0000
0000
,  // measure 2
0000
0000
0000
0000
,  // measure 3
0000
0000
0000
0000
,  // measure 4
0000
0000
0000
0000
,  // measure 5
0000
0000
0000
0000
,  // measure 6
0000
0000
0000
0000
,  // measure 7
0100
0000
0000
0100
0000
0000
0000
0000
,  // measure 8
1000
1000
0010
0010
,  // measure 9
0100
0100
0001
0001
,  // measure 10
1001
0000
0000
0000
,  // measure 11
0010
0000
0001
0000
,  // measure 12
1000
0010
1000
0010
,  // measure 13
0100
0001
0100
0000
,  // measure 14
0001
0010
0001
0010
,  // measure 15
0100
1000
0100
0000
,  // measure 16
0010
0100
0010
0100
,  // measure 17
1000
0001
1000
0000
,  // measure 18
0010
0100
0001
0010
,  // measure 19
0100
1000
0010
0010
,  // measure 20
0110
0000
1000
0001
,  // measure 21
1001
0000
0000
1000
,  // measure 22
0100
1000
0000
0010
,  // measure 23
0000
0100
0000
0001
,  // measure 24
0010
0001
0000
1000
,  // measure 25
0010
1000
0000
0001
,  // measure 26
0100
0001
0000
0010
,  // measure 27
0000
0100
0000
1000
,  // measure 28
0000
0001
0000
0100
,  // measure 29
0100
0010
0010
0100
,  // measure 30
0000
0001
0000
0010
,  // measure 31
0000
0100
0000
0010
,  // measure 32
0000
0001
0000
1000
,  // measure 33
1000
0010
0010
1000
,  // measure 34
0000
0100
0000
0010
,  // measure 35
0000
0100
0000
1000
,  // measure 36
0000
0010
0000
0100
,  // measure 37
0000
0100
0000
0000
0000
0000
0001
0000
,  // measure 38
0000
0010
0000
0100
,  // measure 39
0000
1000
0000
0020
,  // measure 40
0000
0000
0030
0100
,  // measure 41
0000
0100
0000
0100
,  // measure 42
0000
0000
0000
0010
,  // measure 43
0000
0000
0000
0200
,  // measure 44
0000
0000
0000
0300
,  // measure 45
1001
1001
0000
1000
,  // measure 46
0010
0100
0001
0010
,  // measure 47
0100
0010
0000
0001
,  // measure 48
0100
0010
1000
0100
,  // measure 49
0010
0100
0000
2000
,  // measure 50
3000
0002
0003
0200
,  // measure 51
0300
0010
0010
2000
,  // measure 52
3000
0200
0300
0010
,  // measure 53
0010
0001
0001
2000
,  // measure 54
0000
0000
3000
0020
,  // measure 55
0000
0000
0030
0200
,  // measure 56
0000
0000
0300
0002
,  // measure 57
0000
0000
0003
0020
,  // measure 58
0000
0000
0030
0200
,  // measure 59
0000
0000
0300
0010
,  // measure 60
0000
0010
0000
0020
,  // measure 61
0000
0000
0000
0030
0000
0000
0001
0000
,  // measure 62
0000
0000
0000
1000
,  // measure 63
0000
0000
0000
0001
,  // measure 64
0000
0000
0000
1000
,  // measure 65
0000
0000
0000
0010
,  // measure 66
0000
0010
0000
0100
,  // measure 67
0000
0000
0000
0100
,  // measure 68
0000
0100
0000
0010
,  // measure 69
0010
0010
0000
1001
,  // measure 70
0000
0000
0100
0000
,  // measure 71
0001
0000
0010
0100
,  // measure 72
1000
0000
0010
0100
,  // measure 73
0001
0000
0010
0001
,  // measure 74
1000
0000
0100
0000
,  // measure 75
1000
0000
0010
0000
,  // measure 76
0100
0000
0001
1000
,  // measure 77
1001
0000
0000
0000
,  // measure 78
0000
0000
0000
0000
,  // measure 79
0100
0000
0020
0000
,  // measure 80
0000
0030
0000
0000
0000
0000
1001
0000
0000
0000
0000
0000
;

//---------------dance-single - ----------------
#NOTES:
     dance-single:
     :
     Easy:
     9:
     0.365792,0.417385,0.063814,0.279187,0.000000,321.000000,313.000000,8.000000,35.000000,0.000000,0.000000,0.365792,0.417385,0.063814,0.279187,0.000000,321.000000,313.000000,8.000000,35.000000,0.000000,0.000000:
// measure 0
0000
0000
0000
0000
,  // measure 1
0000
0000
0000
0000
,  // measure 2
0000
0000
0000
0000
,  // measure 3
0000
0000
0000
0000
,  // measure 4
0000
0000
0000
0000
,  // measure 5
0000
0000
0000
0000
,  // measure 6
0000
0000
0000
0000
,  // measure 7
0110
0000
0000
0110
0000
0000
0000
0000
,  // measure 8
1000
0100
0001
0010
,  // measure 9
1000
0100
1000
0000
0001
0010
0001
0000
,  // measure 10
0110
0000
0000
0000
0000
0000
0000
0100
,  // measure 11
0100
0000
0020
0130
,  // measure 12
1000
0100
1000
0000
0001
0010
0001
0000
,  // measure 13
0100
0010
0100
0000
0002
0000
1003
0000
,  // measure 14
0001
0100
0001
0000
1000
0010
1000
0000
,  // measure 15
0010
0100
0010
0000
2000
0000
3001
0000
,  // measure 16
1000
0010
1000
0000
0010
0100
0001
0000
,  // measure 17
0010
0001
0010
0000
0200
0000
1300
0000
,  // measure 18
0010
0100
0001
0000
0010
0100
1000
0000
,  // measure 19
0100
0010
0001
0000
0100
0010
0010
0000
,  // measure 20
1000
1000
0000
0000
0001
0000
1000
0000
,  // measure 21
0100
0100
0000
0000
1000
0000
0001
0000
,  // measure 22
0100
0001
0100
0000
0010
0000
1000
0000
,  // measure 23
0100
1000
0010
0100
,  // measure 24
0001
0010
0001
0000
0100
0000
0010
1000
,  // measure 25
0010
1000
0200
0000
0310
0000
0100
0000
,  // measure 26
1000
0010
1000
0000
0001
0000
0010
0000
,  // measure 27
0100
0010
0001
2000
,  // measure 28
0000
3002
0000
0103
,  // measure 29
0010
0000
1000
0100
0010
0001
1000
0000
,  // measure 30
0001
0100
0000
0100
0001
0000
0010
0000
,  // measure 31
0100
1000
0000
1000
0010
0000
1000
0000
,  // measure 32
0100
0010
0000
0010
0100
0000
1000
0010
,  // measure 33
1000
0000
0001
0100
0001
0000
1000
0000
,  // measure 34
0010
0100
0000
0100
0010
0000
1000
0000
,  // measure 35
0001
0010
0000
0010
0100
0000
0010
0001
,  // measure 36
0010
0002
0000
1000
1003
0000
0010
0100
,  // measure 37
0000
0110
0000
0000
0010
0000
1000
0000
,  // measure 38
0100
0010
0000
0010
0001
0000
0100
0000
,  // measure 39
0010
1000
0000
1000
0100
0000
2000
0000
,  // measure 40
0000
3020
0000
0000
0130
0000
0001
1000
,  // measure 41
0100
0010
1001
0100
,  // measure 42
1000
0010
0000
0100
0001
0010
0100
0000
,  // measure 43
0010
0001
0000
1000
0010
0100
0010
0000
,  // measure 44
0010
0000
0010
0000
0010
0010
0000
1000
,  // measure 45
0001
1000
0001
0000
0000
0000
1000
0000
,  // measure 46
0010
0000
0100
0001
0010
0000
0001
0000
,  // measure 47
0100
0000
0010
1000
0100
0000
1000
0000
,  // measure 48
0001
0000
0100
0010
1000
0000
0100
0010
,  // measure 49
0001
0000
1000
0001
0010
0000
0002
0000
,  // measure 50
0103
2000
3100
0020
,  // measure 51
1000
0100
1030
0002
,  // measure 52
0013
2000
3010
0200
,  // measure 53
0320
0032
2003
3020
,  // measure 54
0000
0000
0030
0001
,  // measure 55
0000
0010
0000
1000
0100
0000
2000
0000
,  // measure 56
0000
0000
3000
0010
,  // measure 57
0000
0100
0000
0001
0010
0000
0002
0000
,  // measure 58
0000
0003
0100
0010
,  // measure 59
1000
0001
1000
0200
,  // measure 60
0010
0010
0010
0020
,  // measure 61
0000
0000
0000
0330
0000
0000
0001
0000
,  // measure 62
0000
1000
0000
0100
0000
0020
0000
0000
,  // measure 63
0000
0200
0000
0000
0330
0000
0010
0000
,  // measure 64
0000
0100
0000
1000
0000
0002
0000
0000
,  // measure 65
0000
0003
0100
0100
,  // measure 66
0000
0010
0000
1000
0000
0200
0000
0000
,  // measure 67
0000
2000
0000
0000
3300
0000
0100
0000
,  // measure 68
0000
0010
0000
0001
0000
2000
0000
3001
,  // measure 69
1000
0001
1000
0000
0000
0000
1001
0000
,  // measure 70
0010
0000
0100
0000
0001
0010
0001
0010
,  // measure 71
0100
0010
0001
0000
0100
0000
0010
1000
,  // measure 72
0100
0010
0200
1300
,  // measure 73
0020
0000
0031
0000
0100
0000
1000
0010
,  // measure 74
0100
0000
0010
0000
1000
0100
1000
0100
,  // measure 75
0010
0100
1000
0000
0020
0000
0000
0000
,  // measure 76
0230
0000
0301
1000
,  // measure 77
1001
0000
0100
0010
,  // measure 78
0001
1000
0002
0000
,  // measure 79
1003
0000
0010
0010
,  // measure 80
0010
0000
1001
0000
;

//---------------dance-single - ----------------
#NOTES:
     dance-single:
     :
     Medium:
     12:
     0.517351,0.642130,0.159535,0.295141,0.051849,454.000000,434.000000,20.000000,37.000000,0.000000,0.000000,0.517351,0.642130,0.159535,0.295141,0.051849,454.000000,434.000000,20.000000,37.000000,0.000000,0.000000:
// measure 0
0000
0000
0000
0000
,  // measure 1
0000
0000
0000
0000
,  // measure 2
0000
0000
0000
0000
,  // measure 3
0000
0000
0000
0000
,  // measure 4
0000
0000
0000
0000
,  // measure 5
0000
0000
0000
0000
,  // measure 6
0000
0000
0000
0000
,  // measure 7
1001
0000
0000
1001
0000
0000
0000
0000
,  // measure 8
0001
0001
0100
0100
0010
0010
1000
1000
,  // measure 9
0100
0100
0010
0010
0001
0001
1000
1000
,  // measure 10
1001
0000
0000
0000
0000
0000
0000
0010
,  // measure 11
0110
0000
0000
0000
0100
0100
0200
0000
,  // measure 12
0301
0010
0001
0010
0100
1000
0100
1000
,  // measure 13
0010
0100
0010
0100
0001
1000
0002
0000
,  // measure 14
0013
0100
0010
0100
1000
0010
1000
0010
,  // measure 15
0100
0001
0100
0001
0020
0000
0130
1000
,  // measure 16
0010
0100
0001
0100
0010
0100
0001
0100
,  // measure 17
1000
0100
0001
0100
0020
0000
1030
0000
,  // measure 18
0100
0010
0001
1000
0010
1000
0001
0100
,  // measure 19
0010
0100
0001
0010
1000
0010
0010
0100
,  // measure 20
0110
0110
0000
0010
0001
0100
0001
1000
,  // measure 21
1001
1001
0000
0000
0010
0100
0001
0010
,  // measure 22
0001
0100
1000
0000
0100
0000
0010
0000
,  // measure 23
1000
0000
0100
0000
0010
0001
0100
0010
,  // measure 24
1000
0100
0001
0000
0100
0000
1000
0010
,  // measure 25
0100
0001
2000
0000
3100
0010
0001
0100
,  // measure 26
0010
0100
1000
0000
0100
0000
0001
0000
,  // measure 27
0010
0000
0100
0000
1000
0001
0200
0000
,  // measure 28
0310
0000
1000
0100
1000
0000
0020
0000
,  // measure 29
0100
0000
0130
0001
0010
0100
1000
0000
,  // measure 30
0001
0010
0000
0001
0100
0010
1000
0000
,  // measure 31
0100
1000
0000
0100
0010
0001
2000
0000
,  // measure 32
3100
0020
0000
0100
0130
0000
1000
0010
,  // measure 33
0100
0001
0010
0100
0010
0001
1000
0000
,  // measure 34
0001
0100
0000
0010
0100
0001
1000
0000
,  // measure 35
0010
1000
0000
0100
1000
0001
0010
0010
,  // measure 36
0010
0002
1000
1000
1003
0100
0010
0110
,  // measure 37
0000
0000
1001
0000
0000
0000
0001
0000
1000
0000
0001
0000
0100
0000
0000
0010
,  // measure 38
1000
0000
0100
0000
0000
0000
1000
0000
0001
0000
0010
0000
0001
0000
0000
0100
,  // measure 39
0010
1000
0000
0100
1000
0001
0200
0000
,  // measure 40
0010
0320
0000
0100
0130
0000
0001
1000
,  // measure 41
0001
0000
0100
0000
0101
0000
0000
0110
0000
0000
1010
0000
1100
0000
0000
1000
,  // measure 42
0100
0000
0010
0000
0000
0000
0001
0000
0100
0000
0001
0000
0010
0000
0000
0100
,  // measure 43
1000
0010
0000
1000
0001
1000
0020
0000
,  // measure 44
0100
0000
0100
0000
0100
0130
0000
0001
,  // measure 45
1000
0001
1000
0000
1001
0000
0001
0010
,  // measure 46
1000
0010
0100
1000
0001
0100
0001
0010
,  // measure 47
0100
0001
0100
1000
0001
0000
1000
0010
,  // measure 48
0001
0010
0100
0001
1000
0100
1000
0010
,  // measure 49
0100
1000
0100
0001
1000
0000
0020
0000
,  // measure 50
1030
0010
2000
0001
3001
1000
0002
0000
,  // measure 51
0103
0001
0200
0010
0010
0310
2000
0000
,  // measure 52
3100
1000
0020
0100
0130
0001
0020
0001
,  // measure 53
0031
0100
0010
0010
1000
0000
2200
0000
,  // measure 54
0000
0000
3300
0200
,  // measure 55
0000
0302
0000
0103
0010
0001
0200
0000
,  // measure 56
0000
0000
0000
0000
0000
0000
0000
0000
0300
0000
0000
0100
0020
0000
0000
0000
,  // measure 57
0000
2030
0000
3010
0100
0001
0020
0000
,  // measure 58
0000
0000
0000
0130
0001
0100
1000
0000
,  // measure 59
0010
0000
0000
0100
0000
0000
0001
0000
0000
1000
0000
0001
,  // measure 60
0000
0000
1000
0000
0000
0000
0001
0000
0000
1000
0000
0000
0001
0000
0000
2000
0000
0000
0002
0000
0000
0000
0000
0000
,  // measure 61
0000
0000
0000
3003
0000
0000
1000
1000
,  // measure 62
0000
0001
0000
0100
0001
0200
0000
0000
,  // measure 63
0310
2000
0000
0000
3000
0000
0010
0010
,  // measure 64
0000
0100
0000
0001
0010
0200
0000
0000
,  // measure 65
0010
0000
0010
0310
0100
0010
0001
0001
,  // measure 66
0000
0100
0000
0010
1000
0200
0000
0000
,  // measure 67
0310
0002
0000
0000
0003
0000
0010
0010
,  // measure 68
0000
0100
0000
1000
0010
2000
0000
3001
,  // measure 69
1000
0001
1001
0000
0100
0010
1000
0001
,  // measure 70
1001
0000
1000
0000
0010
0100
0001
0010
,  // measure 71
1000
0010
0100
0100
1000
0001
0100
0010
,  // measure 72
0001
0000
0010
0000
1000
0100
1000
0000
,  // measure 73
0001
0010
0001
0001
0100
0010
1000
0100
,  // measure 74
0001
0000
0100
0000
0010
0100
1000
0010
,  // measure 75
0001
0010
0100
0001
1000
1000
1000
0000
,  // measure 76
0001
0001
0001
0000
0100
0100
0010
0010
,  // measure 77
1001
0000
0100
0010
,  // measure 78
1000
0100
1000
0000
0002
0000
0000
0000
,  // measure 79
1003
0000
0000
0000
0000
0000
0010
0100
0010
0100
0001
1000
,  // measure 80
0001
1000
0000
0000
0000
0000
1001
0000
0000
0000
0000
0000
;

//---------------dance-single - ----------------
#NOTES:
     dance-single:
     :
     Hard:
     15:
     0.780584,0.931089,0.231326,0.207396,0.634153,685.000000,656.000000,29.000000,26.000000,0.000000,0.000000,0.780584,0.931089,0.231326,0.207396,0.634153,685.000000,656.000000,29.000000,26.000000,0.000000,0.000000:
// measure 0
0000
0000
0000
0000
,  // measure 1
0000
0000
0000
0000
,  // measure 2
0000
0000
0000
0000
,  // measure 3
0000
0000
0000
0000
,  // measure 4
0000
0000
0000
0000
,  // measure 5
0000
0000
0000
0000
,  // measure 6
0000
0000
0000
0000
,  // measure 7
0110
0000
0000
1001
0000
0000
0000
0000
,  // measure 8
1000
0100
1000
0000
0001
0010
0001
0000
0100
0001
0100
0000
0010
1000
0010
0000
,  // measure 9
0100
0010
0100
0010
1000
0100
1000
0100
0010
0001
0010
0001
1000
0001
1000
0000
,  // measure 10
1001
0000
0000
0000
0000
0000
0000
0000
0000
0000
0000
0000
0000
0000
0001
0010
,  // measure 11
1000
0000
0000
0000
0000
0000
0000
0000
0010
0000
0100
0020
0100
0000
0100
0000
,  // measure 12
0031
0100
0001
0000
0100
0010
0100
0000
0010
1000
0010
0000
1000
0100
1000
0000
,  // measure 13
0001
1000
0001
0000
0010
0001
0010
0000
0100
0010
0100
0000
0020
0000
0000
0000
,  // measure 14
0130
1000
0100
0000
0010
0001
0010
0000
0001
0100
0001
0000
1000
0010
1000
0000
,  // measure 15
0001
1000
0001
0000
0010
0100
0010
0000
0200
0000
0000
0000
1300
0000
0001
0000
,  // measure 16
0100
0001
0100
0000
0010
1000
0010
0000
0100
0010
1000
0000
0100
0010
0001
0000
,  // measure 17
1000
0100
1000
0000
0001
0010
0001
0000
2000
0000
0000
0000
3010
0000
0000
0000
,  // measure 18
0100
0010
1000
0000
0100
0010
0001
0000
0010
0100
1000
0000
0010
0100
0001
0000
,  // measure 19
0010
0001
1000
0000
0100
1000
0001
0000
1000
0000
1100
0000
1100
0000
0100
0000
,  // measure 20
0110
0000
0110
0000
0000
0000
0010
0100
0010
0000
0001
0000
0100
0000
0010
0000
,  // measure 21
1000
0001
1000
0000
0000
0000
0000
0000
0010
0000
0100
0000
0010
0000
1000
0010
,  // measure 22
1000
0100
0010
0001
1000
0001
0100
0001
,  // measure 23
1000
0000
0001
0000
0010
0000
0001
0000
0100
0000
0010
0000
1000
0000
0100
1000
,  // measure 24
0100
0010
0001
1000
0010
1000
0200
0320
,  // measure 25
0032
0000
2003
0000
3020
0000
0000
1030
0100
0000
1000
0000
0001
0000
0010
0001
,  // measure 26
0010
0001
1000
0010
0100
0010
0001
0010
,  // measure 27
0100
0000
0010
0000
1000
0000
0010
0000
0100
0000
0001
0000
1000
0000
1000
0100
,  // measure 28
1000
0000
0000
0000
0001
0000
0001
0010
0001
0000
0000
0000
1000
0010
1000
0000
,  // measure 29
0001
0100
0001
0000
0010
0100
1000
0010
0100
0010
1000
0001
0010
0000
0000
0100
,  // measure 30
0010
0000
0001
0000
0000
0000
0100
1000
0100
0000
0010
0000
1000
0000
0000
0100
,  // measure 31
0010
0000
1000
0000
0000
0000
0010
0001
0010
0000
0100
0000
2000
0000
0000
0000
,  // measure 32
3010
0000
0002
0000
0000
0000
0010
0000
0013
0000
0100
0000
0001
0010
0100
0010
,  // measure 33
0001
0000
1000
0010
0100
0001
0100
0010
1000
0000
0001
0010
0100
0000
0000
0001
,  // measure 34
0100
0000
0010
0000
0000
0000
0100
1000
0100
0000
0010
0000
0001
0000
0000
1000
,  // measure 35
0010
0000
0100
0000
0000
0000
0010
0001
0010
0000
1000
0000
0100
0010
0100
0010
,  // measure 36
0100
2000
0010
0001
0100
3001
0010
0110
,  // measure 37
0100
0000
1100
0000
0000
0000
1000
0000
0010
0000
1000
0100
0010
0000
0001
0010
,  // measure 38
0001
0000
0100
0000
0000
0000
0010
1000
0100
0000
1000
0000
0010
0000
0100
0001
,  // measure 39
0100
0000
0010
0000
0000
0000
1000
0100
0010
0000
0001
0000
0200
0000
0000
0000
,  // measure 40
1300
0000
0200
0000
0000
0000
0010
0000
0310
0000
0000
0000
1000
0000
0001
0010
,  // measure 41
0001
0000
0100
0000
0010
1000
0000
1000
0100
0000
0010
0000
0011
0000
0001
0100
,  // measure 42
0010
0000
1010
0000
0000
0000
1000
0010
1000
0000
0100
0000
0010
0001
0000
0001
,  // measure 43
0100
0000
0101
0000
0002
0000
1003
0100
1000
0000
0010
0000
0100
0000
0001
0010
,  // measure 44
0001
0000
1000
0010
1000
0000
0010
0100
0001
0000
0100
0000
0000
0000
0010
0000
,  // measure 45
1010
0100
0101
0001
0010
0001
0100
0010
,  // measure 46
1000
0000
0001
0010
0001
0100
0001
0010
0100
0000
1000
0000
0001
0000
0100
0000
,  // measure 47
0010
0000
0100
0001
0100
0000
0010
1000
0010
0000
0100
0000
0001
0000
0100
0000
,  // measure 48
0010
0000
1000
0100
1000
0000
0010
0100
0010
0000
1000
0000
0001
0010
0001
0000
,  // measure 49
1000
0000
0010
0100
0001
0000
0100
0010
2000
0000
0000
0000
3001
0000
0010
0001
,  // measure 50
0010
0000
0100
1000
0100
1000
0010
1000
0100
0000
0010
0000
0001
0000
0100
0010
,  // measure 51
0100
0000
0001
0010
0002
0000
0100
0000
0203
0000
0010
0000
0310
1000
0010
0000
,  // measure 52
0100
0000
0001
0010
0001
0000
1000
0100
1000
0000
0010
0100
0010
0000
1000
0000
,  // measure 53
0001
0000
0001
0000
0010
0000
0100
0000
0100
0000
0010
0000
0100
1000
0100
0000
,  // measure 54
1000
0000
0100
1000
0100
0000
0010
0000
0100
1000
0100
0000
1000
0000
0100
1000
,  // measure 55
0100
0000
0010
0000
0001
0000
0100
0000
0010
0000
1000
0000
0001
0010
0001
0000
,  // measure 56
0010
0000
0001
0010
0001
0000
0100
0000
0001
0010
0001
0000
0010
0000
0001
0010
,  // measure 57
0001
0000
0100
0000
0010
0000
1000
0000
0100
0000
1000
0000
0010
0100
0010
0000
,  // measure 58
0100
0000
0001
0100
0001
0000
0010
0000
0100
1000
0100
0000
1000
0000
0010
1000
,  // measure 59
0010
0000
0000
0100
0000
0000
0001
0000
0000
0010
0000
0000
0100
0000
0000
0010
0000
0000
0001
0000
1000
0000
0001
0000
,  // measure 60
1000
0000
0000
0000
0001
0000
0000
0000
1000
0000
0000
0000
0001
0000
0000
1000
0000
0000
0001
0000
0000
1000
0000
0000
0001
0000
0000
1000
0000
0000
0001
0000
0000
1000
0000
0000
0002
0000
0000
0000
0000
0000
0100
0000
0000
0000
0000
0000
,  // measure 61
0000
0100
0000
0103
0010
1000
0001
1001
,  // measure 62
0000
1100
0000
0010
0100
2000
0000
0000
,  // measure 63
3010
0100
0002
0000
0000
0000
0000
0000
0003
0000
0000
0000
1000
0000
1010
0000
,  // measure 64
0000
0000
0110
0000
0000
0000
0001
0100
0001
0000
0020
0000
0000
0000
0100
0000
,  // measure 65
0100
0100
0130
0010
0001
0100
0110
0110
,  // measure 66
0000
1010
0000
1000
0100
0020
0000
0000
,  // measure 67
0031
1000
0200
0000
0000
0000
0000
0000
0300
0000
0000
0000
1100
0000
1100
0000
,  // measure 68
0000
0000
1001
0000
0000
0000
0001
0100
0001
0000
0020
0000
0000
0000
0130
0010
,  // measure 69
0100
0010
0001
1000
0001
0000
0000
0000
0100
0000
0010
0000
1001
0000
0110
0000
,  // measure 70
1001
0000
1000
0000
0100
0000
0010
0000
0100
1000
0100
1000
0001
0010
0001
0000
,  // measure 71
0100
0001
0100
0001
1000
0010
1000
0000
0100
0000
0010
0001
0010
0000
0100
0000
,  // measure 72
0001
0000
0100
0000
1000
0000
0010
0000
0100
0001
0100
0000
0010
0000
0100
0000
,  // measure 73
0010
1000
0010
0000
0100
0000
0010
0000
1000
0000
0100
0010
0100
0000
0010
0000
,  // measure 74
1000
0000
0010
0000
0001
0000
0100
0000
0010
1000
0100
0010
0001
0100
0001
0000
,  // measure 75
0010
0001
0100
0010
1000
0100
1000
0000
0010
1000
0010
1000
0010
0000
0000
0000
,  // measure 76
0100
0001
0100
0001
0100
0000
0000
0000
0001
0010
0001
0000
1000
0100
1000
0000
,  // measure 77
1001
0000
0010
0100
,  // measure 78
0001
0000
0010
0100
0010
0000
0000
0000
0002
0000
0000
0000
0000
0000
0000
0000
,  // measure 79
1003
0000
0000
0000
0000
0000
0010
0100
0001
0010
0100
1000
,  // measure 80
0010
0100
0000
0000
0000
0000
1001
0000
0000
0000
0000
0000
;

//---------------dance-single - ----------------
#NOTES:
     dance-single:
     :
     Challenge:
     17:
     0.929864,1.091621,0.350978,0.350978,1.013050,816.000000,772.000000,44.000000,44.000000,0.000000,0.000000,0.929864,1.091621,0.350978,0.350978,1.013050,816.000000,772.000000,44.000000,44.000000,0.000000,0.000000:
// measure 0
0000
0000
0000
0000
,  // measure 1
0000
0000
0000
0000
,  // measure 2
0000
0000
0000
0000
,  // measure 3
0000
0000
0000
0000
,  // measure 4
0000
0000
0000
0000
,  // measure 5
0000
0000
0000
0000
,  // measure 6
0000
0000
0000
0000
,  // measure 7
1001
0000
0000
1001
0000
0000
0000
0000
,  // measure 8
1000
0001
1000
0001
1000
0010
1000
0010
1000
0100
1000
0100
0010
0100
0010
0100
,  // measure 9
0010
0000
0000
0001
0000
0000
0010
0000
0000
0001
0000
0000
0100
0000
0000
0001
0000
0000
0100
0000
0000
0001
0000
0000
1000
0000
0000
0001
0000
0000
1000
0000
0000
0001
0000
0000
1000
0000
0001
0000
1000
0000
0001
0000
0000
0000
0000
0000
,  // measure 10
1001
0000
0000
0000
0000
0000
0000
0000
0000
0000
0000
0000
0000
0000
0000
0000
0000
0000
0000
0000
0000
1000
0100
0010
,  // measure 11
0001
0000
0000
0000
0000
0000
0000
0000
0000
0000
0000
0000
0100
0000
0000
0010
0100
0010
0200
0000
0000
0010
0000
0000
,  // measure 12
0301
0010
0001
0100
0001
0010
0001
0100
0010
0100
0001
0100
0010
0100
0001
0100
,  // measure 13
0010
1000
0010
0100
0010
1000
0010
0100
0001
1000
0010
1000
0001
0000
0000
0000
,  // measure 14
1000
0010
1000
0001
1000
0010
1000
0001
0100
0010
1000
0010
0100
0010
1000
0010
,  // measure 15
0100
0001
0100
0010
0100
0001
0100
0010
0200
0000
0000
0000
0310
0000
1000
0000
,  // measure 16
0010
0100
0001
0100
0010
0100
0001
0100
0010
0100
1000
0100
0010
0100
1000
0100
,  // measure 17
0001
0100
1000
0100
0001
0100
1000
0100
0002
0000
0000
0000
1003
0000
0000
0000
,  // measure 18
0010
0100
0010
1000
0010
0100
0010
1000
0100
0010
0100
1000
0100
0010
0100
1000
,  // measure 19
0001
0010
0001
0100
0001
0010
0001
0100
0001
0000
1001
0000
1001
0000
0100
0000
,  // measure 20
1100
0000
1100
0000
0000
0000
0010
0001
0010
0000
0011
0000
0101
0000
0110
0000
,  // measure 21
1000
0000
0000
0001
0000
0000
1001
0000
0000
0000
0000
0000
0000
0000
0000
0000
0000
0000
0000
0000
0000
0000
0000
0000
1000
0000
0000
0000
0000
0000
0001
0000
0000
0000
0000
0000
0010
0000
0000
0000
0000
0000
0001
0000
0100
0000
0001
0000
,  // measure 22
0100
0000
0010
1000
0002
0000
1000
0000
0203
0000
0010
0000
0302
0000
0100
0000
,  // measure 23
2003
0000
0000
0010
0000
0000
3200
0000
0000
0001
0000
0000
0320
0000
0000
1000
0000
0000
0130
0000
0000
0010
0001
0010
,  // measure 24
0001
0000
1000
0010
0200
0000
1000
0000
0302
0000
0010
0000
2003
0000
3020
0000
,  // measure 25
0230
0000
0000
0000
0000
0000
0302
0000
0000
0000
0000
0000
0023
0000
0000
0000
0000
0000
0000
0000
0000
0031
0000
0000
0100
0000
0000
0000
0000
0000
0001
0000
0000
0000
0000
0000
0010
0000
0000
0000
0000
0000
0100
0000
1000
0000
0100
0000
,  // measure 26
1000
0000
0010
1000
0200
0000
0001
0000
0320
0000
1000
0000
0032
0000
0010
0000
,  // measure 27
2003
0000
0000
0000
0000
0000
0100
0000
0000
0000
0000
0000
3020
0000
0000
0000
0000
0000
0130
0000
0000
0010
0000
0000
0100
0000
0000
0000
0000
0000
0010
0000
0000
0000
0000
0000
1000
0000
0000
0000
0000
0000
0001
0000
0000
0000
1000
0000
,  // measure 28
0001
0000
0000
0000
0000
0000
0100
0000
0000
0000
0000
0000
0010
0000
0000
0000
0000
0000
0100
0000
0001
0000
0100
0000
0001
0000
0000
0000
0000
0000
0010
0000
0000
0000
0000
0000
0100
0000
0000
1000
0000
0000
0100
0000
0000
0010
0000
0000
,  // measure 29
0100
1000
0100
0010
0100
1000
0001
0100
0010
0001
0010
0100
0001
0000
1000
0100
,  // measure 30
0010
0000
1000
0000
0010
0001
0100
0010
1000
0000
0010
0000
0100
0000
0001
0100
,  // measure 31
0010
0000
0001
0000
0010
1000
0100
0010
0001
0000
0010
0000
0200
0000
1000
0000
,  // measure 32
1000
0000
0320
0000
0130
1000
0001
0000
0010
0000
0001
0000
0100
0010
1000
0100
,  // measure 33
0010
0100
1000
0001
0100
0010
0100
0001
0010
1000
0010
0100
1000
0000
0010
0100
,  // measure 34
0001
0000
0010
0000
1000
0010
0001
0100
0010
0000
0100
0000
0001
0000
0010
0100
,  // measure 35
1000
0000
0010
0000
0001
0010
1000
0100
0010
0000
0100
0000
1000
0010
1000
0010
,  // measure 36
0100
0000
0002
0000
1000
0000
1003
0100
1000
0000
0010
0000
1010
0000
0101
0000
,  // measure 37
0010
0000
0000
0000
0000
0000
1001
0000
0000
0000
0000
0000
0001
0000
0000
0010
0000
0000
0100
0000
0000
1000
0000
0000
0010
0000
0000
0000
0100
0000
0000
0000
0010
0000
0000
0000
0100
0000
0000
0000
0000
0000
0001
0000
0000
0010
0000
0000
,  // measure 38
0001
0000
0000
0000
0000
0000
0200
0000
0000
0000
0000
0000
0001
0000
0000
0000
0000
0000
0310
0000
0000
0100
0000
0000
0010
0000
0000
0000
0000
0000
0100
0000
0000
0000
0000
0000
0001
0000
0000
0000
0000
0000
0010
0000
0001
0000
0010
0000
,  // measure 39
0001
0000
2000
0000
0100
0000
3010
1000
0010
0000
0100
0000
0002
0000
0100
0000
,  // measure 40
0100
0000
0203
0000
0310
0000
0110
0000
1001
0000
0000
0000
1000
0000
0001
0010
,  // measure 41
0100
0000
1000
0000
0001
0100
0010
0100
0001
0000
1001
0000
1010
0000
1000
0010
,  // measure 42
0100
0000
0101
0000
0000
0000
0001
0100
0010
0000
1000
0000
0001
0010
0000
0100
,  // measure 43
1000
0000
1100
0000
0200
0000
1300
0010
1000
0000
0100
0000
0010
0000
0001
0100
,  // measure 44
0010
0000
1000
0010
0100
0000
0001
1000
0010
0000
0100
0000
0000
0000
0101
0000
,  // measure 45
1010
0011
1100
2000
3002
0203
0320
0130
,  // measure 46
0002
0000
0013
0100
1000
0100
0010
0100
1000
0000
0010
0000
0100
0000
0001
0000
,  // measure 47
0100
0000
0010
1000
0100
0000
1000
0010
0100
0000
0001
0000
0010
0000
0100
0000
,  // measure 48
2000
0000
3010
0100
0001
0000
0100
0010
1000
0000
0100
0000
0010
0001
1000
0000
,  // measure 49
0010
0000
1000
0100
0001
0000
0100
1000
0020
0000
0000
0000
1030
0000
0100
1000
,  // measure 50
0001
0000
0010
0001
0100
0010
1000
0100
0010
0000
0100
0000
1000
0000
0010
0100
,  // measure 51
0001
1000
0100
0010
0001
0010
0100
0010
1000
0010
0001
0010
0100
1000
0100
0010
,  // measure 52
0001
0000
0100
0010
1000
0000
0100
1000
0001
0000
0010
0001
0100
0000
0010
0000
,  // measure 53
1000
0000
0000
0000
0000
0000
0100
0000
0000
0010
0000
0000
0100
0000
0000
1000
0000
0000
0100
0000
0000
0010
0000
0000
0001
0000
0000
0100
0000
0000
0010
0000
0000
1000
0000
0000
0100
0000
1000
0000
0100
0000
1000
0000
0000
0000
0000
0000
,  // measure 54
0001
0000
0000
1000
0100
1000
0100
0000
0000
0010
0000
0000
0100
1000
0100
1000
0000
0000
0001
0000
0000
1000
0100
1000
,  // measure 55
0100
0000
0000
0010
0000
0000
0100
0000
0000
1000
0000
0000
0010
0000
0000
0100
0000
0000
0001
0100
0001
0100
0000
0000
,  // measure 56
0010
0000
0000
0100
0001
0100
0001
0000
0000
1000
0000
0000
0001
0100
0001
0100
0000
0000
0010
0000
0000
0100
0001
0100
,  // measure 57
0001
0000
0000
1000
0000
0000
0010
0000
0000
0100
0000
0000
0010
0000
0000
1000
0000
0000
0100
0010
0001
0010
0000
0000
,  // measure 58
0001
0000
0000
0010
0100
1000
0100
0000
0000
0010
0000
0000
0001
0010
0100
0010
0000
0000
0100
0000
0000
1000
0010
1000
,  // measure 59
0100
0000
0000
0010
0000
0000
0001
0000
0000
0100
0000
0000
1000
0000
0000
0100
0000
0000
0001
0000
1000
0000
0010
0000
,  // measure 60
0100
0000
0000
0000
0001
0000
0000
0000
0010
0000
0000
0000
0100
0000
0000
0010
0000
0000
0001
0000
0000
1000
0000
0000
0010
0000
0000
0100
0000
0000
0010
0000
0000
2000
0000
0000
0002
0000
0000
0000
0000
0000
0000
0000
0000
0000
0000
0000
,  // measure 61
0000
0000
3000
0013
0100
1000
1010
1010
,  // measure 62
0000
0110
0000
0100
0001
0012
0010
0000
,  // measure 63
1003
0100
0010
0000
0001
0000
0010
0000
1000
0000
0000
0000
0101
0000
0101
0000
,  // measure 64
0000
0000
1100
0000
0000
0000
0100
1000
0001
0000
0020
0000
0000
0000
0100
0000
,  // measure 65
0100
0100
0130
1000
0001
0010
0110
1100
,  // measure 66
0000
1001
0000
0101
0001
2000
0000
0000
,  // measure 67
3100
0010
0002
0000
0000
0000
0000
0000
0003
0000
0000
0000
0011
0000
0110
0000
,  // measure 68
0000
0000
1100
0000
0000
0000
0001
0100
0010
0000
0200
0000
0000
0000
0301
0010
,  // measure 69
0100
1000
0001
1000
1001
0000
0000
0000
0001
0000
1000
0000
1010
0000
0101
0000
,  // measure 70
1001
0000
0001
0000
0010
0000
0100
0000
0010
0001
0100
0010
1000
0010
0001
0010
,  // measure 71
0100
0000
0000
0001
0000
0000
0010
0000
0000
0100
0000
0000
0010
0000
0000
0001
0000
0000
1000
0000
0000
0010
0000
0000
0100
0000
0000
0000
0000
0000
0001
0000
0010
0000
0001
0000
0010
0000
0000
0000
0000
0000
0001
0000
0000
0100
0000
0000
,  // measure 72
1000
0000
0100
0000
0001
0000
1000
0000
0100
1000
0010
1000
0100
0000
0010
0000
,  // measure 73
0001
0000
0000
0100
0000
0000
0010
0000
0000
0100
0000
0000
0001
0000
0000
0000
0000
0000
0010
0000
0000
0000
0000
0000
0100
0000
0000
0000
0000
0000
1000
0000
0010
0000
1000
0000
0010
0000
0000
0000
0000
0000
1000
0000
0000
0100
0000
0000
,  // measure 74
0001
0000
0100
0000
1000
0000
0010
0000
0100
0010
1000
0100
0010
0001
0010
1000
,  // measure 75
0010
0100
1000
0010
0100
0001
0010
0100
1000
0001
1000
0001
1000
0001
1000
0001
,  // measure 76
0100
0010
0100
0010
0100
0010
0100
0010
1000
0100
1000
0100
0010
0001
0010
0001
,  // measure 77
1001
0000
1000
0001
,  // measure 78
0100
0000
0000
0010
1000
0100
0010
0000
0000
0000
0000
0000
0002
0000
0000
0000
0000
0000
0000
0000
0000
0000
0000
0000
,  // measure 79
1003
0000
0000
0000
0000
0000
0001
0100
0010
1000
0100
0010
,  // measure 80
0001
0100
0010
0000
0000
0000
0000
0000
0000
0000
0000
0000
1001
0000
0000
0000
0000
0000
0000
0000
0000
0000
0000
0000
;
