#TITLE:HУMЛ;
#SUBTITLE:;
#ARTIST:Zutt;
#TITLETRANSLIT:;
#SUBTITLETRANSLIT:;
#ARTISTTRANSLIT:;
#GENRE:;
#CREDIT:;
#BANNER:HYMN.png;
#BACKGROUND:HYMN-bg.png;
#LYRICSPATH:;
#CDTITLE:cdtitle.png;
#MUSIC:HYMN.ogg;
#OFFSET:-0.013000;
#SAMPLESTART:105.223999;
#SAMPLELENGTH:15.000000;
#SELECTABLE:YES;
#DISPLAYBPM:*;
#BPMS:0.000000=158.000000
,60.000000=200.000000
,248.000000=158.000000
,303.500000=200.000000
,428.000000=192.000000
,434.000000=185.000000
,435.000000=190.000000
;
#STOPS:
;
#BGCHANGES:;
#KEYSOUNDS:;
#ATTACKS:;

//---------------dance-single - ----------------
#NOTES:
     dance-single:
     :
     Challenge:
     18:
     1.021205,1.294202,0.974200,0.490326,1.038716,1108.000000,957.000000,151.000000,76.000000,0.000000,0.000000,1.021205,1.294202,0.974200,0.490326,1.038716,1108.000000,957.000000,151.000000,76.000000,0.000000,0.000000:
// measure 0
0020
0000
2030
0000
,  // measure 1
3200
0000
0302
0023
,  // measure 2
0230
0000
1000
0000
0010
0000
0001
0000
1000
0000
0001
0000
,  // measure 3
0010
0000
0001
0000
1000
0000
0320
0000
0001
0000
0100
0000
,  // measure 4
2030
0000
3002
0000
,  // measure 5
0023
0000
2030
3200
,  // measure 6
0320
0000
0001
0000
0100
0000
1000
0000
0001
0000
1000
0000
,  // measure 7
0230
0000
1000
0000
0001
0000
0010
0000
1000
0000
0301
0000
,  // measure 8
0201
0000
0302
0000
2003
0000
0000
3000
,  // measure 9
1020
0000
0230
0000
0302
0000
0023
0030
,  // measure 10
0210
0000
0000
0001
0000
0000
2300
0000
0010
0000
0100
0000
,  // measure 11
3002
0000
0010
0000
1000
0000
0100
0000
1000
0000
0013
0000
,  // measure 12
0012
0000
2003
0000
3200
0000
0000
0300
,  // measure 13
2100
0000
3002
0000
0023
0000
0230
0300
,  // measure 14
2020
3030
2002
3003
0202
0000
0000
0000
,  // measure 15
0303
0000
0000
0000
,  // measure 16
0011
1100
0210
0001
,  // measure 17
0010
0001
1000
0301
,  // measure 18
0101
1010
0120
1000
,  // measure 19
0100
1000
0001
1030
,  // measure 20
1001
0000
0001
0000
0100
0000
1000
0000
0100
0000
0010
0000
,  // measure 21
1000
0000
0001
0000
0110
0000
0100
0000
1000
0000
0001
0000
,  // measure 22
0100
0000
0010
0000
1000
0000
0100
0000
0110
0000
0001
0000
,  // measure 23
1000
0000
0000
0000
0000
0000
0000
0000
0010
0000
0000
0000
0000
0000
0000
0000
0001
0000
0000
0000
0000
0000
0000
0000
0010
0000
0000
0000
0000
0000
1000
0000
0000
0100
0000
0000
0010
0000
0000
0001
0000
0000
0010
0000
0000
0100
0000
0000
,  // measure 24
1000
0010
1010
1000
1100
0100
0101
0001
,  // measure 25
0011
0010
1010
0100
0101
0010
0110
0100
,  // measure 26
1100
0100
0101
0100
1100
0100
0101
0100
,  // measure 27
1100
1010
0101
0011
0000
1010
0000
1001
,  // measure 28
0101
0001
0011
0010
1010
1000
1001
0001
,  // measure 29
0101
0100
1100
0010
1010
0100
0110
0010
,  // measure 30
0011
0010
1010
0010
0011
0010
1010
0010
,  // measure 31
0011
1010
1100
0101
0000
1001
1010
0011
,  // measure 32
0110
0010
1010
1000
1100
0100
0101
0001
,  // measure 33
0011
0000
0000
0010
0000
0000
1010
0000
0000
1000
0000
0000
1001
0000
0000
0000
1010
0000
0000
0000
0011
0000
0000
0000
,  // measure 34
1100
0001
1010
0001
1100
0001
0110
0001
,  // measure 35
1010
0000
0011
0000
1100
0000
0101
0000
0000
0000
1001
0000
1000
0100
0010
0000
,  // measure 36
1001
0001
0101
0100
1100
1000
1010
0010
,  // measure 37
0011
0000
0000
0001
0000
0000
0101
0000
0000
0100
0000
0000
0110
0000
0000
0000
0101
0000
0000
0000
1100
0000
0000
0000
,  // measure 38
0011
1000
0101
1000
0011
1000
0110
1000
,  // measure 39
0101
0000
1000
0000
0001
0010
0001
0100
0010
1000
0100
1000
0100
0010
0001
0010
,  // measure 40
0100
0000
0010
0000
0001
0000
1000
0000
0100
1000
0100
1000
0010
0000
0100
0000
,  // measure 41
0001
0000
0010
0000
0001
0000
0100
0000
0010
1000
0010
1000
0100
0000
1000
0000
,  // measure 42
0010
0000
0100
0000
0001
0000
0010
0000
0001
0100
0001
0100
0010
0000
1000
0000
,  // measure 43
0010
0000
0100
0000
0001
0000
0010
0000
0100
0010
0100
0010
0001
0000
0010
0000
,  // measure 44
0100
0000
1000
0000
0100
0000
0010
0000
0001
0100
0010
0100
0001
0000
1000
0000
,  // measure 45
0100
0000
0010
0000
0100
0000
1000
0000
0100
0010
0001
0010
0100
0000
0010
0000
,  // measure 46
0001
0000
0100
0000
0010
0000
1000
0000
0100
1000
0010
0100
0001
0000
0010
0000
,  // measure 47
0100
0000
1000
0000
0100
0000
0010
0000
0100
0010
0100
1000
0100
0000
0010
0000
,  // measure 48
0011
1010
1100
0101
0110
1001
0110
1001
,  // measure 49
1000
0010
0100
0001
0010
0100
0010
0001
0100
0010
0100
0010
0100
0010
0100
0010
,  // measure 50
1000
0000
0010
1000
0010
0000
0100
0000
0001
0010
0001
0000
1000
0100
1000
0001
,  // measure 51
0100
0000
0010
0100
0010
1000
0100
0000
0010
0000
0001
0010
0001
0000
0100
0000
,  // measure 52
0010
1000
0010
0000
0100
0001
0100
0000
0010
0100
0010
0100
0001
0100
0001
0000
,  // measure 53
1000
0000
0100
1000
0100
0000
0010
0000
0001
0100
0001
0000
1000
0010
1000
0001
,  // measure 54
0100
0000
0001
0010
0001
1000
0100
0000
0010
0000
0001
0100
0001
0000
0010
0000
,  // measure 55
0100
1000
0100
0000
0010
0001
0010
0000
0100
1000
0100
1000
0010
1000
0010
0000
,  // measure 56
0100
0000
0001
0010
0100
0000
1000
0000
0100
0010
0001
0000
0100
0010
1000
0010
,  // measure 57
0100
0000
0001
0100
0010
1000
0001
0000
0010
0000
0100
1000
0010
0000
0100
0000
,  // measure 58
0010
1000
0001
0000
0100
0010
1000
0000
0100
0010
0001
0100
0010
1000
0100
0000
,  // measure 59
0010
0000
0001
1000
0100
0000
1000
0000
0001
0010
0100
0000
1000
0010
0100
0001
,  // measure 60
0010
0000
0001
1000
0100
0010
0100
0000
1000
0000
0010
0100
0001
0000
0010
0000
,  // measure 61
0100
1000
0010
0000
0100
0001
0010
0000
0100
1000
0100
0010
0001
0100
0010
0000
,  // measure 62
0000
0000
0000
0000
0000
0000
0000
0000
1000
0100
0010
0001
1000
0100
0010
0001
,  // measure 63
1000
0010
0100
0001
1000
0010
0100
0001
1000
0100
0010
0100
1000
0001
0010
0100
,  // measure 64
0010
0001
1000
0100
1000
0001
0010
0001
0100
0010
1000
0010
0100
0001
0100
0010
,  // measure 65
1000
0100
0010
0001
0010
0100
1000
0100
0010
0100
1000
0010
0100
0001
0100
0010
,  // measure 66
1000
0010
0100
0001
0010
0000
0000
0000
1000
0100
0010
0001
0000
0000
1000
0100
,  // measure 67
0010
0000
0000
0001
0000
0000
0010
0000
0100
0000
0010
0000
0100
0000
0010
0000
0100
0000
1000
0000
0100
0000
0010
0000
0000
0000
0000
0000
0000
0000
1000
0000
0000
0010
0000
0000
0100
0000
0000
0001
0000
0000
0000
0000
0000
0001
0000
0000
,  // measure 68
1000
0000
0000
0001
0000
0000
0010
0000
0100
0000
0010
0000
0100
0000
0010
0000
0100
0000
1000
0000
0100
0000
0010
0000
0001
0000
0000
0100
0000
0000
1000
0000
0000
0000
0000
0000
0000
0000
0000
0000
0000
0000
0100
0000
0000
1000
0000
0000
,  // measure 69
0001
0010
0000
0000
0100
1000
0001
0010
0100
0010
0001
0100
0010
1000
0010
0100
,  // measure 70
0001
0000
0000
0010
0000
0000
0100
0000
0000
1000
0000
0000
0000
0000
0000
0000
0000
0000
0001
0000
0000
0010
0000
0000
0100
0000
0000
1000
0000
0000
0100
0000
0010
0000
0100
0000
0010
0000
0100
0000
0010
0000
0001
0000
0010
0000
0100
0000
,  // measure 71
0000
0000
0000
0000
0000
0000
0001
0000
0000
0100
0000
0000
0010
0000
0000
1000
0000
0000
0000
0000
0000
1000
0000
0000
0001
0000
0000
1000
0000
0000
0100
0000
0010
0000
0100
0000
0010
0000
0100
0000
0010
0000
0001
0000
0010
0000
0100
0000
,  // measure 72
1000
0010
0001
0000
0000
0000
0010
0001
1000
0100
0000
0000
0010
0001
1000
0100
,  // measure 73
0010
0100
1000
0010
0100
0001
0100
0010
1010
0000
0000
0110
0000
0000
0000
0000
,  // measure 74
0001
0000
0000
0000
0010
0000
0000
0000
1000
0000
0000
0000
0010
0000
0000
0000
0001
0000
0000
0000
0100
0000
0000
0000
0202
0000
0000
0000
0000
0000
0303
0000
0000
2020
0000
0000
0000
0000
0000
3030
0000
0000
0022
0000
0000
0000
0000
0000
,  // measure 75
0033
2200
0000
3300
2002
0000
0000
0000
0000
0000
0000
0000
3003
0000
0000
0000
,  // measure 76
0020
0000
0000
0000
,  // measure 77
2030
0001
0000
0001
0000
0001
0000
0001
,  // measure 78
3200
0001
0000
0000
0000
0000
0000
0000
,  // measure 79
0302
0000
1000
0000
0000
0000
1003
0000
0100
0010
0001
1000
0100
0010
0100
1000
,  // measure 80
0001
0000
0000
0000
0000
0000
1010
0010
0000
0000
1100
1000
0000
0000
0001
0100
,  // measure 81
0101
0000
0000
0000
0000
0000
0011
0010
0000
0000
1001
0001
0000
0000
0010
1000
,  // measure 82
1010
0000
0000
0000
0000
0000
0110
0010
0000
0000
1100
0100
0000
0000
0010
0001
,  // measure 83
0011
1100
0000
0101
0000
1010
0000
0000
,  // measure 84
1001
0000
0101
0000
0000
0000
0011
0000
0000
0000
1010
0000
0000
0000
1000
0100
,  // measure 85
0010
0000
0011
0000
0000
0000
0101
0000
0000
0000
1100
0000
0000
0001
0010
0100
,  // measure 86
1000
1010
0000
0011
0000
0101
0000
0000
,  // measure 87
1010
0001
1100
0001
0110
1000
0011
1000
,  // measure 88
0101
0000
0100
0000
0100
0000
1000
0100
0010
0000
0100
0001
1000
0000
0001
0010
,  // measure 89
0011
0000
0001
0000
0001
0000
0010
0100
1000
0000
0001
0100
0010
0000
1000
0010
,  // measure 90
1010
0000
0010
0000
0010
0000
1000
0001
0010
0000
0100
0010
0001
0000
1000
0100
,  // measure 91
1100
0000
1000
0000
1000
0000
0010
0100
0001
0000
0010
0001
1000
0000
0001
0100
,  // measure 92
0101
0000
0100
0010
1000
0000
1001
0000
1000
0000
1000
0100
0010
0000
0100
0000
,  // measure 93
1010
0000
0010
1000
0100
0000
0110
0000
0100
0000
0100
1000
0001
0000
0010
0000
,  // measure 94
1001
0000
1000
0100
0010
0000
0011
0000
0010
0000
0010
0001
1000
0000
0100
0000
,  // measure 95
1100
0000
0000
0000
0101
0000
0000
0000
0001
0010
0100
1000
0100
0010
0001
0000
,  // measure 96
1001
1000
0100
0010
0100
1000
0010
0001
0010
0100
0001
1000
,  // measure 97
1001
0001
0010
0100
1000
0010
0100
0001
0100
1000
0100
0010
,  // measure 98
0110
0100
0001
0010
0001
1000
0010
0100
1000
0100
0001
0010
,  // measure 99
0110
0100
1000
0001
0010
0100
0010
0001
0100
0010
1000
0001
,  // measure 100
1001
1000
0010
0100
0001
1000
1001
0001
0010
0100
1000
0100
,  // measure 101
0110
0010
0001
1000
0100
0010
0110
0100
1000
0001
0010
0100
,  // measure 102
1100
1000
0001
0010
0100
0010
0011
0001
0100
0010
1000
0001
,  // measure 103
0101
0100
0001
0100
0010
1000
1010
0010
1000
0010
0100
0001
,  // measure 104
1001
0000
0000
0000
,  // measure 105
0100
1000
0002
0000
1003
0001
0200
0000
,  // measure 106
0310
1000
0002
0000
0013
0100
2000
0000
,  // measure 107
3010
0100
0002
0000
1003
0100
0020
0000
,  // measure 108
0031
0010
0200
0000
1300
0010
0100
0001
,  // measure 109
2000
3020
0230
0000
,  // measure 110
0302
0000
0000
0023
0000
0000
0130
0000
1000
0000
0001
0000
,  // measure 111
0200
0320
2030
0000
,  // measure 112
0000
0000
0000
3000
,  // measure 113
0002
0203
0320
0000
,  // measure 114
2030
0000
0000
3200
0000
0000
0310
0000
0100
0000
1000
0000
,  // measure 115
0020
0230
0302
0000
,  // measure 116
0000
0000
0000
0000
,  // measure 117
0000
0000
0000
0000
,  // measure 118
0003
0000
0000
0000
;

//---------------dance-single - ----------------
#NOTES:
     dance-single:
     :
     Medium:
     13:
     0.619359,0.799360,0.425809,0.103226,0.174195,672.000000,606.000000,66.000000,16.000000,0.000000,0.000000,0.619359,0.799360,0.425809,0.103226,0.174195,672.000000,606.000000,66.000000,16.000000,0.000000,0.000000:
0010
0000
0001
0000
,
0100
0000
0010
1000
,
0200
0000
0000
0000
,
0000
0000
0020
0330
,
0100
0000
1000
0000
,
0001
0000
0100
0010
,
2000
0000
0000
0000
,
0200
0000
3000
0310
,
0011
0001
0200
0300
,
1010
0010
0100
0001
,
0110
0100
0020
0000
,
0002
0000
0000
0033
,
1100
1000
0020
0030
,
0101
0100
0010
1000
,
1010
0100
0020
0000
,
0030
0000
0000
0000
,
0011
1010
0110
0010
,
0010
0010
0010
0010
,
1100
0101
0110
0100
,
0100
0100
0100
0100
,
0010
0000
1000
0000
0100
0000
0010
0000
0100
0000
1000
0000
,
0010
0000
0100
0000
0001
0000
0010
0000
0001
0000
0100
0000
,
0010
0000
1000
0000
0100
0000
0010
0000
0001
0000
1000
0000
,
0100
0000
1000
0000
0001
0000
0010
0000
0001
0000
0100
0000
,
0010
0100
0010
1000
,
0100
1000
0010
0100
,
0001
0010
0001
1000
,
0001
0010
0100
0010
0000
0011
0000
1100
,
1000
0100
1000
0010
,
0100
0001
0010
0100
,
1000
0010
1000
0001
,
1000
0010
0100
0001
0000
0100
0001
0010
,
0100
1000
0010
1000
,
0100
0000
0000
0010
0000
0000
0001
0000
0001
0000
0001
0000
,
0010
0001
0000
1000
0000
0100
0000
1000
,
0001
1000
0100
0010
0000
0001
0100
0001
,
0010
0100
1000
0001
,
0100
0000
0000
0010
0000
0000
1000
0000
1000
0000
1000
0000
,
0010
0100
0000
0001
0000
0100
0000
1000
,
0000
0100
0010
1000
0100
0010
0100
1000
,
0010
0000
1000
1000
0100
0000
1100
0000
,
0010
0000
0100
0100
0001
0000
0101
0000
,
0001
0000
0010
0010
0100
0000
0110
0000
,
0100
0000
1000
1000
0001
0000
1001
0000
,
0100
0000
0010
0001
0010
0000
0011
0000
,
0100
0000
0010
1000
0010
0000
1010
0000
,
1000
0000
0001
0100
0001
0000
0101
0000
,
0010
0000
1000
0100
1000
0000
1100
0000
,
0010
0100
0001
0010
0100
1000
0010
0100
,
0010
0010
0010
0010
0020
0000
0000
0000
,
1030
0100
1000
0010
0100
0010
1000
0100
,
0010
0001
0100
0010
0100
0001
1000
0010
,
1000
0100
0010
0001
0010
0100
0010
0001
,
0100
0010
1000
0010
0100
0001
1000
0100
,
0010
0100
1000
0010
0100
0010
1000
0001
,
0010
0001
0100
0010
0100
0001
1000
0000
,
0001
1000
0010
0100
0001
0010
0100
0010
,
0001
1000
0100
1000
0010
0100
0001
1000
,
0001
0100
0010
0100
0001
0010
0100
1000
,
0001
0100
0010
1000
0100
0010
0100
1000
,
0001
0100
0001
1000
0010
0100
0001
0100
,
0010
1000
0100
0010
0001
1000
0100
0010
,
0000
0000
0000
0000
0000
0000
0000
0000
1000
0100
0000
0000
0100
0010
0000
0000
,
0010
0001
0000
0000
0001
1000
0000
0000
1000
0010
0000
0000
0010
0100
0000
0000
,
0100
0001
0000
0000
0001
0010
0000
0000
1000
0100
0000
0000
0010
0001
0000
0000
,
1000
0010
0000
0000
0001
0100
0000
0000
0010
1000
0000
0000
0100
1000
0000
0000
,
0010
0100
0000
0000
0010
0000
0000
0000
1000
0000
0100
0010
0000
0000
0001
0000
,
0100
0000
0001
0000
0010
0000
0100
0010
0000
0000
1000
0000
0010
0100
0000
0000
,
0001
1000
0010
0100
0001
0010
0000
1000
,
0001
0010
0000
0000
0001
0000
0100
0000
0001
0000
0010
0000
0100
0000
1000
0000
,
0001
0000
0010
0100
0000
0000
1000
0000
0010
0000
1000
0000
0100
0000
0010
0100
,
0000
0000
0001
0000
0100
0010
0000
0000
1000
0000
0001
0000
0100
0000
0010
0000
,
1000
0000
0100
0000
0000
0000
0001
0000
1000
0100
0000
0000
1000
0000
0010
0000
,
1000
0000
0100
0000
0010
0000
0001
0000
0011
0000
0000
1100
0000
0000
0000
0000
,
0001
0000
0000
0000
1000
0000
0000
0000
0001
0000
0000
0000
1000
0000
0000
0000
0001
0000
0000
0000
1000
0000
0000
0000
0001
0000
0000
0000
0000
0000
0000
0000
0000
1001
0000
0000
0000
0000
0000
0000
0000
0000
1010
0000
0000
0000
0000
0000
,
0000
0101
0000
0000
0220
0000
0000
0000
0000
0000
0000
0000
0330
0000
0000
0000
,
2000
0000
0000
0000
,
3100
0010
0000
0010
0000
0010
0000
0010
,
0002
0000
0000
0000
,
0013
0100
0000
0100
1000
0010
0100
0001
,
1001
0000
0000
1000
0000
0001
0000
0100
,
0101
0000
0000
0010
0000
1000
0000
0100
,
1100
0000
0000
1000
0000
0001
0000
0100
,
0010
0110
0000
0011
0000
1010
0000
0000
,
0100
1100
0000
0101
0000
0011
0000
0000
,
0010
0110
0000
1100
0000
1010
0000
0000
,
0001
0011
0000
1001
0000
1010
0000
0000
,
1100
0011
1010
0101
,
0110
0000
0010
1000
0001
0010
0100
1000
,
1001
0000
1000
0100
0010
0001
0100
0010
,
1010
0000
0100
0010
0100
1000
0001
0010
,
0011
0000
0001
0100
0010
0100
0001
1000
,
1001
0000
1000
1100
0000
0100
0010
0000
,
0101
0000
0010
0011
0000
0001
1000
0000
,
1010
0000
0100
0110
0000
0010
0001
0000
,
0011
1100
0110
1001
,
0010
0100
0001
0010
0100
1000
0010
0100
,
0010
1000
0001
0010
0001
1000
0100
0010
,
0001
0100
0001
1000
0010
0100
0001
1000
,
0100
0010
0100
1000
0010
0100
0001
1000
,
1001
0001
0010
0100
0010
0100
1000
0010
,
1010
1000
0001
0010
0100
0010
0001
0100
,
0101
0001
0010
0001
1000
0100
0010
0100
,
1100
1000
0010
0100
0001
0010
0100
1000
,
1001
0000
0000
0000
,
1000
0100
1000
0000
0001
0010
0001
0000
,
0100
0010
0100
0000
0010
1000
0010
0000
,
0100
0001
0100
0000
0001
1000
0001
0000
,
0010
0100
0010
0000
0001
0010
0100
0010
,
0001
1000
0100
0000
,
1000
0000
0000
0010
0000
0000
0100
0000
0100
0000
0100
0000
,
0010
1000
0002
0000
,
0000
0000
0000
0003
,
1000
0001
0010
0000
,
0100
0000
0000
0010
0000
0000
0001
0000
0001
0000
0001
0000
,
0100
0010
2000
0000
,
0000
0000
0000
0000
,
0000
0000
0000
0000
,
3000
0000
0000
0000
;

//---------------dance-single - ----------------
#NOTES:
     dance-single:
     :
     Hard:
     16:
     0.855305,1.103878,0.638714,0.296776,0.690327,928.000000,829.000000,99.000000,46.000000,0.000000,0.000000,0.855305,1.103878,0.638714,0.296776,0.690327,928.000000,829.000000,99.000000,46.000000,0.000000,0.000000:
0200
0000
0302
0000
,
0023
0000
0230
2300
,
3002
0000
0000
0000
,
0000
0000
0200
0003
,
0320
0000
2030
0000
,
3200
0000
0320
0032
,
2003
0000
0000
0000
,
0020
0000
3000
0130
,
0102
1000
0020
0033
,
0120
1000
0100
0031
,
2001
0100
0020
3000
,
0200
0000
0000
0330
,
2010
0001
0200
3300
,
0210
0001
0010
1300
,
1100
0110
0022
0000
,
0033
0000
0000
0000
,
0101
1010
1001
0100
,
0010
0100
0001
0100
,
1100
0011
1001
0010
,
0100
0010
1000
0010
,
0100
0000
0010
0000
1000
0000
0100
0000
0001
0000
0100
0000
,
1000
0000
0010
0000
0100
0000
0001
0000
0010
0000
0100
0000
,
0010
0000
0001
0000
1000
0000
0010
0000
0001
0000
0010
0000
,
1000
0000
0000
0000
0000
0000
0000
0000
0100
0000
0000
0000
0000
0000
0000
0000
1000
0000
0000
0000
0000
0000
0000
0000
0001
0000
0000
0000
0000
0000
0010
0000
0000
0000
0000
0000
0100
0000
0000
0010
0000
0000
0100
0000
0000
0010
0000
0000
,
0001
0100
0010
1000
0100
1000
0010
0100
,
0001
0010
0100
0010
0001
0100
0001
0010
,
0100
1000
0100
0010
0100
0001
0100
1000
,
0110
0010
0011
0001
0000
1100
0000
1001
,
1000
0010
0100
0001
0010
0100
1000
0010
,
0100
0010
1000
0001
0100
0010
1000
0100
,
0010
0001
0010
0100
0010
1000
0010
0001
,
0110
0100
1000
1010
0000
1001
0001
0101
,
0100
0010
1000
0100
1000
0010
0100
0001
,
0010
0000
0000
0100
0000
0000
0010
0000
0000
0001
0000
0000
1001
0000
0000
0000
1100
0000
0000
0000
0011
0000
0000
0000
,
1000
0010
1000
0001
1000
0100
1000
0001
,
1001
0000
1000
0000
1010
0000
1100
0000
0000
0000
0011
0000
0010
0100
0010
0000
,
0100
0010
0001
1000
0010
0100
0010
1000
,
0100
0000
0000
0010
0000
0000
0001
0000
0000
0010
0000
0000
0110
0000
0000
0000
0101
0000
0000
0000
1010
0000
0000
0000
,
0001
0100
0001
1000
0001
0010
0001
1000
,
0001
0000
0100
0000
0001
0010
0001
0010
0100
0010
0100
0010
0100
1000
0100
1000
,
0010
0100
0101
0101
0001
1000
1010
0010
,
0100
0001
0011
0011
0010
0100
1100
1000
,
0010
0100
0101
0101
0001
0010
0110
0100
,
1000
0010
1010
1010
1000
0001
1001
1000
,
0010
0000
0100
0000
0010
1000
0010
0000
0100
0000
0001
0000
0101
0000
0100
0000
,
0010
0000
1000
0000
0001
0010
0001
0000
0010
0000
0100
0000
1100
0000
1000
0000
,
0001
0000
0010
0000
0100
1000
0100
0000
1000
0000
0010
0000
0110
0000
0100
0000
,
0001
0000
0010
0000
0001
0100
0001
0000
1000
0000
0001
0000
1001
0000
1000
0000
,
0010
0100
0001
0010
0100
0010
0001
0100
,
0010
1000
0010
1000
0001
0100
0001
0100
0020
0000
0000
0000
0000
0000
0000
0000
,
1030
0000
0100
1000
0100
0000
0010
0000
0001
0010
0001
0000
1000
0100
1000
0000
,
0010
0000
0100
0001
0100
0000
0001
0000
1000
0000
0010
1000
0010
0000
0100
0000
,
0001
0100
0001
0000
1000
0010
1000
0000
0010
0100
0010
0100
0010
0000
0100
0000
,
0010
0000
1000
0010
1000
0000
0001
0000
0100
0001
0100
0000
0010
1000
0010
0000
,
0100
0000
0001
0010
0001
0000
0010
0000
0100
0000
1000
0100
1000
0000
0010
0000
,
0100
0001
0100
0000
0001
0010
0001
0000
1000
0001
1000
0001
1000
0000
0001
0000
,
1000
0000
0100
0010
0001
0000
0010
0000
0001
0010
0100
0000
1000
0100
1000
0000
,
0010
0000
0100
0001
0100
0000
0001
0000
0010
0000
0100
1000
0010
0000
0100
0000
,
0001
0100
0010
0000
1000
0010
1000
0000
0001
0100
0001
0100
0001
0000
0010
0000
,
0100
0000
1000
0001
0010
0000
0100
0000
0010
0001
1000
0000
0100
0010
0100
0000
,
0010
0000
0001
1000
0001
0000
0100
0000
0010
0000
1000
0100
0010
0000
0001
0000
,
0010
0100
1000
0000
0001
0100
0001
0000
1000
0010
1000
0010
1000
0000
0010
0000
,
0000
0000
0000
0000
0000
0000
0000
0000
1000
0100
1000
0000
0001
0010
0001
0000
,
1000
0010
1000
0000
0001
0100
0001
0000
1000
0100
0010
0000
0001
0010
0100
0000
,
0010
0100
0010
0100
0010
0000
0100
0000
0010
0001
0010
0000
0100
1000
0100
0000
,
1000
0010
1000
0000
0001
0100
0001
0000
0010
0001
1000
0000
0100
1000
0001
0000
,
1000
0001
1000
0001
1000
0000
0000
0000
1000
0100
0010
0001
0000
0000
1000
0100
,
0010
0001
0100
0010
1000
0010
0100
0001
0000
0000
1000
0010
0100
0001
0000
0001
,
1000
0001
0100
0010
1000
0010
0100
0001
1000
0100
0010
0000
0000
0000
0100
1000
,
0001
0010
0000
0000
0100
1000
0100
1000
0001
1000
0001
0010
0100
0010
0100
0010
,
0001
0010
0100
1000
0000
0000
0001
0010
0100
1000
0010
0100
0001
0100
0010
1000
,
0000
0000
0001
0100
0010
1000
0000
1000
0001
1000
0010
0100
0001
0100
0010
1000
,
0001
0010
0100
0000
0000
0000
0010
0001
1000
0100
0000
0000
0010
0001
0010
0001
,
1000
0001
1000
0100
0010
0100
0010
0100
1000
0000
0000
0110
0000
0000
0000
0000
,
0100
0000
0000
0000
1000
0000
0000
0000
0001
0000
0000
0000
0100
0000
0000
0000
0010
0000
0000
0000
1000
0000
0000
0000
1010
0000
0000
0000
0000
0000
0000
0000
0000
0011
0000
0000
0000
0000
0000
0000
0000
0000
1100
0000
0000
0000
0000
0000
,
0000
0101
0000
0000
2002
0000
0000
0000
0000
0000
0000
0000
3003
0000
0000
0000
,
0020
0000
0000
0000
,
0031
1000
0000
1000
0000
1000
0000
1000
,
0200
1000
0000
0000
0000
0000
0000
0000
,
1300
0000
0001
0000
0000
0000
0001
0000
0010
0001
0010
0001
1000
0100
1000
0100
,
0010
0000
0000
0000
0000
0000
1000
0100
0000
0000
0001
0100
0000
0000
0010
0000
,
0110
0000
0000
0000
0000
0000
0010
1000
0000
0000
0001
0100
0000
0000
1000
0000
,
1100
0000
0000
0000
0000
0000
0010
0001
0000
0000
1000
0100
0000
0000
0001
0000
,
0011
0101
0000
1010
0000
1100
0000
0000
,
1001
1010
0000
0011
0000
0101
0000
0100
,
0110
0000
0011
0000
0000
0000
1010
0000
0000
0000
1100
0000
0000
0010
0001
0000
,
1001
0101
0000
1100
0000
1010
0000
0000
,
0011
1100
0101
1010
,
1001
0000
0000
0000
0010
0000
1000
0100
0010
0000
0001
0010
0100
0000
1000
0000
,
1100
0000
0000
0000
1000
0000
0010
0100
0001
0000
0100
0010
1000
0000
0010
0000
,
0110
0000
0000
0000
0100
0000
0001
1000
0010
0000
0100
0001
1000
0000
0001
0000
,
0011
0000
0000
0000
0001
0000
0010
0100
1000
0000
0100
0010
0001
0000
0100
0000
,
0101
0000
0100
0000
0010
0000
1010
0000
0000
0000
1000
0100
0010
0000
0001
0000
,
0011
0000
0001
0000
0100
0000
0110
0000
0000
0000
0010
1000
0100
0000
1000
0000
,
1100
0000
0100
0000
1000
0000
1001
0000
0000
0000
0001
0010
0100
0000
0010
0000
,
0011
1010
0101
1001
,
0010
0100
0001
0010
0100
1000
0010
0100
0010
1000
0010
0100
,
0001
0010
0100
0010
0001
1000
0100
1000
0010
0100
0001
0010
,
0001
1000
0100
0010
0100
1000
0001
0100
0010
1000
0100
0010
,
0001
0100
0010
0100
0001
0010
0001
1000
0100
0010
0100
1000
,
1001
0000
0000
0001
0100
0010
0110
0000
0000
0100
0010
1000
,
1001
0000
0000
1000
0100
0010
0110
0000
0000
0010
0001
0100
,
0101
0000
0000
0001
1000
0100
1100
0000
0000
1000
0100
0010
,
0011
0000
0000
0001
0100
0010
1010
0000
0000
0100
1000
0001
,
1001
0000
0000
0000
,
0001
0010
0100
0000
1000
0010
0100
0000
,
0001
1000
0100
0000
0010
0001
1000
0000
,
0010
0100
0001
0000
1000
0100
0010
0000
,
0001
0100
0010
0000
1000
0001
1000
0100
,
0020
0032
0203
0000
,
0320
0000
0000
2030
0000
0000
3100
0000
0010
0000
0100
0000
,
2000
3002
0023
0000
,
0000
0000
0000
0030
,
0200
2300
3002
0000
,
0203
0000
0000
0320
0000
0000
1030
0000
0100
0000
1000
0000
,
0002
0023
0230
0000
,
0000
0000
0000
0000
,
0000
0000
0000
0000
,
0300
0000
0000
0000
;

//---------------dance-single - ----------------
#NOTES:
     dance-single:
     :
     Easy:
     8:
     0.376039,0.647101,0.277421,0.129033,0.054839,408.000000,365.000000,43.000000,20.000000,0.000000,0.000000,0.376039,0.647101,0.277421,0.129033,0.054839,408.000000,365.000000,43.000000,20.000000,0.000000,0.000000:
0010
0000
1000
0000
,
0100
0000
0001
0000
,
0020
0000
0000
0000
,
0030
0000
0000
0000
,
0100
0000
0001
0000
,
0010
0000
1000
0000
,
0200
0000
0000
0000
,
0300
0000
0000
0000
,
0001
0010
0001
0000
,
1000
0100
1000
0000
,
0010
0100
0002
0000
,
0003
0000
0000
0000
,
0100
1000
0100
0000
,
0010
0001
0010
0000
,
0110
0100
0020
0000
,
0030
0000
0000
0000
,
1001
1001
1001
0000
,
0100
0000
0100
0000
,
0110
0110
0110
0000
,
0010
0000
0010
0000
,
1000
0000
0000
0000
1000
0000
0000
0000
0100
0000
0000
0000
,
0010
0000
0000
0000
0100
0000
0000
0000
0100
0000
0000
0000
,
0001
0000
0000
0000
0010
0000
0000
0000
0001
0000
0000
0000
,
0001
0000
0000
0000
0100
0000
0000
0000
0010
0000
0000
0000
,
0100
0000
0010
0000
,
1000
0000
0100
1000
,
0100
0000
0010
0000
,
0001
0100
0010
0100
,
0001
0000
1000
0000
,
0100
0000
0010
0001
,
0010
0000
1000
0000
,
0100
0001
0010
0001
,
0100
0100
0100
0000
,
0010
0010
0010
0000
,
1000
0100
1000
0000
,
0010
0000
0100
0001
0000
0100
0001
0000
,
0010
0010
0010
0000
,
0100
0100
0100
0000
,
1000
0001
1000
0000
,
0020
1000
0100
0031
,
0010
0001
0010
0001
,
0100
0001
0100
0001
,
0100
0010
0100
0010
,
1000
0010
1000
0010
,
1000
0100
1000
0010
,
0100
0001
0100
0010
,
1000
0001
0010
0001
,
0100
0010
1000
0010
,
0100
0001
0010
0100
,
1000
0001
1000
0001
1000
0000
0000
0000
,
0010
1000
0100
0001
,
0010
0001
0100
1000
,
0010
0100
0001
0010
,
0100
0010
0001
0100
,
1000
0010
1000
0100
,
0001
1000
0100
0010
,
0001
0010
0001
0000
0100
0000
0010
0000
,
1000
0000
0100
0000
1000
0100
1000
0000
,
0010
0001
0100
1000
,
0100
0010
0100
0000
1000
0000
0001
0000
,
0010
0000
0001
0000
0100
0001
0100
0000
,
0010
1000
0100
0010
,
0000
0000
1000
0001
,
0010
0100
0010
0001
,
1000
0010
0101
0011
,
1010
1100
1010
0101
,
0110
0000
0000
0000
1001
0000
0000
0000
0001
0000
0000
0100
0000
0000
0001
0000
,
0000
0000
1000
0000
0000
0000
0100
0000
0000
0000
1000
0000
0000
0010
0000
0000
,
1000
0000
0010
0000
0100
0001
0000
0010
,
0000
0001
0000
0000
0010
0000
0000
0000
0100
0000
0000
0000
1000
0000
0000
0000
,
0010
0000
0000
1000
0000
0000
0010
0000
0000
0000
0100
0000
0000
0000
0001
0000
,
0000
0000
1000
0000
0000
0100
0000
0000
1000
0000
0000
0000
0001
0000
0000
0000
,
0100
0000
0010
0000
0000
0000
0100
0000
0000
0001
0000
0000
0100
0000
0000
0000
,
0010
0000
0000
0000
1000
0000
0000
0000
0100
0000
0000
0200
0000
0000
0000
0000
,
0000
0000
0000
0000
0300
0000
0000
0000
0010
0000
0000
0010
0000
0000
0010
0000
,
0000
0010
0000
0000
0010
0000
0000
0000
0000
0000
0000
0000
0000
0000
0000
0000
,
2000
0000
0000
0000
,
3000
0100
0000
0100
0000
0100
0000
0000
,
0002
0000
0000
0000
,
0003
0010
0000
0010
0000
0010
0000
0000
,
1001
0000
0000
1000
0000
0010
0000
0000
,
1010
0000
0000
0100
0000
0001
0000
0000
,
0101
0000
0000
0010
0000
0100
0000
0000
,
1000
0001
0000
1000
0000
1001
0000
0000
,
0000
1000
0000
0100
0000
1100
0000
0000
,
0000
0010
0000
0001
0000
0011
0000
0000
,
0000
0010
0000
1000
0000
1010
0000
0000
,
0001
1001
1000
1001
,
0001
1000
0010
0100
,
0101
0001
0010
0100
,
1100
1000
0001
0010
,
0011
0001
1000
0010
,
2010
0000
0000
3200
0000
0000
0310
0000
,
0201
0000
0000
0302
0000
0000
0013
0000
,
1200
0000
0000
2300
0000
0000
3001
0000
,
0110
1001
0110
1001
,
1000
0010
0100
0001
,
0010
1000
0010
0001
,
0100
0010
1000
0100
,
0001
0100
1000
0010
,
0110
0001
0011
0100
,
1100
1000
1010
0100
,
0101
0010
1010
1000
,
1100
0010
0110
0100
,
1001
0000
0000
0000
,
1000
1000
0001
0001
,
0100
0100
1000
1000
,
0010
0010
0001
0001
,
0100
0100
0010
1000
,
0002
0000
0000
0000
,
2003
0000
0000
0000
,
3200
0000
0000
0000
,
0000
0000
0300
0000
,
0020
0000
0000
0000
,
0032
0000
0000
0000
,
2003
0000
0000
0000
,
0000
0000
0000
0000
,
0000
0000
0000
0000
,
3000
0000
0000
0000
;

//---------------dance-single - ----------------
#NOTES:
     dance-single:
     :
     Beginner:
     6:
     0.253458,0.370970,0.083872,0.025807,0.000000,275.000000,262.000000,13.000000,4.000000,0.000000,0.000000,0.253458,0.370970,0.083872,0.025807,0.000000,275.000000,262.000000,13.000000,4.000000,0.000000,0.000000:
1000
0000
0000
0000
,
0001
0000
0000
0000
,
0100
0000
0000
0000
,
0000
0000
0000
0000
,
0010
0000
0000
0000
,
1000
0000
0000
0000
,
0001
0000
0000
0000
,
0000
0000
0000
0000
,
0100
0000
0000
0000
,
0010
0000
0000
0000
,
1000
0000
0000
0000
,
0000
0000
0000
0000
,
0001
0000
0000
0000
,
0100
0000
0000
0000
,
1001
0000
0000
0000
,
0000
0000
0000
0000
,
0100
0000
0100
0000
,
0100
0000
0100
0000
,
0010
0000
0010
0000
,
0010
0000
0010
0000
,
1000
0000
0000
0000
,
1000
0000
0000
0000
,
0001
0000
0000
0000
,
0001
0000
0000
0000
,
1000
0000
0100
0000
,
1000
0000
0010
0000
,
0100
0000
0001
0000
,
0100
0100
0100
0000
,
0010
0000
1000
0000
,
0010
0000
0100
0000
,
0001
0000
0010
0000
,
0001
0001
0001
0000
,
1000
0000
0100
0000
,
1000
0000
0010
0000
,
0100
0000
0001
0000
,
0010
0010
0000
0010
,
0010
0000
0001
0000
,
0100
0000
1000
0000
,
0010
0000
1000
0000
,
0100
0100
0100
0100
,
0100
0100
0000
0010
,
0000
1000
0000
0001
,
0000
1000
0000
0100
,
0000
0010
0000
0001
,
0000
0010
0000
0100
,
0000
0010
0000
0001
,
0000
1000
0000
0010
,
0000
1000
0000
0100
,
0100
0000
0001
0000
,
0010
0010
0010
0000
,
1001
0100
1000
0010
,
0100
0001
0010
0100
,
0010
0001
1000
0001
,
0100
0010
0100
0001
,
1000
0100
0010
0100
,
1000
0010
0100
0001
,
1001
0100
0001
0010
,
0100
1000
0010
0100
,
0010
1000
0001
0010
,
0001
1000
0010
0100
,
0001
0010
0100
0010
,
0001
1000
0010
0100
,
0000
0000
1000
0100
,
0010
0001
0010
0100
,
1000
0001
1000
0010
,
0100
0001
0010
0001
,
0100
0000
0010
0000
1000
0000
0000
0001
,
0000
1000
0000
0100
0000
1000
0000
0000
,
0010
0000
0100
0000
0001
0000
0000
1000
,
0000
0100
1000
0010
,
0100
0000
0000
0001
0000
1000
0000
0100
,
0000
0010
0000
0000
0100
0000
1000
0000
,
0001
0000
0000
0010
0000
0000
0001
0000
,
0100
0010
0100
0000
,
0000
0000
0000
0000
0001
0000
0000
0001
,
0000
0001
0000
0000
,
0200
0000
0000
0300
,
0020
0000
0000
0030
,
0200
0000
0000
0300
,
0020
0000
0000
0030
,
1001
0000
0000
0000
,
0110
0000
0000
0000
,
1001
0000
0000
0000
,
0010
0000
0000
0010
0000
0010
0000
0000
,
0000
1000
0000
1000
0000
1000
0000
0000
,
0000
0001
0000
0001
0000
0001
0000
0000
,
0000
1000
0000
1000
0000
1000
0000
0000
,
0010
0100
0010
0100
,
0010
0000
1000
0000
,
1001
0000
0100
0000
,
0110
0000
0001
0000
,
1001
0000
0010
0000
,
0110
0000
0000
0001
0000
0000
0000
0000
,
1001
0000
0000
0010
0000
0000
0000
0000
,
0110
0000
0000
1000
0000
0000
0000
0000
,
0010
0010
0010
0000
,
0100
1000
0010
0100
,
0010
1000
0001
0010
,
0100
0010
0001
0100
,
0010
1000
0100
0010
,
0001
0001
1000
1000
,
0010
0010
0100
0100
,
0010
0010
1000
1000
,
0100
0100
0001
0001
,
1001
0000
0000
0000
,
1000
0000
0001
0000
,
1000
0000
0001
0000
,
0010
0000
0100
0000
,
0010
0000
0100
0000
,
0100
0000
0000
0000
,
0010
0000
0000
0000
,
1000
0000
0000
0000
,
0000
0000
0000
0000
,
0100
0000
0000
0000
,
0010
0000
0000
0000
,
0001
0000
0000
0000
;
