#TITLE:Green Grass Gradation;
#SUBTITLE:;
#ARTIST:Yoshiya Terayama;
#TITLETRANSLIT:;
#SUBTITLETRANSLIT:;
#ARTISTTRANSLIT:;
#GENRE:;
#CREDIT:;
#BANNER:Green Grass Gradation.png;
#BACKGROUND:Green Grass Gradation-bg.png;
#LYRICSPATH:;
#CDTITLE:cdtitle.png;
#MUSIC:Green Grass Gradation.ogg;
#OFFSET:-0.280000;
#SAMPLESTART:26.349001;
#SAMPLELENGTH:15.000000;
#SELECTABLE:YES;
#BPMS:0.000000=72.500000
,16.000000=145.000000
,152.000000=72.500000
,168.000000=145.000000
;
#STOPS:
;
#BGCHANGES:;
#KEYSOUNDS:;
#ATTACKS:;

//---------------dance-single - ----------------
#NOTES:
     dance-single:
     :
     Hard:
     15:
     0.756629,1.117590,0.826045,0.340136,0.655977,545.000000,460.000000,85.000000,35.000000,0.000000,0.000000,0.756629,1.117590,0.826045,0.340136,0.655977,545.000000,460.000000,85.000000,35.000000,0.000000,0.000000:
0000
0000
0000
0000
,
0000
0000
0000
0000
,
1000
0000
0001
0100
0000
0010
0100
0000
0001
0010
0000
0100
0010
0001
0100
0000
0001
0000
1000
0100
0000
0010
0100
0000
1000
0010
0000
0100
0010
1000
0100
0000
,
1000
0000
0001
0100
0000
0010
1000
0000
0001
0010
0000
0100
1000
0010
0100
0000
0001
0000
1000
0100
0000
0010
0001
0000
1000
0010
0000
0100
0001
0010
0100
0000
,
1100
0010
0011
0001
0101
1000
1010
0110
,
0101
1000
1010
0100
1100
0010
0011
1001
,
1010
0100
0101
0001
0011
1000
1100
0110
,
0011
1000
1100
0010
1010
0100
0101
1001
,
1000
0100
1000
0100
0010
0001
0010
0001
,
0100
0001
0100
0001
1000
0010
1000
0010
,
1000
0100
0010
0001
0100
0010
0100
0001
1000
0100
0010
0100
1000
0010
0100
0001
,
1000
0000
0100
0010
0000
0001
1000
0000
0010
0000
0000
0000
0100
0010
0100
0010
,
0100
0100
0001
1000
0000
1000
0010
1000
,
0001
0000
0001
0000
0100
0000
0010
0000
0000
0000
0010
0000
1000
0100
1000
0100
,
1000
1000
0001
0100
0000
0100
0001
1000
,
1010
0000
0000
0101
0000
0000
2002
0000
3003
0000
1000
0000
0100
0010
0001
1000
,
0010
0010
1000
0001
0000
0001
0100
0001
,
1000
0000
1000
0000
0010
0000
0100
0000
0000
0000
0100
0000
0001
0010
0100
1000
,
0001
0000
1000
0100
0010
0000
0100
0010
0001
0000
0010
0001
1000
0000
0001
1000
,
0020
0000
0000
0000
0100
0000
0000
0000
0230
0000
0000
0000
0301
1000
0001
1000
,
0001
0001
0001
0011
0010
0010
0110
0100
,
1000
0000
1000
0000
1000
0000
1010
0000
0010
0000
0010
0000
0110
0000
0100
0001
,
0010
0000
0010
0000
0010
0000
0011
0000
0001
0000
0001
0000
1001
0000
1000
0100
,
1100
1000
1010
0010
0110
0100
0101
0001
,
2001
0000
0000
3200
0000
0000
0302
0000
0000
0203
0000
0000
2300
0000
3002
0000
,
0023
0000
0000
2030
0000
0000
3020
0000
0000
0032
0000
0000
2003
0000
3200
0000
,
0310
0000
0001
0000
0200
0000
1300
0000
0200
0000
0301
0000
0200
0000
1300
0100
,
0001
1000
0200
0301
0200
1300
0200
0301
,
0200
0000
0000
0000
0000
0000
0000
0000
0000
0000
0000
0000
1300
0001
1000
0000
,
0002
0000
0000
0000
0003
0000
2000
0000
3010
0100
0001
0010
0100
1000
0010
0100
,
0001
0000
0000
0100
0001
0000
0100
0000
1001
0000
0000
1000
0001
0000
1000
0000
,
1100
0000
0000
0100
1000
0000
0100
0000
1001
0000
0000
0001
1000
0000
0001
0000
,
0011
0000
0000
0010
0001
0000
0010
0000
1001
0000
0000
1000
0001
0000
1000
0000
,
1010
0000
0000
0010
1000
0000
0010
0000
1001
0000
0000
0001
1000
0000
0001
0000
,
0101
0000
0001
0010
0000
0100
0010
0000
0001
0100
0000
0010
0100
0001
0010
0000
,
0100
0000
1000
0010
0000
0100
0010
0000
1000
0100
0000
0010
0100
1000
0010
0000
,
0100
0000
0001
0010
0000
0100
1000
0000
0001
0100
0000
0010
1000
0100
0010
0000
,
0100
0000
1000
0010
0000
0100
0001
0000
0010
0000
0000
0000
0101
0000
1100
0000
,
1000
0000
0001
0010
0000
0100
1000
0000
1010
0000
0000
0000
1100
0000
0011
0000
0001
0000
1000
0010
0000
0100
0001
0000
0011
0000
0000
0000
0101
0000
1010
0000
,
1000
0000
0100
0010
0000
0001
1000
0000
1100
0000
0000
0000
0110
0000
0011
0000
0001
0000
0100
0010
0000
1000
0001
0000
0022
0000
0033
0000
2020
0000
3030
0000
,
0010
0000
0100
0001
0000
1000
0010
0000
0110
0000
0000
0000
0101
0000
1001
0000
2200
0000
0000
0000
0000
0000
3300
0000
0220
0000
0330
0000
0010
0000
0001
0000
,
0202
0000
0000
0000
0000
0000
0303
0000
0110
0000
0000
0000
1010
0000
1100
0000
0000
0000
0000
0000
0000
0000
0000
0000
0000
1001
0000
1000
0100
0000
0010
0000
,
0011
0100
1100
1000
1010
0001
0101
0110
,
1010
0001
0101
0010
0011
0100
1100
1001
,
0101
0010
1010
1000
1100
0001
0011
0110
,
1100
0001
0011
0100
0101
0010
1010
1001
,
0001
0001
0001
0001
0100
0100
0100
0100
,
0010
0010
0010
0010
1000
1000
1000
1000
,
0001
0010
0100
1000
0010
0100
0010
1000
0001
0010
0100
0010
0001
0100
0010
1000
,
0001
0000
0010
0100
0000
1000
0001
0000
0100
0000
0000
0000
0001
0010
0100
1000
,
0001
0000
0000
0000
;

//---------------dance-single - ----------------
#NOTES:
     dance-single:
     :
     Medium:
     11:
     0.449813,0.631681,0.340136,0.174927,0.160350,324.000000,289.000000,35.000000,18.000000,0.000000,0.000000,0.449813,0.631681,0.340136,0.174927,0.160350,324.000000,289.000000,35.000000,18.000000,0.000000,0.000000:
0000
0000
0000
0000
,
0000
0000
0000
0000
,
1000
0000
0000
0100
0000
0000
1000
0000
0000
0010
0000
0000
1000
0000
0100
0000
0010
0000
0000
0001
0000
0000
0010
0000
0000
0100
0000
0000
0010
0000
0001
0000
,
0100
0000
0000
0010
0000
0000
0100
0000
0000
0001
0000
0000
0100
0000
0010
0000
1000
0000
0000
0100
0000
0000
0010
0000
0000
0001
0000
0000
0010
0000
0100
0000
,
1100
0000
1010
0000
0011
0000
0100
1000
,
1010
0000
1100
0000
0101
0000
0001
0010
,
0011
0000
0110
0000
1100
0000
1000
0010
,
1010
0000
1001
0000
0101
0000
0010
0001
,
1000
0100
1000
0000
0001
0010
0001
0000
,
0100
0001
0100
0000
0010
1000
0010
0000
,
1000
0100
0010
0001
0100
0010
1000
0001
,
0010
0000
0000
0100
0000
0000
1000
0000
0010
0000
0000
0000
0100
0000
0001
0000
,
1000
0000
0100
0010
0000
0010
0100
1000
,
0010
0000
0100
0001
0000
0001
0010
0100
,
0010
0000
0001
1000
0000
1000
0010
0100
,
0001
0000
0000
1000
0000
0000
1001
0000
0000
0000
0000
0000
0001
0000
0100
0000
,
0010
0000
1000
0100
0000
0100
1000
0010
,
0100
0000
0001
0010
0000
0010
0100
1000
,
0010
1000
0100
0010
0001
0100
0001
0010
,
0200
0000
0000
0000
0320
0000
0031
1000
,
0001
0000
0100
0010
0000
1000
0000
0001
,
0010
0000
0100
0010
0000
0001
0000
1000
,
0002
0000
0100
0100
0000
1000
0000
0013
,
0011
1100
1010
0101
,
1000
0000
0000
0100
0000
0000
0010
0000
0000
0001
0000
0000
0100
0000
0010
0000
,
1000
0000
0000
0001
0000
0000
0010
0000
0000
0100
0000
0000
1000
0000
0010
0000
,
0200
0302
2003
3020
,
2030
3200
0320
0032
,
0203
0000
0000
0000
0000
0000
0310
0100
,
0002
0000
0000
2003
0000
0000
0000
0000
,
3001
0000
0001
0000
0001
0000
0001
0010
,
0100
0000
0100
0000
0100
0000
0100
1000
,
0010
0000
0010
0000
0010
0000
0010
0100
,
0001
0000
0001
0000
0001
0000
0001
0010
,
0100
1000
0010
0001
0010
0100
0001
0010
,
1000
0010
0100
1000
0001
0100
1000
0100
,
0010
1000
0100
0001
0100
0010
0001
1000
,
0010
0000
0000
0100
0000
0000
0001
0000
0010
0000
0000
0000
0100
0000
1000
0000
,
0001
0000
0000
0000
0101
0000
0100
0010
1000
0000
0000
0000
1100
0000
1000
0001
,
0010
0000
0000
0000
0011
0000
0100
1000
0001
0000
0000
0000
0101
0000
1010
0000
,
1000
0000
0000
0000
1100
0000
0100
0010
0002
0000
0000
0000
2003
0000
3001
0100
,
0020
0000
0000
0000
0000
0000
0000
0000
2030
0000
0000
0000
3001
0000
0010
0000
0000
0000
0000
0000
0000
0000
0000
0000
0000
0100
0000
1000
0100
0000
0010
0000
,
0011
0000
0101
0000
1100
0000
0010
0001
,
0101
0000
0011
0000
1010
0000
1000
0100
,
1100
0000
0110
0000
0011
0000
0001
0100
,
0101
0000
1001
0000
1010
0000
0100
1000
,
0001
0010
0001
0000
1000
0100
1000
0000
,
0010
1000
0010
0000
0100
0001
0100
0000
,
0001
0010
0100
1000
0010
0100
0001
1000
,
0100
0000
0000
0010
0000
0000
0001
0000
0100
0000
0000
0000
0010
0000
1000
0000
,
0001
0000
0000
0000
;

//---------------dance-single - ----------------
#NOTES:
     dance-single:
     :
     Easy:
     7:
     0.299875,0.364431,0.126336,0.068027,0.000000,216.000000,203.000000,13.000000,7.000000,0.000000,0.000000,0.299875,0.364431,0.126336,0.068027,0.000000,216.000000,203.000000,13.000000,7.000000,0.000000,0.000000:
0000
0000
0000
0000
,
0000
0000
0000
0000
,
1000
1000
0001
0001
,
0010
0010
0100
0100
,
1000
0000
0001
0000
1000
0000
0001
1000
,
0001
0000
0100
0000
0001
0000
0100
0001
,
0100
0000
0010
0000
0100
0000
0010
0100
,
0010
0000
1000
0000
0010
0000
1000
0010
,
1000
0100
0010
0001
,
1000
0010
0100
0001
,
1000
0100
1000
0000
0001
0010
0001
0000
,
1000
0010
0100
1001
,
0001
1000
0010
0010
,
1000
0000
0100
0000
0010
0000
0001
0100
,
0001
0100
0010
1000
,
1001
0110
1001
0000
,
0001
1000
0100
0100
,
1000
0000
0010
0000
0100
0000
0001
0010
,
0001
1000
0010
1000
,
0002
0000
2003
0000
,
3001
0000
0000
0100
0000
0100
0000
0000
,
0010
0000
0000
1000
0000
1000
0000
0000
,
0100
0000
0000
0010
0000
0010
0000
0000
,
0001
1001
1000
1001
,
0001
0000
0000
0100
0000
0000
0010
0000
,
1000
0000
0000
0100
0000
0000
0010
0000
,
0002
0100
0100
0103
,
2000
0100
0100
3100
,
0002
0000
0000
0103
,
0020
0000
0000
2030
0000
0000
0000
0000
,
3001
0000
1000
0000
0001
0000
1000
0001
,
1000
0000
0100
0000
1000
0000
0100
1000
,
0100
0000
0010
0000
0100
0000
0010
0100
,
0010
0000
0001
0000
0010
0000
0001
0010
,
0001
0100
0010
1000
,
0010
0100
0001
1000
,
0100
0010
0001
1000
,
0010
0010
0010
0000
,
1000
1001
0001
1001
,
0100
0000
0110
0000
0010
0000
0110
0110
,
1000
0000
0001
0100
0010
0000
1000
0100
,
0010
0000
0001
0010
0100
0000
1000
1000
,
0001
0000
1000
0000
0001
0000
1000
0001
,
1000
0000
0010
0000
1000
0000
0010
1000
,
0010
0000
0100
0000
0010
0000
0100
0010
,
0100
0000
0001
0000
0100
0000
0001
0100
,
0001
0010
0100
1000
,
0001
0100
0010
1000
,
0001
0010
0001
0000
1000
0100
1000
0000
,
0001
0100
0010
1001
,
0110
0000
0000
0000
;

//---------------dance-single - ----------------
#NOTES:
     dance-single:
     :
     Beginner:
     4:
     0.167986,0.218659,0.038873,0.038873,0.000000,121.000000,117.000000,4.000000,4.000000,0.000000,0.000000,0.167986,0.218659,0.038873,0.038873,0.000000,121.000000,117.000000,4.000000,4.000000,0.000000,0.000000:
// measure 0
0000
0000
0000
0000
,  // measure 1
0000
0000
0000
0000
,  // measure 2
1000
0000
0001
0000
,  // measure 3
1000
0000
0001
0000
,  // measure 4
1000
0000
1000
1000
,  // measure 5
0001
0000
0001
0001
,  // measure 6
0100
0000
0100
0100
,  // measure 7
0010
0000
0010
0010
,  // measure 8
1000
0000
1000
0000
,  // measure 9
0001
0000
0001
0000
,  // measure 10
1000
1000
0001
0001
,  // measure 11
1001
0000
0000
0000
,  // measure 12
1000
0000
0010
0000
,  // measure 13
0100
0000
0001
0000
,  // measure 14
0010
0000
0100
0000
,  // measure 15
0010
0010
0010
0000
,  // measure 16
0001
0000
0100
0000
,  // measure 17
0010
0000
1000
0000
,  // measure 18
0100
0100
0010
0010
,  // measure 19
0200
0300
0020
0030
,  // measure 20
1001
0000
0000
0000
,  // measure 21
0010
0000
0000
0000
,  // measure 22
0100
0000
0000
0000
,  // measure 23
0001
0001
0001
0001
,  // measure 24
0001
0000
0000
0000
,  // measure 25
1000
0000
0000
0000
,  // measure 26
0010
0010
0010
0000
,  // measure 27
0100
0100
0100
0000
,  // measure 28
0020
0000
0000
0030
,  // measure 29
0200
0000
0000
0300
0000
0000
0000
0000
,  // measure 30
0001
0000
0001
0000
,  // measure 31
1000
0000
1000
0000
,  // measure 32
0010
0000
0010
0000
,  // measure 33
0100
0000
0100
0000
,  // measure 34
0001
0001
0001
0000
,  // measure 35
1000
1000
1000
0000
,  // measure 36
0010
0010
0010
0000
,  // measure 37
0100
0000
0000
0000
,  // measure 38
0001
0001
1000
1000
,  // measure 39
0001
0001
1000
1000
,  // measure 40
0010
0010
0100
0100
,  // measure 41
0010
0010
0100
0100
,  // measure 42
0001
0000
0001
0001
,  // measure 43
1000
0000
1000
1000
,  // measure 44
0010
0000
0010
0010
,  // measure 45
0100
0000
0100
0100
,  // measure 46
0001
0000
0001
0000
,  // measure 47
1000
0000
1000
0000
,  // measure 48
0001
0001
1000
1000
,  // measure 49
1001
0000
0000
0000
,  // measure 50
1001
0000
0000
0000
;
