#VERSION:0.83;
#TITLE:Good Morning Garage;
#SUBTITLE:(Dex Zero);
#ARTIST:Waterflame;
#TITLETRANSLIT:;
#SUBTITLETRANSLIT:;
#ARTISTTRANSLIT:;
#GENRE:;
#ORIGIN:;
#TAGS:;
#CREDIT:;
#BANNER:Good Morning Garage (Dex Zero).png;
#BACKGROUND:Good Morning Garage (Dex Zero)-bg.png;
#PREVIEWVID:;
#JACKET:Good Morning Garage (Dex Zero)-jacket.png;
#CDIMAGE:;
#DISCIMAGE:;
#LYRICSPATH:;
#CDTITLE:cdtitle.png;
#MUSIC:Good Morning Garage (Dex Zero).ogg;
#OFFSET:-0.107000;
#SAMPLESTART:64.107002;
#SAMPLELENGTH:15.000000;
#SELECTABLE:YES;
#BPMS:0.000000=180.000000
;
#STOPS:;
#DELAYS:;
#WARPS:;
#TIMESIGNATURES:0.000000=4=4
;
#TICKCOUNTS:0.000000=4
;
#COMBOS:0.000000=1
;
#SPEEDS:0.000000=1.000000=0.000000=0
;
#SCROLLS:0.000000=1.000000
;
#LABELS:0.000000=Song Start
;
#BGCHANGES:;
#KEYSOUNDS:;
#ATTACKS:
;

//---------------dance-single - ----------------
#NOTEDATA:;
#CHARTNAME:;
#CHARTHASH:2147483647;
#STEPSTYPE:dance-single;
#BANNER:;
#DESCRIPTION:;
#CHARTSTYLE:;
#DIFFICULTY:Beginner;
#METER:1;
#METERF:0.000000;
#LASTSECONDHINT:140.106995;
#RADARVALUES:0.101167,0.145800,0.000000,0.138857,0.000000,102.000000,102.000000,0.000000,20.000000,0.000000,0.000000,0.000000,0.000000,0.000000,0.101167,0.145800,0.000000,0.138857,0.000000,102.000000,102.000000,0.000000,20.000000,0.000000,0.000000,0.000000,0.000000,0.000000;
#CREDIT:Supra the Hedgehog;
#NOTES:
0000
0000
0000
0000
,
0000
0000
0000
0000
,
0000
0000
0000
0000
,
0000
0000
0000
0000
,
0001
0000
0000
0000
,
1000
0000
0000
0000
,
0001
0000
0000
0000
,
1000
0000
0000
0000
,
0002
0000
0000
0000
,
0000
0000
0000
0000
,
0000
0000
0003
0000
,
1000
0000
0001
0000
,
2000
0000
0000
0000
,
0000
0000
0000
0000
,
0000
0000
3000
0000
,
0001
0000
1000
0000
,
0020
0000
0000
0000
,
0000
0000
0000
0000
,
0000
0000
0030
0000
,
0100
0000
0010
0000
,
0200
0000
0000
0000
,
0000
0000
0000
0000
,
0000
0000
0300
0000
,
0010
0000
0100
0000
,
0001
0000
0000
0000
,
1000
0000
0000
0000
,
0001
0000
0000
0000
,
1000
0000
0000
0000
,
0010
0000
0000
0000
,
0100
0000
0000
0000
,
0010
0000
0000
0000
,
0100
0000
0000
0000
,
0001
0000
0000
0000
,
1000
0000
0000
0000
,
0100
0000
0000
0000
,
0010
0000
0000
0000
,
0001
0000
0000
0000
,
0100
0000
0000
0000
,
0010
0000
0000
0000
,
1000
0000
0000
0000
,
0002
0000
0000
0000
,
0003
0000
0000
0000
,
0002
0000
0003
0000
,
1000
0000
0001
0000
,
2000
0000
0000
0000
,
3000
0000
0000
0000
,
2000
0000
3000
0000
,
0001
0000
1000
0000
,
0020
0000
0000
0000
,
0030
0000
0000
0000
,
0020
0000
0030
0000
,
0100
0000
0010
0000
,
0200
0000
0000
0000
,
0300
0000
0000
0000
,
0200
0000
0300
0000
,
0010
0000
0100
0000
,
0001
0000
0000
0000
,
0001
0000
0000
0000
,
1000
0000
0000
0000
,
0001
0000
0000
0000
,
1000
0000
0000
0000
,
1000
0000
0000
0000
,
0001
0000
0001
0000
,
1000
0000
0000
0000
,
0010
0000
0000
0000
,
0010
0000
0000
0000
,
0100
0000
0000
0000
,
0010
0000
0000
0000
,
0100
0000
0000
0000
,
0100
0000
0000
0000
,
0010
0000
0100
0000
,
0010
0000
0000
0000
,
1000
0000
0000
0000
,
1000
0000
0000
0000
,
0001
0000
0000
0000
,
1000
0000
0000
0000
,
0001
0000
0000
0000
,
0001
0000
0000
0000
,
1000
0000
1000
0000
,
0001
0000
0000
0000
,
0100
0000
0000
0000
,
0100
0000
0000
0000
,
0010
0000
0000
0000
,
0100
0000
0000
0000
,
0010
0000
0000
0000
,
0010
0000
0000
0000
,
0100
0000
0010
0000
,
0100
0000
0000
0000
,
0001
0000
0000
0000
,
2000
0000
0000
0000
,
3000
0000
0000
0000
,
2000
0000
3000
0000
,
0001
0000
1000
0000
,
0002
0000
0000
0000
,
0003
0000
0000
0000
,
0002
0000
0003
0000
,
1000
0000
0001
0000
,
0200
0000
0000
0000
,
0300
0000
0000
0000
,
0200
0000
0300
0000
,
0010
0000
0100
0000
,
0020
0000
0000
0000
,
0030
0000
0000
0000
,
0020
0000
0030
0000
,
0100
0000
0010
0000
,
1000
0000
0000
0000
;

//---------------dance-single - ----------------
#NOTEDATA:;
#CHARTNAME:;
#CHARTHASH:2147483647;
#STEPSTYPE:dance-single;
#BANNER:;
#DESCRIPTION:;
#CHARTSTYLE:;
#DIFFICULTY:Easy;
#METER:6;
#METERF:6.000000;
#LASTSECONDHINT:140.106995;
#RADARVALUES:0.277714,0.364500,0.055543,0.097200,0.006943,280.000000,272.000000,8.000000,14.000000,0.000000,0.000000,0.000000,0.000000,0.000000,0.277714,0.364500,0.055543,0.097200,0.006943,280.000000,272.000000,8.000000,14.000000,0.000000,0.000000,0.000000,0.000000,0.000000;
#CREDIT:Supra the Hedgehog;
#NOTES:
// measure 0
0000
0000
0000
0000
,  // measure 1
0000
0000
0000
0000
,  // measure 2
0000
0000
0000
0000
,  // measure 3
0000
0000
0000
0000
,  // measure 4
1000
0001
0000
0001
,  // measure 5
0100
0010
0000
0010
,  // measure 6
1000
0100
0000
0100
,  // measure 7
0010
0001
0000
0001
,  // measure 8
2000
0000
0000
0000
,  // measure 9
3002
0000
0000
0000
,  // measure 10
0203
0000
0000
0000
,  // measure 11
0310
1000
0100
1000
,  // measure 12
0002
0000
0000
0000
,  // measure 13
2003
0000
0000
0000
,  // measure 14
3200
0000
0000
0000
,  // measure 15
0310
0001
0100
0001
,  // measure 16
0020
0000
0000
0000
,  // measure 17
0230
0000
0000
0000
,  // measure 18
2300
0000
0000
0000
,  // measure 19
3001
0100
1000
0100
,  // measure 20
0020
0000
0000
0000
,  // measure 21
0230
0000
0000
0000
,  // measure 22
0302
0000
0000
0000
,  // measure 23
1003
0100
0001
0100
,  // measure 24
1000
1001
0000
1000
,  // measure 25
0001
1001
0000
0001
,  // measure 26
0100
0110
0000
0100
,  // measure 27
0010
0110
0000
0010
,  // measure 28
1000
1100
0000
1000
,  // measure 29
0001
0011
0000
0001
,  // measure 30
0100
0101
0000
0100
,  // measure 31
0010
1010
0000
0010
,  // measure 32
1000
0100
1000
0100
,  // measure 33
1000
0000
1000
0000
,  // measure 34
0001
0010
0001
0010
,  // measure 35
0001
0000
0001
0000
,  // measure 36
0100
0001
0100
0001
,  // measure 37
0100
0000
0100
0000
,  // measure 38
0010
1000
0010
1000
,  // measure 39
0020
0000
0000
0000
,  // measure 40
1030
0000
1000
0000
,  // measure 41
0001
0000
0001
0000
,  // measure 42
0100
0000
0100
0000
,  // measure 43
0010
0000
0100
0100
,  // measure 44
0001
0000
0001
0000
,  // measure 45
1000
0000
1000
0000
,  // measure 46
0100
0000
0100
0000
,  // measure 47
0010
0000
0100
0100
,  // measure 48
0010
0000
0010
0000
,  // measure 49
0001
0000
0001
0000
,  // measure 50
1000
0000
1000
0000
,  // measure 51
0100
0000
1000
1000
,  // measure 52
0010
0000
0010
0000
,  // measure 53
1000
0000
1000
0000
,  // measure 54
0001
0000
0001
0000
,  // measure 55
0100
0000
0002
0000
,  // measure 56
1003
0010
1000
0000
,  // measure 57
0001
0100
0001
0000
,  // measure 58
0010
0001
0010
0000
,  // measure 59
0100
1000
0100
0000
,  // measure 60
1000
0001
1000
0000
,  // measure 61
0010
0100
0010
0000
,  // measure 62
1000
0100
1000
0001
,  // measure 63
0000
0001
0100
0001
,  // measure 64
1000
0010
0100
0000
,  // measure 65
0001
0010
0100
0000
,  // measure 66
0010
0001
1000
0000
,  // measure 67
0100
1000
0001
0000
,  // measure 68
0100
0001
0010
0000
,  // measure 69
0100
1000
0010
0000
,  // measure 70
1000
0100
0010
0001
,  // measure 71
1000
0000
0000
0000
0000
1000
0000
0000
0000
1000
0000
0000
,  // measure 72
0001
0010
0001
0001
,  // measure 73
1000
0100
1000
1000
,  // measure 74
0010
1000
0010
0010
,  // measure 75
0100
0001
0100
0100
,  // measure 76
0001
1000
0001
0001
,  // measure 77
0010
0100
0010
0010
,  // measure 78
0001
0100
0001
1000
,  // measure 79
0000
1000
0100
1000
,  // measure 80
0001
0010
0100
0100
,  // measure 81
1000
0010
0100
0100
,  // measure 82
0010
1000
0001
0001
,  // measure 83
0100
0001
1000
1000
,  // measure 84
0100
1000
0010
0010
,  // measure 85
0100
0001
0010
0010
,  // measure 86
0001
0100
0010
1000
,  // measure 87
0001
0000
0000
0000
0000
0001
0000
0000
0000
0001
0000
0000
,  // measure 88
1000
0000
0000
0000
,  // measure 89
0001
0000
0001
0000
,  // measure 90
1000
0000
1000
0000
,  // measure 91
0100
0000
0100
0000
,  // measure 92
0010
0000
0100
0100
,  // measure 93
1000
0000
1000
0000
,  // measure 94
0001
0000
0001
0000
,  // measure 95
0100
0000
0100
0000
,  // measure 96
0010
0000
0100
0100
,  // measure 97
0010
0000
0010
0000
,  // measure 98
1000
0000
1000
0000
,  // measure 99
0001
0000
0001
0000
,  // measure 100
0100
0000
0001
0001
,  // measure 101
0010
0000
0010
0000
,  // measure 102
0001
0000
0001
0000
,  // measure 103
1000
0000
1000
0000
,  // measure 104
0100
0000
1000
1000
,  // measure 105
0001
0000
0000
0000
;

//---------------dance-single - ----------------
#NOTEDATA:;
#CHARTNAME:;
#CHARTHASH:2147483647;
#STEPSTYPE:dance-single;
#BANNER:;
#DESCRIPTION:;
#CHARTSTYLE:;
#DIFFICULTY:Medium;
#METER:9;
#METERF:9.000000;
#LASTSECONDHINT:140.106995;
#RADARVALUES:0.353094,0.437400,0.131914,0.541543,0.486000,356.000000,337.000000,19.000000,78.000000,0.000000,0.000000,0.000000,0.000000,0.000000,0.353094,0.437400,0.131914,0.541543,0.486000,356.000000,337.000000,19.000000,78.000000,0.000000,0.000000,0.000000,0.000000,0.000000;
#CREDIT:Supra the Hedgehog;
#NOTES:
0000
0000
0000
0000
,
0000
0000
0000
0000
,
0000
0000
0000
0000
,
0000
0000
0000
0000
,
0010
0000
0000
1000
0000
0001
0000
0000
0000
1000
0000
0000
,
0100
0000
0000
0010
0000
0001
0000
0000
0000
0010
0000
0000
,
0100
0000
0000
1000
0000
0010
0000
0000
0000
1000
0000
0000
,
0001
0000
0000
0010
0000
0100
0000
0000
0000
0010
0000
0000
,
0002
0000
1000
0000
,
0100
0000
0100
0000
,
0010
0000
0010
0000
,
1003
0000
0000
0010
0000
0100
0000
0000
0000
0001
0000
0000
,
2000
0000
0001
0000
,
0100
0000
0100
0000
,
0010
0000
0010
0000
,
3001
0000
0000
0010
0000
0100
0000
0000
0000
1000
0000
0000
,
0020
0000
0100
0000
,
1000
0000
1000
0000
,
0001
0000
0001
0000
,
0130
0000
0000
0001
0000
1000
0000
0000
0000
0010
0000
0000
,
0200
0000
0010
0000
,
0001
0000
0001
0000
,
1000
0000
1000
0000
,
0310
0000
0000
1000
0000
0001
0000
0000
0000
0100
0000
0000
,
0001
0000
0000
0010
0000
0100
0000
0000
0000
1100
0000
0000
,
1000
0000
0000
0010
0000
0100
0000
0000
0000
0101
0000
0000
,
0001
0000
0000
1000
0000
0010
0000
0000
0000
1010
0000
0000
,
1000
0000
0000
0001
0000
0010
0000
0000
0000
0011
0000
0000
,
0001
0000
0000
0101
0000
0000
0000
0000
0100
0010
0000
0000
,
1000
0000
0000
1100
0000
0000
0000
0000
0100
0010
0000
0000
,
0001
0000
0000
0011
0000
0000
0000
0000
0010
0001
0000
0000
,
1000
0000
0000
1010
0000
0000
0000
0000
0010
1000
0000
0000
,
0001
0010
0001
0010
,
0001
0100
0001
0100
,
0010
0000
1000
0010
0000
0000
0100
0000
0000
0010
0000
1000
,
0001
0000
0020
0230
,
1300
0010
1000
0010
,
1000
0100
1000
0100
,
0010
0000
0001
0010
0000
0000
0100
0000
0000
0010
0000
0001
,
2000
0000
0001
0001
,
3002
0000
0003
0000
0000
0000
0002
0000
0003
0000
0000
0000
,
2000
0000
3000
0000
0000
0000
2000
0000
3000
0000
0000
0000
,
0020
0000
0030
1000
0000
0000
0020
0000
0030
1000
0000
0000
,
0002
0000
0003
0100
0000
0000
0002
0000
0103
0002
0000
0003
,
2000
0000
3000
0000
0000
0000
2000
0000
3000
0000
0000
0000
,
0002
0000
0003
0000
0000
0000
0002
0000
0003
0000
0000
0000
,
0200
0000
0300
0001
0000
0000
0200
0000
0300
0001
0000
0000
,
2000
0000
3000
0010
0000
0000
2000
0000
3010
2000
0000
3000
,
0200
0000
0300
0000
0000
0000
0200
0000
0300
0000
0000
0000
,
0020
0000
0030
0000
0000
0000
0020
0000
0030
0000
0000
0000
,
0002
0000
0003
0010
0000
0000
0002
0000
0003
0010
0000
0000
,
0200
0000
0300
1000
0000
0000
0200
0000
1300
0200
0000
0300
,
0020
0000
0030
0000
0000
0000
0020
0000
0030
0000
0000
0000
,
0200
0000
0300
0000
0000
0000
0200
0000
0300
0000
0000
0000
,
2000
0000
3000
0000
0000
0000
2000
0000
3000
0000
0000
0000
,
0002
0000
0003
0000
0000
0000
0020
0000
0000
0000
0000
0000
,
0031
0000
0000
1000
0000
0000
0000
0000
0010
0000
0000
0100
,
0000
0000
0000
0010
0000
0000
0000
0000
1000
0000
0000
0100
,
0000
0000
0000
0010
0000
0000
0000
0000
0001
0000
0000
0100
,
0000
0000
0000
0010
0000
0000
0000
0000
1000
0000
0000
0001
,
0000
0000
0000
0010
0000
0000
0000
0000
0100
0000
0000
1000
,
0000
0000
0000
0010
0000
0000
0000
0000
0100
0000
0000
0001
,
0000
0000
0000
1000
0000
0000
0010
0000
0000
1000
0000
0100
,
0000
0010
0001
0001
,
1000
0000
0000
0010
0000
0000
0000
0000
0100
0000
0000
0101
,
0000
0000
0000
0001
0000
0000
0000
0000
0010
0000
0000
0110
,
0000
0000
0000
0010
0000
0000
0000
0000
0100
0000
0000
1100
,
0000
0000
0000
1000
0000
0000
0000
0000
0001
0000
0000
1001
,
0000
0000
0000
0001
0000
0000
0000
0000
1000
0000
0000
1010
,
0000
0000
0000
0010
0000
0000
0000
0000
0100
0000
0000
0000
,
0001
0010
0100
1000
,
0010
0000
0000
0000
0000
0010
0000
0000
0000
0010
0000
0000
,
1000
0000
0000
0001
0000
0000
0010
0000
0100
0000
0000
0100
,
0000
0000
0000
1000
0000
0000
0010
0000
0100
0000
0000
0100
,
0000
0000
0000
0001
0000
0000
1000
0000
0010
0000
0000
0010
,
0000
0000
0000
1000
0000
0000
0001
0000
0010
0000
0000
0010
,
0000
0000
0000
0100
0000
0000
1000
0000
0001
0000
0000
0001
,
0000
0000
0000
0100
0000
0000
0010
0000
1000
0000
0000
1000
,
0000
0000
0000
0001
0000
0000
0010
0000
0000
0001
0000
0100
,
0000
0010
1000
1000
,
0001
0000
0000
0010
0000
0000
0100
0000
1000
0000
0000
1010
,
0000
0000
0000
0010
0000
0000
0100
0000
0001
0000
0000
0011
,
0000
0000
0000
0010
0000
0000
0001
0000
0100
0000
0000
0110
,
0000
0000
0000
0010
0000
0000
1000
0000
0001
0000
0000
1001
,
0000
0000
0000
1000
0000
0000
0010
0000
0100
0000
0000
0101
,
0000
0000
0000
0001
0000
0000
0010
0000
0100
0000
0000
0000
,
1000
0010
0100
0001
,
0010
0000
0000
0000
0000
0010
0000
0000
0000
0010
0000
0000
,
0001
1000
0100
1001
,
2000
0000
3000
0000
0000
0000
2000
0000
3000
0000
0000
0000
,
0002
0000
0003
0000
0000
0000
0002
0000
0003
0000
0000
0000
,
0020
0000
0030
0001
0000
0000
0020
0000
0030
0001
0000
0000
,
2000
0000
3000
0100
0000
0000
2000
0000
3100
2000
0000
3000
,
0002
0000
0003
0000
0000
0000
0002
0000
0003
0000
0000
0000
,
2000
0000
3000
0000
0000
0000
2000
0000
3000
0000
0000
0000
,
0200
0000
0300
1000
0000
0000
0200
0000
0300
1000
0000
0000
,
0002
0000
0003
0010
0000
0000
0002
0000
0013
0002
0000
0003
,
0200
0000
0300
0000
0000
0000
0200
0000
0300
0000
0000
0000
,
0020
0000
0030
0000
0000
0000
0020
0000
0030
0000
0000
0000
,
2000
0000
3000
0010
0000
0000
2000
0000
3000
0010
0000
0000
,
0200
0000
0300
0001
0000
0000
0200
0000
0301
0200
0000
0300
,
0020
0000
0030
0000
0000
0000
0020
0000
0030
0000
0000
0000
,
0200
0000
0300
0000
0000
0000
0200
0000
0300
0000
0000
0000
,
0002
0000
0003
0000
0000
0000
0002
0000
0003
0000
0000
0000
,
2000
0000
3000
0000
0000
0000
0020
0000
1030
0020
0000
0030
,
0100
0000
0000
0000
;

//---------------dance-single - ----------------
#NOTEDATA:;
#CHARTNAME:;
#CHARTHASH:2147483647;
#STEPSTYPE:dance-single;
#BANNER:;
#DESCRIPTION:;
#CHARTSTYLE:;
#DIFFICULTY:Hard;
#METER:13;
#METERF:13.000000;
#LASTSECONDHINT:140.106995;
#RADARVALUES:0.532616,0.619650,0.270771,0.617914,0.867857,537.000000,498.000000,39.000000,89.000000,0.000000,0.000000,0.000000,0.000000,0.000000,0.532616,0.619650,0.270771,0.617914,0.867857,537.000000,498.000000,39.000000,89.000000,0.000000,0.000000,0.000000,0.000000,0.000000;
#CREDIT:Supra the Hedgehog;
#NOTES:
0000
0000
0000
0000
,
0000
0000
0000
0000
,
0000
0000
0000
0000
,
0000
0000
0000
0000
,
0100
0000
0000
0001
0000
1000
0000
0000
1000
0001
0000
0000
,
0010
0000
0000
0100
0000
1000
0000
0000
1000
0100
0000
0000
,
0010
0000
0000
0001
0000
0100
0000
0000
0100
0001
0000
0000
,
1000
0000
0000
0100
0000
0010
0000
0000
0010
0100
0000
0000
,
2000
0000
0000
0000
0000
0001
0002
0000
0003
0000
0000
0000
,
0020
0000
0030
0000
0000
0000
0020
0000
0030
0000
0000
0000
,
0200
0000
0300
0000
0000
0000
0200
0000
0300
0000
0000
0000
,
3001
0000
0000
0100
0000
0010
0000
0000
0000
1000
0000
0000
,
0002
0000
0000
0000
0000
1000
2000
0000
3000
0000
0000
0000
,
0020
0000
0030
0000
0000
0000
0020
0000
0030
0000
0000
0000
,
0200
0000
0300
0000
0000
0000
0200
0000
0300
1003
0000
0000
,
0001
0000
0000
0010
0000
0100
0000
0000
1000
0001
0000
0000
,
0200
0000
0000
0000
0000
0010
0020
0000
0030
0000
0000
0000
,
0002
0000
0003
0000
0000
0000
0002
0000
0003
0000
0000
0000
,
2000
0000
3000
0000
0000
0000
2000
0000
3000
0000
0000
0000
,
0310
0000
0000
1000
0000
0001
0000
0000
0000
0100
0000
0000
,
0020
0000
0000
0000
0000
0100
0200
0000
0300
0000
0000
0000
,
2000
0000
3000
0000
0000
0000
2000
0000
3000
0000
0000
0000
,
0002
0000
0003
0000
0000
0000
0002
0000
0003
0130
0000
0000
,
0010
0000
0000
1000
0000
0001
0000
0000
0100
0010
0000
0000
,
1000
0000
0000
1100
0000
0100
0000
0000
0100
0110
0000
0000
,
0010
0000
0000
0011
0000
0001
0000
0000
0001
1001
0000
1000
,
0010
0000
0000
1010
0000
1000
0000
0000
1000
1100
0000
0000
,
0100
0000
0000
0110
0000
0010
0000
0000
0010
0011
0000
0001
,
1000
0000
0000
1010
0000
0010
0000
0000
0100
0101
0000
0000
,
0001
0000
0000
0011
0000
0010
0000
0000
0100
1100
0000
1000
,
0010
0000
0000
0110
0000
0100
0000
0000
0001
1001
0000
0000
,
1000
0000
0000
1100
0000
0100
0000
0000
0001
0101
0000
0100
,
1000
0000
0000
0010
0000
0100
0001
0000
0000
1010
0000
0000
,
0001
0000
0000
0010
0000
0100
1000
0000
0000
0011
0000
0000
,
1000
0000
0200
0320
0030
0000
0001
0000
0000
2000
3000
0002
,
0103
0000
0000
0010
0000
0200
0302
0000
0000
2003
0000
0000
,
3100
0000
0000
0010
0000
0001
1000
0000
0000
0101
0000
0000
,
0100
0000
0000
0010
0000
1000
0001
0000
0000
1100
0000
0000
,
0100
0000
2000
3002
0003
0000
0100
0000
0000
0020
0030
0200
,
0302
0000
0000
0000
0000
1000
1000
0000
0000
1000
0000
0000
,
0203
0000
0301
1000
0000
1000
0200
0000
0300
1000
0000
0000
,
0002
0000
0003
0010
0000
0000
0002
0000
0003
0100
0000
0000
,
0001
0000
0001
1000
0000
1000
0010
0000
0010
1000
0000
0000
,
0100
0000
0100
1000
0000
1000
0001
0000
0001
0100
0000
0100
,
0020
0000
1030
0001
0000
0001
0020
0000
0030
0001
0000
0000
,
2000
0000
3000
0100
0000
0000
2000
0000
3000
0010
0000
0000
,
1000
0000
1000
0001
0000
0001
0100
0000
0100
0001
0000
0000
,
0010
0000
0010
0001
0000
0001
1000
0000
1000
0010
0000
0010
,
2000
0000
3100
0010
0000
0010
2000
0000
3000
0010
0000
0000
,
0200
0000
0300
0001
0000
0000
0200
0000
0300
0010
0000
0000
,
0100
0000
0100
1000
0000
1000
0001
0000
0001
0010
0000
0000
,
0001
0000
0001
0100
0000
0100
0010
0000
0010
1000
0000
1000
,
0002
0000
0013
0100
0000
0100
0002
0000
0003
0100
0000
0000
,
0020
0000
0030
1000
0000
0000
0020
0000
0030
0100
0000
0000
,
2000
0000
3000
0000
0000
0000
0002
0000
0003
0000
0000
0000
,
0200
0000
0300
0000
0000
0000
0020
0000
0000
0000
0000
0000
,
1030
0000
0001
0100
0000
0000
0010
0000
1000
0000
0000
1000
,
0000
0000
0100
0010
0000
0000
1000
0000
0001
0000
0000
0001
,
0000
0000
0100
0010
0000
0000
0001
0000
0100
0000
0000
0100
,
0000
0000
0010
1000
0000
0000
0001
0000
0010
0000
0000
0001
,
0000
0000
1000
0100
0000
0000
0010
0000
0001
0000
0000
0001
,
0000
0000
0100
0010
0000
0000
0001
0000
1000
0000
0000
1000
,
0000
0000
0100
0001
0000
0000
1000
0000
0000
0100
0000
0010
,
0000
0000
0010
0001
0000
0000
0100
0000
0000
0100
0000
0000
,
0001
0000
1000
0010
0000
0000
0100
0000
0001
0000
0000
0011
,
0000
0000
0010
0100
0000
0000
1000
0000
0010
0000
0000
0110
,
0000
0000
0100
0001
0000
0000
1000
0000
0100
0000
0000
1100
,
0000
0000
1000
0010
0000
0000
0100
0000
0001
0000
0000
1001
,
0000
0000
0001
0010
0000
0000
0100
0000
1000
0000
0000
1010
,
0000
0000
0010
0100
0000
0000
0001
0000
0010
0000
0000
0110
,
0100
0000
0000
1000
0000
0010
0000
0000
1000
0001
0000
0001
,
0010
0000
0100
0010
0000
0001
1000
0000
0000
1000
0000
0000
,
0001
0000
1000
0100
0000
0000
0020
0000
0001
0000
0000
0001
,
0030
0000
0010
0100
0000
0000
2000
0000
0010
0000
0000
0010
,
3000
0000
0100
0001
0000
0000
0020
0000
0100
0000
0000
0100
,
0030
0000
1000
0010
0000
0000
0200
0000
0001
0000
0000
1000
,
0300
0000
0001
0100
0000
0000
0020
0000
1000
0000
0000
1000
,
0030
0000
0010
0100
0000
0000
0002
0000
0010
0000
0000
0010
,
0003
0000
0100
1000
0000
0000
0001
0000
0000
0100
0000
0010
,
0000
0000
0010
1000
0000
0000
0100
0000
0000
0100
0000
0000
,
1000
0000
0001
0010
0000
0000
0100
0000
1100
0000
0000
1010
,
0000
0000
0010
0100
0000
0000
0001
0000
0011
0000
0000
0110
,
0000
0000
0100
1000
0000
0000
0010
0000
1010
0000
0000
1001
,
0000
0000
0001
0010
0000
0000
0100
0000
0101
0000
0000
1100
,
0000
0000
1000
0010
0000
0000
0100
0000
0101
0000
0000
0011
,
0000
0000
0010
0100
0000
0000
1000
0000
1010
0000
0000
0110
,
0100
0000
0000
0001
0000
0010
0000
0000
0100
1000
0000
1000
,
0010
0000
0100
0010
0000
1000
0001
0000
0000
0001
0000
0000
,
1000
0000
0100
0010
0000
0001
1000
0000
0000
1001
0000
0000
,
0002
0000
0103
0010
0000
0010
0002
0000
0003
0010
0000
0000
,
0200
0000
0300
1000
0000
1000
0200
0000
0300
0010
0000
0000
,
2000
0000
3000
0001
0000
0000
2000
0000
3000
0100
0000
0000
,
0020
0000
0030
0001
0000
0001
1000
0000
1000
0100
0000
0000
,
2000
0000
3010
0100
0000
0100
2000
0000
3000
0100
0000
0000
,
0020
0000
0030
0001
0000
0001
0020
0000
0030
0100
0000
0000
,
0002
0000
0003
1000
0000
0000
0002
0000
0003
0010
0000
0000
,
0200
0000
0300
1000
0000
1000
0001
0000
0001
0010
0000
0000
,
0200
0000
1300
0001
0000
0001
0200
0000
0300
0001
0000
0000
,
2000
0000
3000
0010
0000
0000
2000
0000
3000
0100
0000
0000
,
1000
0000
1000
0001
0000
0001
0010
0000
0010
0001
0000
0000
,
0100
0000
0100
0001
0000
0001
1000
0000
1000
0100
0000
0100
,
0020
0000
0031
1000
0000
1000
0020
0000
0030
1000
0000
0000
,
0002
0000
0003
0100
0000
0000
0002
0000
0003
0010
0000
0000
,
0200
0000
0300
0000
0000
0000
0020
0000
0030
0000
0000
0000
,
0002
0000
0003
0000
0000
0000
2000
0000
3010
2000
0000
3000
,
0100
0000
0000
0000
;
