#VERSION:0.83;
#TITLE:Golden Palms;
#SUBTITLE:;
#ARTIST:Dirty Androids;
#TITLETRANSLIT:;
#SUBTITLETRANSLIT:;
#ARTISTTRANSLIT:;
#GENRE:;
#ORIGIN:;
#TAGS:;
#CREDIT:;
#BANNER:Golden Palms.png;
#BACKGROUND:Golden Palms-bg.png;
#PREVIEWVID:;
#JACKET:Golden Palms-jacket.png;
#CDIMAGE:;
#DISCIMAGE:;
#LYRICSPATH:;
#CDTITLE:cdtitle.png;
#MUSIC:Golden Palms.ogg;
#OFFSET:-0.385000;
#SAMPLESTART:44.693001;
#SAMPLELENGTH:15.000000;
#SELECTABLE:YES;
#BPMS:0.000000=130.000000
;
#STOPS:;
#DELAYS:;
#WARPS:;
#TIMESIGNATURES:0.000000=4=4
;
#TICKCOUNTS:0.000000=4
;
#COMBOS:0.000000=1
;
#SPEEDS:0.000000=1.000000=0.000000=0
;
#SCROLLS:0.000000=1.000000
;
#LABELS:0.000000=Song Start
;
#BGCHANGES:0.000=Golden Palms.mp4=1.000=0=0=1=====,
99999=-nosongbg-=1.000=0=0=0 // don't automatically add -songbackground-
;
#KEYSOUNDS:;
#ATTACKS:
;

//---------------dance-single - ----------------
#NOTEDATA:;
#CHARTNAME:;
#CHARTHASH:2147483647;
#STEPSTYPE:dance-single;
#BANNER:;
#DESCRIPTION:;
#CHARTSTYLE:;
#DIFFICULTY:Beginner;
#METER:3;
#METERF:3.000000;
#LASTSECONDHINT:117.615768;
#RADARVALUES:0.134336,0.183328,0.032995,0.049492,0.000000,114.000000,110.000000,4.000000,6.000000,0.000000,0.000000,0.000000,0.000000,0.000000,0.134336,0.183328,0.032995,0.049492,0.000000,114.000000,110.000000,4.000000,6.000000,0.000000,0.000000,0.000000,0.000000,0.000000;
#CREDIT:Supra the Hedgehog;
#NOTES:
0000
0000
0000
0000
,
0000
0000
0000
0000
,
0000
0000
0000
0000
,
0000
0000
0000
0000
,
1000
0000
0000
0000
,
0010
0000
0000
0000
,
0001
0000
0000
0000
,
0100
0000
0000
0000
,
1000
0000
1000
0000
,
0010
0000
0000
1000
,
1000
0000
1000
0000
,
0100
0000
0000
0000
,
0001
0000
0001
0000
,
0010
0000
0000
0001
,
0001
0000
0001
0000
,
0100
0000
0000
0000
,
1000
0000
0001
0000
,
0100
0000
0000
1001
,
1000
0000
0001
0000
,
0010
0000
0000
0000
,
0001
0000
1000
0000
,
0100
0000
0000
1001
,
0001
0000
1000
0000
,
0010
0000
0000
0000
,
1000
0000
0010
0000
,
0100
0000
0001
1001
,
0001
0000
0010
0000
,
0100
0000
1000
0000
,
0001
0000
0100
0000
,
0010
0000
1000
1001
,
1000
0000
0100
0000
,
0010
0000
0001
0000
,
2000
0000
0000
0000
,
0000
0000
3000
0000
,
0002
0000
0000
0000
,
0000
0000
0003
0000
,
0200
0000
0000
0000
,
0000
0000
0300
0000
,
0020
0000
0000
0000
,
0000
0000
0030
0000
,
0000
1000
0000
1000
,
0000
0001
0000
0001
,
0000
0100
0000
0100
,
0000
0010
0000
0010
,
0000
1000
0000
0100
,
0000
0010
0000
0001
,
0001
0000
1000
0000
,
0001
0000
0000
0000
,
1000
1000
1000
0000
,
0001
0001
0001
0000
,
0010
0010
0010
0000
,
0100
0000
0000
0000
,
0010
0010
0010
0000
,
0001
0001
0001
0000
,
1000
1000
1000
0000
,
0100
0100
0100
0000
,
1000
0000
0010
0000
,
0100
0001
0100
0000
,
0001
0000
0010
0000
,
0100
1000
0100
0000
,
0010
0000
0001
0000
,
0200
0300
0020
0030
,
1000
0000
0001
0000
,
0010
0100
0010
0000
;

//---------------dance-single - ----------------
#NOTEDATA:;
#CHARTNAME:;
#CHARTHASH:2147483647;
#STEPSTYPE:dance-single;
#BANNER:;
#DESCRIPTION:;
#CHARTSTYLE:;
#DIFFICULTY:Easy;
#METER:7;
#METERF:7.000000;
#LASTSECONDHINT:118.538841;
#RADARVALUES:0.300489,0.448730,0.230964,0.255710,0.000000,255.000000,227.000000,28.000000,31.000000,0.000000,0.000000,0.000000,0.000000,0.000000,0.300489,0.448730,0.230964,0.255710,0.000000,255.000000,227.000000,28.000000,31.000000,0.000000,0.000000,0.000000,0.000000,0.000000;
#CREDIT:Supra the Hedgehog;
#NOTES:
0000
0000
0000
0000
,
0000
0000
0000
0000
,
0000
0000
0000
0000
,
0000
0000
0000
0000
,
1000
0000
0010
0000
,
0001
0000
0100
0000
,
1000
0000
0010
0000
,
0100
0100
0100
0000
,
0001
0100
0001
0000
,
1000
0000
0001
0001
,
1000
0010
1000
0000
,
0001
0000
1000
0100
,
0010
0001
0010
0000
,
0100
0000
0010
0010
,
0100
1000
0100
0000
,
0010
0010
0010
0000
,
0001
0100
0001
0000
,
1000
0100
0010
1001
,
1000
0010
1000
0000
,
0001
0010
0100
1000
,
0010
1000
0010
0000
,
0100
0001
1000
0110
,
0100
0001
0100
0000
,
0010
0010
0010
0010
,
1000
0100
1000
1000
,
0001
0100
0010
1001
,
0001
0010
0001
0001
,
1000
0010
0100
0001
,
0010
0001
0010
0010
,
0100
1000
0001
0110
,
0100
1000
0100
0100
,
0010
0001
1000
0100
,
2000
0001
0010
0001
,
0010
0001
3020
0230
,
0302
1000
0010
1000
,
0010
1000
0023
0230
,
0320
0100
0001
0100
,
0001
0100
0032
2003
,
3200
0010
1000
0010
,
1000
0010
2300
3002
,
2003
3100
0002
0103
,
2000
3010
0002
0013
,
0200
0301
0020
1030
,
0200
0302
2003
3020
,
1030
1000
0001
0001
,
0010
0010
0100
0100
,
0020
0031
0200
1300
,
0020
0130
0001
1000
,
1001
1001
1001
0010
,
0110
0110
0110
1001
,
1100
1100
1100
0010
,
0011
0000
0100
1001
,
0101
0101
0101
1000
,
1100
1100
1100
0110
,
0011
0011
0011
1000
,
1001
1001
0001
1000
,
0001
0000
0100
0010
0100
0000
0001
0000
,
1000
0100
1000
0000
0001
0010
0001
0000
,
1000
0000
0100
0010
0100
0000
1000
0000
,
0001
0100
0001
0000
2000
0000
3001
0000
,
0100
0000
0010
1000
0010
0000
0100
0000
,
0002
0023
0230
2300
,
3010
0000
0100
0001
0100
0000
0010
0000
,
1000
0100
0010
0200
,
0300
0000
0000
0000
;

//---------------dance-single - ----------------
#NOTEDATA:;
#CHARTNAME:;
#CHARTHASH:148685937;
#STEPSTYPE:dance-single;
#BANNER:;
#DESCRIPTION:;
#CHARTSTYLE:;
#DIFFICULTY:Medium;
#METER:10;
#METERF:10.000000;
#LASTSECONDHINT:118.538841;
#RADARVALUES:0.431290,0.448730,0.173223,0.305202,0.103109,366.000000,345.000000,21.000000,37.000000,0.000000,0.000000,0.000000,0.000000,0.000000,0.431290,0.448730,0.173223,0.305202,0.103109,366.000000,345.000000,21.000000,37.000000,0.000000,0.000000,0.000000,0.000000,0.000000;
#CREDIT:Supra the Hedgehog;
#NOTES:
0000
0000
0000
0000
,
0000
0000
0000
0000
,
0000
0000
0000
0000
,
0000
0000
0000
0000
,
1000
0000
1001
0000
1000
0100
0010
0000
,
0001
0000
1001
0000
0001
0100
0010
0000
,
0100
0000
0110
0000
0100
0001
1000
0000
,
0001
0010
0001
0010
0100
0200
0000
0000
,
1300
0000
1001
0000
0001
0010
0001
0000
,
0100
0010
1000
0000
0100
0000
0020
0000
,
0031
0000
1001
0000
1000
0010
1000
0000
,
0100
0010
0001
0000
0100
0010
1000
0000
,
0001
0000
0011
0000
1000
0100
0010
0000
,
0001
1000
0010
0000
0100
0000
0002
0000
,
1003
0000
1010
0000
0001
0100
0010
0000
,
1000
0000
0000
0001
0000
0000
0010
0000
0000
0000
0000
0000
0001
0000
1000
0000
0001
0000
1000
0000
0000
1000
0000
0000
,
0001
0000
1001
0000
1000
0010
0100
0000
,
0001
0010
0100
0010
0001
0000
0102
0000
,
1003
0000
1001
0000
0001
0010
0100
0000
,
1000
0010
0100
0010
1000
0000
0001
0010
,
0100
0000
0110
0000
0010
0001
1000
0000
,
0010
0001
0010
0100
0010
0000
1020
0000
,
0130
0000
0110
0000
0010
1000
0001
0000
,
0010
0000
0000
0000
0010
0000
0000
0100
0000
0100
0000
0000
1000
0000
0001
0000
,
1000
0000
1001
0000
0001
0010
0100
0000
,
1000
0010
0001
0010
1000
0100
2100
0000
,
3001
0000
1001
0000
1000
0010
0100
0000
,
0001
0010
1000
0010
0001
0100
1000
0100
,
0100
0000
0110
0000
0010
1000
0001
0000
,
0010
1000
0010
0100
0010
0001
0021
0000
,
0130
0000
0110
0000
0010
0001
1000
0000
,
0010
0001
0010
0100
0010
1000
0100
0010
,
0000
0001
0100
0001
0010
0100
1000
0020
,
0000
0000
0130
0002
0000
0000
2003
0000
,
3000
0010
1000
0100
0010
0001
0100
0020
,
0000
0000
1030
0200
0000
0000
0000
0000
,
0300
0010
0001
0100
0001
0010
0100
2000
,
0000
0000
3010
0200
0000
0000
0301
0020
,
0000
0000
0130
2000
0000
0000
3001
0200
,
0000
0310
1000
0001
1000
0001
0100
0000
,
0000
0001
0001
0000
0000
1000
1000
0000
,
0000
0010
0010
0000
0000
0100
0100
0000
,
0000
0010
0010
0000
0000
1000
1000
0000
,
0000
0001
0010
0100
1000
0001
0100
0010
,
0000
0100
0001
0000
0000
0010
1000
0000
,
0000
0010
0001
0000
0000
0100
0010
1000
,
0100
0000
0000
0010
0000
0000
0000
0000
0000
0000
0000
0000
0001
0000
1000
0000
0000
0000
0000
0000
0000
0000
0000
0000
,
0001
0000
1000
0000
0000
0000
0000
0000
0000
0000
0000
0000
0100
0000
0000
0100
0000
0000
0100
0000
0000
0000
0000
0000
,
1000
0000
0000
0000
0000
0100
1000
0000
0000
0000
0000
0100
1000
0000
0000
0000
0000
0100
1000
0000
0000
0010
0000
0000
,
0100
0000
0000
0000
0000
0001
0100
0000
0000
0000
0000
0001
0100
0000
0000
0001
0000
0000
2002
0000
0000
3003
0000
0000
,
1000
0000
0000
0000
0000
0010
1000
0000
0000
0000
0000
0010
1000
0000
0000
0000
0000
0010
1000
0000
0000
0100
0000
0000
,
0010
0000
0000
0001
0000
0000
1000
0000
0001
0000
1000
0000
0100
0000
0000
0000
,
0010
0000
0000
0000
0000
0001
0010
0000
0000
0000
0000
0001
0010
0000
0000
0010
0000
0000
0010
0000
0000
0100
0000
0000
,
1000
0000
0000
0000
0000
0010
1000
0000
0000
0000
0000
0010
1000
0000
0000
0010
0000
0000
0220
0000
0000
0330
0000
0000
,
0100
0000
0000
0000
0000
0001
0100
0000
0000
0000
0000
0001
0100
0000
0000
0100
0000
0000
0100
0000
0000
0010
0000
0000
,
1000
0000
0000
0000
0000
0100
1000
0000
0000
1000
0000
0000
0010
0000
0000
1000
0000
0000
0200
0000
0000
0000
0000
0000
,
1300
0001
0010
0002
0000
0103
0010
0020
,
0000
0000
0000
1030
0000
0000
0100
0000
0000
0010
0000
0000
0001
0000
0000
0001
0000
0100
0000
0000
0000
0000
0000
0000
,
0010
1000
0010
0200
0000
0301
1000
2000
,
0000
3100
0010
0001
0200
0000
0301
0010
,
0100
1000
0010
2000
0000
3001
0100
0010
,
0200
0302
2003
3020
,
0130
0001
1000
0002
0000
0013
0100
1000
,
0020
0000
0000
0000
0000
0230
0000
0000
0000
0302
0000
0000
0000
0000
0000
0000
0000
0000
1003
0000
0200
0000
0000
0000
,
0300
0000
0000
0000
;

//---------------dance-single - ----------------
#NOTEDATA:;
#CHARTNAME:;
#CHARTHASH:2066453899;
#STEPSTYPE:dance-single;
#BANNER:;
#DESCRIPTION:;
#CHARTSTYLE:;
#DIFFICULTY:Hard;
#METER:14;
#METERF:14.000000;
#LASTSECONDHINT:118.538841;
#RADARVALUES:0.672859,0.739085,0.230964,0.742384,0.577410,571.000000,543.000000,28.000000,90.000000,0.000000,0.000000,0.000000,0.000000,0.000000,0.672859,0.739085,0.230964,0.742384,0.577410,571.000000,543.000000,28.000000,90.000000,0.000000,0.000000,0.000000,0.000000,0.000000;
#CREDIT:Supra the Hedgehog;
#NOTES:
// measure 0
0000
0000
0000
0000
,  // measure 1
0000
0000
0000
0000
,  // measure 2
0000
0000
0000
0000
,  // measure 3
0000
0000
0000
0000
,  // measure 4
1000
0000
0000
0000
0000
0010
0001
0000
0000
1000
0000
0000
0000
0000
0100
0010
0000
0000
1000
0000
0000
0100
0000
0010
,  // measure 5
0001
0000
0000
0000
0000
0010
1000
0000
0000
0001
0000
0000
0000
0000
0100
0010
0000
0000
0001
0000
0000
0100
0000
1000
,  // measure 6
0100
0000
0000
0000
0000
0010
1000
0000
0000
0100
0000
0000
0000
0000
0001
1000
0000
0000
0010
0000
0000
0001
0000
0100
,  // measure 7
0010
0000
0000
0000
0000
0000
0010
0000
0000
0000
0000
0000
0010
0000
0000
0000
0000
0000
0010
0000
0000
0000
0000
0000
1000
0001
0000
0000
0000
0000
1000
0010
0000
0000
0000
0000
1000
0100
0000
0000
0000
0000
0010
0000
0000
0000
0000
0000
,  // measure 8
0001
0000
0000
0000
0000
0000
1001
0000
0000
0100
0000
0010
1000
0000
0000
0000
0000
0001
0010
0000
0000
0100
0000
0010
,  // measure 9
0001
0000
0000
0100
0000
0000
1000
0000
0000
0100
0000
0000
0010
0000
0000
1000
0000
0001
0020
0000
0000
0000
0000
0031
,  // measure 10
1000
0000
0000
0000
0000
0000
1001
0000
0000
1000
0100
0010
0001
0000
0000
0000
0000
1000
0010
0000
0000
0100
0000
0010
,  // measure 11
1000
0000
0000
0100
0000
0000
0001
0000
0000
0100
0000
0000
0010
0000
0000
0001
0000
1000
0010
0000
0000
0100
0000
0001
,  // measure 12
0010
0000
0000
0000
0000
0000
0110
0000
0000
0001
0000
1000
0100
0000
0000
0000
0000
0010
0001
0000
0000
0100
0000
0010
,  // measure 13
0001
0000
0000
0010
0000
0000
0100
0000
0000
0010
0000
0000
1000
0000
0000
0100
0000
0010
0002
0000
0000
0000
0000
0103
,  // measure 14
0010
0000
0000
0000
0000
0000
0110
0000
0000
0010
1000
0001
0100
0000
0000
0000
0000
0010
1000
0000
0000
0100
0000
0010
,  // measure 15
0200
0000
0300
0000
0000
0000
0200
0000
0300
0000
0000
0000
1000
0000
0001
0000
1000
0000
0001
0000
0000
0000
1000
0000
0001
0000
0000
0000
0010
0000
0000
0000
1000
0000
0000
0000
0010
0000
0000
0100
0000
0000
0010
0000
0000
0100
0000
0000
,  // measure 16
1000
0000
0000
0000
0000
0000
1001
0000
0000
0001
0000
0100
0010
0000
0100
0000
0000
0000
0101
0000
0000
0001
0000
0010
,  // measure 17
0100
0000
0000
0001
0000
0000
0100
0000
0000
1000
0000
0001
0100
0000
0000
0010
0000
0000
2020
0000
0000
3030
0000
1000
,  // measure 18
0001
0000
0000
0000
0000
0000
1001
0000
0000
1000
0000
0100
0010
0000
0100
0000
0000
0000
1100
0000
0000
1000
0000
0010
,  // measure 19
0100
0000
0000
1000
0000
0000
0100
0000
0000
0001
0000
1000
0100
0000
0000
0010
0000
0001
1000
0000
0000
0001
0000
0100
,  // measure 20
0010
0000
0000
0000
0000
0000
0110
0000
0000
0100
0000
0001
1000
0000
0001
0000
0000
0000
0011
0000
0000
0010
0000
0100
,  // measure 21
1000
0000
0000
0010
0000
0000
0001
0000
0000
0010
0000
0100
0001
0000
0000
1000
0000
0000
2200
0000
0000
3300
0000
0100
,  // measure 22
0010
0000
0000
0000
0000
0000
0110
0000
0000
0100
0000
1000
0001
0000
1000
0000
0000
0000
1010
0000
0000
0010
0000
0100
,  // measure 23
0001
0000
1000
0100
1000
0000
0001
0100
0000
0010
1000
0001
1000
0000
0110
0000
,  // measure 24
0002
0000
0000
0000
0000
0003
1001
0000
0000
1000
0000
0010
0100
0000
0010
1000
0000
0000
1100
0000
0000
0100
0000
0010
,  // measure 25
0002
0000
0000
1000
0000
1003
0100
0000
0000
1000
0000
0010
0100
0000
0000
0001
0000
0000
0022
0000
0000
0033
0000
0001
,  // measure 26
2000
0000
0000
0000
0000
3000
1001
0000
0000
0001
0000
0010
0100
0000
0010
0001
0000
0000
0101
0000
0000
0100
0000
0010
,  // measure 27
2000
0000
0000
0001
0000
3001
0100
0000
0000
0001
0000
0010
0100
0000
0000
0010
0000
0001
0100
0000
0001
1000
0000
0100
,  // measure 28
0020
0000
0000
0000
0000
0030
0110
0000
0000
0100
0000
1000
0001
0000
1000
0010
0000
0000
1010
0000
0000
1000
0000
0001
,  // measure 29
0020
0000
0000
0100
0000
0130
1000
0000
0000
0010
0000
0100
0001
0000
0000
1000
0000
0000
2200
0000
0000
3300
0000
1000
,  // measure 30
0020
0000
0000
0000
0000
0030
0110
0000
0000
0100
0000
0001
1000
0000
0001
0010
0000
0000
0011
0000
0000
0001
0000
1000
,  // measure 31
0020
0000
0000
0100
0000
0130
0001
0000
0000
0010
0000
0100
1000
0000
0000
0001
0000
1000
0010
0000
1000
0100
0000
0010
,  // measure 32
0001
0000
0000
0100
0000
0010
2000
0000
0000
3200
0000
0000
2300
0000
0000
3002
0000
0000
0023
0000
0000
0230
0000
0000
,  // measure 33
0001
0000
2300
3020
0001
0000
2030
0000
,  // measure 34
3100
0000
0000
0010
0000
0001
0200
0000
0000
2300
0000
0000
3200
0000
0000
0302
0000
0000
2003
0000
0000
3020
0000
0000
,  // measure 35
0001
0000
2030
3200
0001
0000
1000
0000
,  // measure 36
0310
0002
0203
0302
2003
3020
0230
0302
,  // measure 37
0010
0000
0203
2300
0001
0000
3200
0320
,  // measure 38
1000
0000
0230
0302
0010
0000
2003
3200
,  // measure 39
0010
0001
0001
0001
1000
1000
1000
0300
,  // measure 40
0001
0100
1000
0000
0100
0010
1000
0000
,  // measure 41
0100
0001
1000
0000
0010
0100
1000
0000
,  // measure 42
0001
0100
0010
0000
1000
0100
0010
0000
,  // measure 43
0001
0200
2300
3002
0023
0230
0302
2003
,  // measure 44
3200
0310
0001
0000
0100
1000
0001
0000
,  // measure 45
0010
1000
0100
0000
0010
0001
1000
0010
,  // measure 46
0100
0000
0000
0001
0000
0000
1000
0000
0000
0000
0000
0000
0100
0000
0010
0000
0000
0000
0100
0000
0000
0000
0000
0000
,  // measure 47
1000
0000
0000
0000
0001
0000
0000
0000
0000
0000
0000
0000
1000
0000
0000
0000
0000
0000
0000
0000
0000
0000
0000
0000
0010
0000
0000
0000
0000
0000
0010
0000
0000
0000
0000
0000
0100
0000
0000
0001
0000
0000
0100
0000
0000
0001
0000
0000
,  // measure 48
1000
0000
0000
0100
0000
0100
1000
0000
0000
0100
0000
0100
1000
0000
0000
0100
0000
0100
1000
0000
0000
0010
0000
0000
,  // measure 49
0100
0000
0000
0001
0000
0001
0100
0000
0000
0001
0000
0001
0100
0000
0000
0001
0000
0000
2002
0000
0000
3003
0000
0000
,  // measure 50
1000
0000
0000
0010
0000
0010
1000
0000
0000
0010
0000
0010
1000
0000
0000
0010
0000
0010
1000
0000
0000
0100
0000
0000
,  // measure 51
0010
0000
0001
0010
0000
0000
0100
1000
0100
0000
1000
0000
1001
0000
0000
0000
,  // measure 52
0010
0000
0000
0001
0000
0001
0010
0000
0000
0001
0000
0001
0010
0000
0100
0010
0000
0001
0010
0000
0100
0010
0000
0000
,  // measure 53
0001
0000
0000
1000
0000
1000
0001
0000
0000
1000
0000
1000
0001
0000
0000
0100
0000
0000
0220
0000
0000
0330
0000
0000
,  // measure 54
0010
0000
0000
1000
0000
1000
0010
0000
0000
1000
0000
1000
0010
0000
0100
0010
0000
1000
0010
0000
0100
0010
0000
0000
,  // measure 55
1000
0000
0000
0000
0000
0000
0100
0000
0000
0000
0100
0000
1000
0000
0000
0000
0100
0000
1000
0000
0000
0000
0000
0000
0010
0000
0000
0100
0000
0000
0001
0000
0000
1000
0000
0000
0200
0000
0000
0000
0000
0000
0000
0000
0000
0000
0000
0000
,  // measure 56
2300
0000
0000
3001
0000
0010
0100
0000
0000
2000
0000
0000
0010
0000
0000
3001
0000
0000
0100
0000
0000
0020
0000
0000
,  // measure 57
1000
0000
0000
0130
0000
0000
0001
0000
0000
0010
0000
0000
0100
0000
1000
0010
0000
0100
0002
0000
0000
0000
0000
0000
,  // measure 58
0203
0000
0000
0310
0000
1000
0100
0000
0000
0020
0000
0000
0001
0000
0000
0130
0000
0010
0001
0000
0000
2000
0000
0000
,  // measure 59
0001
3200
0320
2030
3002
0000
0203
2300
,  // measure 60
3002
0000
0000
0103
0000
0010
1000
0000
0000
0200
0000
0000
0001
0000
0000
0310
0000
0000
0001
0000
0000
1000
0000
0000
,  // measure 61
0200
0000
0000
0001
0000
0000
0320
0000
0000
1000
0000
0000
0032
0000
0000
0100
0000
0103
0020
0000
0000
0000
0000
0000
,  // measure 62
2030
0000
0000
3100
0000
0010
0001
0000
0000
0200
0000
0000
1000
0000
0000
0310
0000
1000
0001
0000
0000
0010
0000
0000
,  // measure 63
0200
0000
0000
0000
0000
0302
0000
0000
0000
2003
0000
0000
0000
0000
0000
3010
0000
0001
1000
0000
0020
0000
0000
0000
,  // measure 64
0030
0000
0000
0000
;
