#VERSION:0.83;
#TITLE:Gimme! Gimme! Gimme!;
#SUBTITLE:(a man after midnight);
#ARTIST:Syzz;
#TITLETRANSLIT:;
#SUBTITLETRANSLIT:;
#ARTISTTRANSLIT:;
#GENRE:;
#ORIGIN:;
#TAGS:;
#CREDIT:;
#BANNER:Gimme! Gimme! Gimme! (a man after midnight).png;
#BACKGROUND:Gimme! Gimme! Gimme! (a man after midnight)-bg.png;
#PREVIEWVID:;
#JACKET:Gimme! Gimme! Gimme! (a man after midnight)-jacket.png;
#CDIMAGE:;
#DISCIMAGE:;
#LYRICSPATH:;
#CDTITLE:cdtitle.png;
#MUSIC:Gimme! Gimme! Gimme! (a man after midnight).ogg;
#OFFSET:-0.013000;
#SAMPLESTART:52.513000;
#SAMPLELENGTH:15.000000;
#SELECTABLE:YES;
#BPMS:0.000000=128.000000
;
#STOPS:;
#DELAYS:;
#WARPS:;
#TIMESIGNATURES:0.000000=4=4
;
#TICKCOUNTS:0.000000=4
;
#COMBOS:0.000000=1
;
#SPEEDS:0.000000=1.000000=0.000000=0
;
#SCROLLS:0.000000=1.000000
;
#FAKES:;
#LABELS:0.000000=Song Start
;
#BGCHANGES:;
#KEYSOUNDS:;
#ATTACKS:
;

//---------------dance-single - ----------------
#NOTEDATA:;
#CHARTNAME:;
#CHARTHASH:1454349153;
#STEPSTYPE:dance-single;
#BANNER:;
#DESCRIPTION:;
#CHARTSTYLE:;
#DIFFICULTY:Beginner;
#METER:4;
#METERF:4.000000;
#LASTSECONDHINT:127.512993;
#RADARVALUES:0.157631,0.176251,0.059244,0.103677,0.000000,149.000000,141.000000,8.000000,14.000000,0.000000,0.000000,0.000000,0.000000,0.000000,0.157631,0.176251,0.059244,0.103677,0.000000,149.000000,141.000000,8.000000,14.000000,0.000000,0.000000,0.000000,0.000000,0.000000;
#CREDIT:Supra G.L.;
#NOTES:
0000
0000
0000
0000
,
0000
0000
0000
0000
,
0000
0000
0000
0000
,
0000
0000
0000
0000
,
1000
1000
1000
0000
,
0001
0000
0100
0000
,
0010
0000
1000
0000
,
0100
0000
0010
0000
,
0001
0001
0001
0000
,
1000
0000
0010
0000
,
0100
0000
0001
0000
,
0010
0000
0100
0000
,
2000
0000
0000
3000
,
0001
0002
0000
0003
,
2000
0000
0000
3000
,
0002
0000
0000
0003
,
0200
0000
0000
0300
,
0010
0020
0000
0030
,
0200
0000
0000
0300
,
0020
0000
0000
0030
,
1001
0000
0000
0000
,
1001
0000
0000
0000
,
0110
0000
0000
0000
,
0110
0000
0000
0000
,
1000
0000
0001
0000
,
1000
0000
0001
0000
,
1000
0001
1000
0001
,
2000
0000
3000
0000
,
0001
0001
0001
0000
,
1000
1000
1000
0000
,
0010
0010
0010
0000
,
0100
0100
0100
0000
,
0001
0001
0001
0000
,
0010
0010
0010
0000
,
0100
0100
0100
0000
,
1000
0000
0001
0000
,
2000
0000
3000
0000
,
0001
0001
0001
0000
,
0100
0100
0100
0000
,
0010
0010
0010
0000
,
1000
1000
1000
0000
,
0100
0100
0100
0000
,
0010
0010
0010
0000
,
0002
0000
0003
0000
,
1001
0000
0000
0000
,
1001
0000
0000
0000
,
0110
0000
0000
0000
,
0110
0000
0000
0000
,
0001
0000
1000
0000
,
0001
0000
1000
0000
,
0001
1000
0001
1000
,
0002
0000
0003
0000
,
1000
0100
1000
0000
,
0001
0100
0001
0000
,
0100
0010
0100
0000
,
0001
1000
0001
0000
,
1000
0010
1000
0000
,
0100
1000
0100
0000
,
0010
0100
0010
0000
,
0001
0000
1000
0000
,
0002
0000
0003
0000
,
1000
0010
1000
0000
,
0010
0100
0010
0000
,
1000
0001
1000
0000
,
0001
0100
0001
0000
,
0010
0001
0010
0000
,
0100
0010
0100
0000
,
2000
0000
3000
0000
,
0001
0000
0000
0000
;

//---------------dance-single - ----------------
#NOTEDATA:;
#CHARTNAME:;
#CHARTHASH:938014295;
#STEPSTYPE:dance-single;
#BANNER:;
#DESCRIPTION:;
#CHARTSTYLE:;
#DIFFICULTY:Easy;
#METER:8;
#METERF:8.000000;
#LASTSECONDHINT:127.512993;
#RADARVALUES:0.333247,0.352501,0.118488,0.562817,0.000000,315.000000,299.000000,16.000000,76.000000,0.000000,0.000000,0.000000,0.000000,0.000000,0.333247,0.352501,0.118488,0.562817,0.000000,315.000000,299.000000,16.000000,76.000000,0.000000,0.000000,0.000000,0.000000,0.000000;
#CREDIT:Supra G.L.;
#NOTES:
0000
0000
0000
0000
,
0000
0000
0000
0000
,
0000
0000
0000
0000
,
0000
0000
0000
0000
,
1000
0000
0010
0000
1000
0000
0010
0100
,
0000
0010
0100
0000
0001
0000
1000
0000
,
0002
0010
2003
0010
,
3002
0000
0100
0000
1003
0001
1000
0000
,
0001
0000
0010
0000
0001
0000
0010
0100
,
0000
0010
0100
0000
1000
0000
0001
0000
,
2000
0010
3002
0010
,
2003
0000
0100
0000
3001
0000
1000
0001
,
2000
0000
0000
0000
0000
0000
3001
0100
,
0001
0100
0002
0000
0000
0000
0103
0010
,
0200
0000
0000
0000
0000
0000
0301
0010
,
0002
0000
0000
0000
0000
0000
1003
0010
,
2000
0000
0000
0000
0000
0000
3010
0100
,
0010
0100
0020
0000
0000
0000
0130
0001
,
0200
0000
0000
0000
0000
0000
0310
1000
,
0020
0000
0000
0000
0000
0000
1030
0001
,
1000
1000
1001
0000
,
0011
0000
1010
0000
,
0010
0010
0110
0000
,
0101
0000
1100
0000
,
1000
0010
0100
0001
,
1000
0100
0010
0001
,
1000
0010
1000
0000
0001
0100
0001
0000
,
2000
0000
3001
1001
,
1000
0100
1000
0100
2000
0000
3020
0000
,
0130
0001
0100
0001
0200
0000
0302
0000
,
0013
0100
0010
0100
0020
0000
0230
0000
,
1300
0010
1000
0010
2000
0000
3002
0000
,
0013
0001
0010
0001
0020
0000
0230
0000
,
1300
0001
1000
0001
2000
0000
3020
0000
,
0130
0010
0100
0010
0200
0000
0302
0000
,
1003
0000
0001
0000
1000
0000
0001
2000
,
0000
0000
3001
0010
0002
0000
0203
0000
,
0310
1000
0010
1000
0020
0000
2030
0000
,
3100
0010
0100
0010
0200
0000
0320
0000
,
0031
0100
0001
0100
0002
0000
2003
0000
,
3100
1000
0100
1000
0200
0000
0320
0000
,
0031
1000
0001
1000
0002
0000
0203
0000
,
0310
0100
0010
0100
0020
0000
2030
0000
,
3002
0000
1003
1001
,
0110
0000
0011
0000
,
1100
0000
0001
0001
,
1001
0000
1010
0000
,
0101
0000
1000
1000
,
0001
0010
0100
1000
,
0001
0100
0010
1000
,
0001
0010
0001
0000
1000
0100
1000
0000
,
0002
0000
1003
1001
,
0001
0100
0010
0100
0002
0000
0023
0000
,
0130
1000
0010
1000
0200
0000
2300
0000
,
3010
0100
0001
0100
0020
0000
0230
0000
,
0301
0010
0100
0010
0002
0000
2003
0000
,
3010
1000
0001
1000
0020
0000
0230
0000
,
0301
1000
0100
1000
0002
0000
0023
0000
,
0130
0010
0001
0010
0200
0000
2300
0000
,
3001
0000
1000
0000
0001
0000
1000
0002
,
0000
0000
1003
0010
2000
0000
3200
0000
,
0310
0001
0100
0001
0020
0000
0032
0000
,
0103
0010
1000
0010
0200
0000
0320
0000
,
1030
0100
0010
0100
2000
0000
3002
0000
,
0103
0001
1000
0001
0200
0000
0320
0000
,
1030
0001
0010
0001
2000
0000
3200
0000
,
0310
0100
1000
0100
0020
0000
0032
0000
,
2003
0000
3001
1001
,
1000
0000
0000
0000
;

//---------------dance-single - ----------------
#NOTEDATA:;
#CHARTNAME:;
#CHARTHASH:2147483647;
#STEPSTYPE:dance-single;
#BANNER:;
#DESCRIPTION:;
#CHARTSTYLE:;
#DIFFICULTY:Medium;
#METER:13;
#METERF:13.000000;
#LASTSECONDHINT:127.512993;
#RADARVALUES:0.567049,0.579109,0.051838,0.177732,0.529492,536.000000,529.000000,7.000000,24.000000,0.000000,0.000000,0.000000,0.000000,0.000000,0.567049,0.579109,0.051838,0.177732,0.529492,536.000000,529.000000,7.000000,24.000000,0.000000,0.000000,0.000000,0.000000,0.000000;
#CREDIT:Supra G.L.;
#NOTES:
0000
0000
0000
0000
,
0000
0000
0000
0000
,
0000
0000
0000
0000
,
0000
0000
0000
0000
,
1000
0010
1000
0010
1000
0010
0100
0002
,
0000
1003
0100
2000
0000
3002
0000
0023
,
0000
0000
0130
0000
1000
0000
0001
1000
0000
0000
0010
0000
0100
0000
0010
0000
,
1000
0100
0010
0002
0000
1000
1003
0000
,
0001
0010
0001
0010
0001
0010
0100
2000
,
0000
3001
0100
0002
0000
2003
0000
3020
,
0000
0000
0130
0000
0001
0000
1000
0001
0000
0000
0010
0000
0100
0000
0010
0000
,
0001
0000
0100
0000
0010
0000
2000
0000
0000
0000
3001
0010
0100
0000
0100
0010
,
0002
0000
0000
0000
1000
0000
0000
0000
1000
0000
1003
0010
0100
0000
0100
0010
,
1000
0000
0100
0000
0020
0000
0000
0000
0100
0000
0130
1000
0001
0000
0001
1000
,
0200
0000
0000
0000
0010
0000
0000
0000
0010
0000
0310
0001
1000
0000
1000
0001
,
0020
0000
0000
0000
0100
0000
0000
0000
0100
0000
0130
1000
0010
0000
0010
1000
,
0200
0000
0000
0000
0010
0000
0000
0000
0010
0000
0310
0001
0100
0000
0100
0001
,
0010
0000
0100
0000
2000
0000
0000
0000
0001
0000
3001
0100
1000
0000
1000
0100
,
0002
0000
0000
0000
1000
0000
0000
0000
1000
0000
1003
0010
0001
0000
0001
0010
,
2000
0000
0000
0000
0000
0000
0000
0000
0000
0000
3001
0010
0100
0000
0100
0010
,
0001
0000
0000
0000
1100
0000
0000
0000
0001
0000
0000
0001
0000
0000
0001
0000
,
0100
0000
0000
0100
0000
0000
0100
0000
0010
0000
0000
0010
0000
0000
0010
0000
,
1010
0000
0000
0000
0101
0000
0000
0000
1000
0000
0000
1000
0000
0000
1000
0000
,
0100
0000
0000
0100
0000
0000
0100
0000
0010
0000
0000
0010
0000
0000
0010
0000
,
0001
0100
0001
0000
1000
0010
1000
0000
,
0100
1000
0100
0000
0010
0001
0010
0000
,
0001
1000
0010
0100
0001
0100
0010
1000
,
0002
0000
0000
0000
1003
1000
1001
0000
,
0001
0000
1000
0001
0000
0000
1000
0001
0000
0000
1000
0010
0100
0000
0100
0010
,
1000
0000
0100
0000
0010
0000
0100
0010
0000
0000
0100
1000
0001
0000
0001
1000
,
0100
0000
0010
0100
0000
0000
0010
0100
0000
0000
0010
0001
1000
0000
1000
0001
,
0010
0000
0100
1000
0000
0000
0100
1000
0000
0000
0100
1000
0010
0000
0010
1000
,
0100
0000
0010
0001
0000
0000
0010
0001
0000
0000
0010
0001
0100
0000
0100
0001
,
0010
0000
0100
0000
1000
0000
0001
0100
0000
0000
0001
0100
1000
0000
1000
0100
,
0001
0000
1000
0010
0000
0000
1000
0010
0000
0000
1000
0010
0001
0000
0001
0010
,
1000
0100
1000
0100
1000
0100
0010
0002
,
0000
0000
0000
0000
1003
0000
0001
1000
0000
0000
0001
0010
0100
0000
0100
0010
,
0001
0000
0100
0000
0010
0000
1000
0010
0000
0000
0100
0001
1000
0000
1000
0001
,
0100
0000
0010
0100
0000
0000
0001
0100
0000
0000
0010
1000
0001
0000
0001
1000
,
0010
0000
0100
0001
0000
0000
0100
0010
0000
0000
0100
0001
0010
0000
0010
0001
,
0100
0000
0010
1000
0000
0000
0010
0100
0000
0000
0010
1000
0100
0000
0100
1000
,
0010
0000
0100
0000
0001
0000
1000
0010
0000
0000
1000
0100
0001
0000
0001
0100
,
1000
0000
0001
0010
0000
0000
0001
0100
0000
0000
0001
0010
1000
0000
1000
0010
,
0002
0000
0000
0000
1003
1000
1001
0000
,
1000
0000
0000
1000
0000
0000
1000
0000
0001
0000
0000
0001
0000
0000
0001
0000
,
0010
0000
0000
0010
0000
0000
0010
0000
0100
0000
1000
0000
0010
0000
1000
0000
,
0001
0000
0000
0001
0000
0000
0001
0000
1000
0000
0000
1000
0000
0000
1000
0000
,
0010
0000
0000
0010
0000
0000
0010
0000
0100
0000
0001
0000
0010
0000
0001
0000
,
1000
0010
0010
0100
0100
0001
0001
1000
,
1000
0100
0100
0010
0010
0001
0001
1000
,
1000
0010
0001
0010
1000
0100
0001
0100
,
2000
0000
0000
0000
3001
0001
1001
0000
,
1000
0000
0001
1000
0000
1000
0001
1000
0000
0000
0001
0100
0010
0000
0010
0100
,
0001
0000
0010
0000
0100
0000
0010
0100
0000
0000
0010
0001
1000
0000
1000
0001
,
0010
0000
0100
0010
0000
0010
0100
0010
0000
0000
0100
1000
0001
0000
0001
1000
,
0100
0000
0010
0001
0000
0001
0010
0001
0000
0000
0010
0001
0100
0000
0100
0001
,
0010
0000
0100
1000
0000
1000
0100
1000
0000
0000
0100
1000
0010
0000
0010
1000
,
0100
0000
0010
0000
0001
0000
1000
0010
0000
0000
1000
0010
0001
0000
0001
0010
,
1000
0000
0001
0100
0000
0100
0001
0100
0000
0000
0001
0100
1000
0000
1000
0100
,
0001
0010
0001
0010
0001
0010
0100
2000
,
0000
0000
0000
0000
3001
0000
1000
0001
0000
0000
1000
0100
0010
0000
0010
0100
,
1000
0000
0010
0000
0100
0000
0001
0100
0000
0000
0010
1000
0001
0000
0001
1000
,
0010
0000
0100
0010
0000
0010
1000
0010
0000
0000
0100
0001
1000
0000
1000
0001
,
0100
0000
0010
1000
0000
1000
0010
0100
0000
0000
0010
1000
0100
0000
0100
1000
,
0010
0000
0100
0001
0000
0001
0100
0010
0000
0000
0100
0001
0010
0000
0010
0001
,
0100
0000
0010
0000
1000
0000
0001
0100
0000
0000
0001
0010
1000
0000
1000
0010
,
0001
0000
1000
0100
0000
0100
1000
0010
0000
0000
1000
0100
0001
0000
0001
0100
,
2000
0000
0000
0000
3001
0001
1001
0000
,
1000
0000
0000
0000
;

//---------------dance-single - ----------------
#NOTEDATA:;
#CHARTNAME:;
#CHARTHASH:616176513;
#STEPSTYPE:dance-single;
#BANNER:;
#DESCRIPTION:;
#CHARTSTYLE:;
#DIFFICULTY:Hard;
#METER:16;
#METERF:16.000000;
#LASTSECONDHINT:127.512993;
#RADARVALUES:0.819893,0.830896,0.303625,0.199948,1.158959,775.000000,734.000000,41.000000,27.000000,0.000000,0.000000,0.000000,0.000000,0.000000,0.819893,0.830896,0.303625,0.199948,1.158959,775.000000,734.000000,41.000000,27.000000,0.000000,0.000000,0.000000,0.000000,0.000000;
#CREDIT:Supra G.L.;
#NOTES:
// measure 0
0000
0000
0000
0000
,  // measure 1
0000
0000
0000
0000
,  // measure 2
0000
0000
0000
0000
,  // measure 3
0000
0000
0000
0000
,  // measure 4
1000
0010
1000
0010
1000
0010
0100
0202
,  // measure 5
0003
0310
1000
2200
3300
0220
0330
0022
,  // measure 6
0030
0000
0103
0000
0010
0000
1000
0001
0000
0000
0010
0000
0100
0000
0010
0000
,  // measure 7
0001
0000
0100
0000
0010
0000
1000
0000
0100
0000
1000
0001
0010
0100
1000
0010
,  // measure 8
0100
0001
0100
0001
0100
0001
0010
0120
,  // measure 9
0000
0031
0100
0202
0303
2002
3003
2020
,  // measure 10
3000
0000
0130
0000
0001
0000
0010
0100
0000
0000
1000
0000
0001
0000
1000
0000
,  // measure 11
0100
0000
0000
0010
0000
0000
0001
0000
0000
0100
0000
0000
0010
0000
0000
1000
0100
1000
0100
0000
0000
0100
1000
0100
,  // measure 12
2000
0000
0000
0000
0000
0000
0001
0000
0000
0000
0000
0000
0100
0000
0000
3001
0010
0001
0010
0000
0000
0010
0001
0010
,  // measure 13
0001
0000
0000
0100
0000
0000
0010
0000
0000
1000
0000
0000
0200
0000
0000
0000
0000
0000
0000
0000
0000
0000
0000
0000
1000
0000
0000
0000
0000
0000
0310
0000
0001
0000
0010
0000
0001
0000
0000
0000
0000
0000
0001
0000
0010
0000
0001
0000
,  // measure 14
0020
0000
0000
0000
0000
0000
0100
0000
0000
0000
0000
0000
0001
0000
0000
0130
1000
0100
1000
0000
0000
1000
0100
1000
,  // measure 15
0200
0000
0000
0000
0000
0000
1000
0000
0000
0000
0000
0000
0010
0000
0000
1300
0010
1000
0010
0000
0000
0010
1000
0010
,  // measure 16
2000
0000
0000
0000
0000
0000
0001
0000
0000
0000
0000
0000
0010
0000
0000
3001
0100
0001
0100
0000
0000
0100
0001
0100
,  // measure 17
0001
0000
0000
0010
0000
0000
0100
0000
0000
1000
0000
0000
0020
0000
0000
0000
0000
0000
0000
0000
0000
0000
0000
0000
1000
0000
0000
0000
0000
0000
0130
0000
0001
0000
0100
0000
0001
0000
0000
0000
0000
0000
0001
0000
0100
0000
0001
0000
,  // measure 18
0200
0000
0000
0000
0000
0000
0010
0000
0000
0000
0000
0000
0001
0000
0000
0310
1000
0010
1000
0000
0000
1000
0010
1000
,  // measure 19
0020
0000
0000
0000
0000
0000
0000
0000
0000
0000
0000
0000
0000
0000
0000
1030
0100
0010
0001
0000
0000
0001
0010
0100
,  // measure 20
1000
0000
0000
0000
0110
0000
0000
0000
1001
0000
0000
1100
0000
0000
1100
0000
,  // measure 21
1001
0000
0000
0101
0000
0000
0101
0000
1001
0000
0000
1010
0000
0000
1010
0000
,  // measure 22
1001
0000
0000
0000
0110
0000
0000
0000
1001
0000
0000
0011
0000
0000
0011
0000
,  // measure 23
1001
0000
0000
1010
0000
0000
1010
0000
1001
0000
0000
0101
0000
0000
0101
0000
,  // measure 24
1000
0100
1000
0010
0100
0001
0010
0001
,  // measure 25
0100
0010
1000
0001
0010
0100
0010
0001
,  // measure 26
1000
0010
1000
0010
0100
0001
0100
0001
1000
0100
1000
0100
0010
0001
0010
0001
,  // measure 27
2000
0000
0000
0000
3001
0001
1001
0000
,  // measure 28
1000
0000
0000
0001
0000
0000
0100
0000
0000
0001
0000
0000
0000
0000
0000
1000
0000
0000
0010
0000
0000
1000
0000
0000
0000
0000
0000
0000
0000
0000
0001
0000
0010
0000
0001
0000
0010
0000
0000
0000
0000
0000
0010
0000
0001
0000
0010
0000
,  // measure 29
0001
0000
0000
0100
0000
0000
0010
0000
0000
1000
0000
0000
0000
0000
0000
0100
0000
0000
1000
0000
0000
0100
0000
0000
0000
0000
0000
0000
0000
0000
0010
0000
0001
0000
0010
0000
0001
0000
0000
0000
0000
0000
0001
0000
0010
0000
0001
0000
,  // measure 30
0010
0000
0000
0100
0000
0000
1000
0000
0000
0100
0000
0000
0000
0000
0000
1000
0000
0000
0010
0000
0000
1000
0000
0000
0000
0000
0000
0000
0000
0000
0100
0000
1000
0000
0100
0000
1000
0000
0000
0000
0000
0000
1000
0000
0100
0000
1000
0000
,  // measure 31
0100
0000
0000
0010
0000
0000
0001
0000
0000
0010
0000
0000
0000
0000
0000
0001
0000
0000
0100
0000
0000
0001
0000
0000
0000
0000
0000
0000
0000
0000
1000
0000
0010
0000
1000
0000
0010
0000
0000
0000
0000
0000
0010
0000
1000
0000
0010
0000
,  // measure 32
1000
0000
0000
0001
0000
0000
0010
0000
0000
0001
0000
0000
0000
0000
0000
1000
0000
0000
0100
0000
0000
1000
0000
0000
0000
0000
0000
0000
0000
0000
0001
0000
0100
0000
0001
0000
0100
0000
0000
0000
0000
0000
0100
0000
0001
0000
0100
0000
,  // measure 33
0001
0000
0000
0010
0000
0000
0100
0000
0000
1000
0000
0000
0000
0000
0000
0010
0000
0000
1000
0000
0000
0010
0000
0000
0000
0000
0000
0000
0000
0000
0100
0000
0001
0000
0100
0000
0001
0000
0000
0000
0000
0000
0001
0000
0100
0000
0001
0000
,  // measure 34
0100
0000
0000
0010
0000
0000
1000
0000
0000
0010
0000
0000
0000
0000
0000
1000
0000
0000
0100
0000
0000
1000
0000
0000
0000
0000
0000
0000
0000
0000
0010
0000
1000
0000
0010
0000
1000
0000
0000
0000
0000
0000
1000
0000
0010
0000
1000
0000
,  // measure 35
0010
0100
0010
0100
0010
0100
0001
2000
,  // measure 36
3001
0000
0000
1000
0000
0000
0001
0000
0000
1000
0000
0000
0000
0000
0000
0100
0000
0000
0010
0000
0000
0001
0000
0000
0000
0000
0000
0000
0000
0000
1000
0000
0010
0000
1000
0000
0010
0000
0000
0000
0000
0000
0010
0000
1000
0000
0010
0000
,  // measure 37
1000
0000
0000
0100
0000
0000
0010
0000
0000
0001
0000
0000
0000
0000
0000
0010
0000
0000
0100
0000
0000
1000
0000
0000
0000
0000
0000
0000
0000
0000
0010
0000
1000
0000
0010
0000
1000
0000
0000
0000
0000
0000
1000
0000
0010
0000
1000
0000
,  // measure 38
0010
0000
0000
0100
0000
0000
0001
0000
0000
1000
0000
0000
0000
0000
0000
0100
0000
0000
1000
0000
0000
0001
0000
0000
0000
0000
0000
0000
0000
0000
0100
0000
0001
0000
0100
0000
0001
0000
0000
0000
0000
0000
0001
0000
0100
0000
0001
0000
,  // measure 39
0100
0000
0000
0010
0000
0000
1000
0000
0000
0001
0000
0000
0000
0000
0000
0010
0000
0000
0001
0000
0000
1000
0000
0000
0000
0000
0000
0000
0000
0000
0001
0000
0010
0000
0001
0000
0010
0000
0000
0000
0000
0000
0010
0000
0001
0000
0010
0000
,  // measure 40
0001
0000
0000
0100
0000
0000
0010
0000
0000
1000
0000
0000
0000
0000
0000
0010
0000
0000
0100
0000
0000
0001
0000
0000
0000
0000
0000
0000
0000
0000
1000
0000
0100
0000
1000
0000
0100
0000
0000
0000
0000
0000
0100
0000
1000
0000
0100
0000
,  // measure 41
1000
0000
0000
0010
0000
0000
0100
0000
0000
0001
0000
0000
0000
0000
0000
0100
0000
0000
0010
0000
0000
1000
0000
0000
0000
0000
0000
0000
0000
0000
0100
0000
1000
0000
0100
0000
1000
0000
0000
0000
0000
0000
1000
0000
0100
0000
1000
0000
,  // measure 42
0100
0000
0000
0010
0000
0000
0001
0000
0000
1000
0000
0000
0000
0000
0000
0010
0000
0000
1000
0000
0000
0001
0000
0000
0000
0000
0000
0000
0000
0000
0010
0000
0001
0000
0010
0000
0001
0000
0000
0000
0000
0000
0001
0000
0010
0000
0001
0000
,  // measure 43
0010
0100
0010
0100
0010
0100
0010
0100
1000
0000
1000
0000
1001
0000
0000
0000
,  // measure 44
1010
0000
0000
1000
0000
0000
0001
0000
0011
0000
0000
0010
0000
0000
0100
0000
,  // measure 45
1100
0000
0000
1000
0000
0000
0001
0000
0011
0000
0001
0000
1000
0000
0100
0000
,  // measure 46
1100
0000
0000
0100
0000
0000
0010
0000
0011
0000
0000
0001
0000
0000
1000
0000
,  // measure 47
1010
0000
0000
0010
0000
0000
0100
0000
0101
0000
0100
0000
0010
0000
1000
0000
,  // measure 48
0001
0000
0010
0001
0010
0000
0100
0010
0100
0000
1000
0100
1000
0000
0010
1000
,  // measure 49
0010
0000
0100
0001
0100
0000
0001
0010
0001
0000
1000
0100
1000
0000
0001
1000
,  // measure 50
0001
0100
0010
0100
0001
1000
0100
0010
0100
1000
0001
0100
0010
1000
0100
0010
,  // measure 51
0002
0000
0000
0000
1003
1000
1001
0000
,  // measure 52
0001
0000
0000
1000
0000
0000
0001
0000
0000
1000
0000
0000
0010
0000
0000
1000
0000
0000
0001
0000
0000
1000
0000
0000
0001
0000
0000
0000
0000
0000
1000
0000
0100
0000
1000
0000
0100
0000
0000
0000
0000
0000
0100
0000
1000
0000
0100
0000
,  // measure 53
1000
0000
0000
0010
0000
0000
0100
0000
0000
0001
0000
0000
0010
0000
0000
0001
0000
0000
0010
0000
0000
0001
0000
0000
0010
0000
0000
0000
0000
0000
0100
0000
1000
0000
0100
0000
1000
0000
0000
0000
0000
0000
1000
0000
0100
0000
1000
0000
,  // measure 54
0100
0000
0000
0010
0000
0000
0100
0000
0000
0010
0000
0000
0001
0000
0000
0010
0000
0000
0100
0000
0000
0010
0000
0000
0100
0000
0000
0000
0000
0000
0010
0000
0001
0000
0010
0000
0001
0000
0000
0000
0000
0000
0001
0000
0010
0000
0001
0000
,  // measure 55
0010
0000
0000
0100
0000
0000
0010
0000
0000
0100
0000
0000
1000
0000
0000
0100
0000
0000
0010
0000
0000
0100
0000
0000
0010
0000
0000
0000
0000
0000
0001
0000
0100
0000
0001
0000
0100
0000
0000
0000
0000
0000
0100
0000
0001
0000
0100
0000
,  // measure 56
0001
0000
0000
1000
0000
0000
0001
0000
0000
1000
0000
0000
0100
0000
0000
1000
0000
0000
0001
0000
0000
1000
0000
0000
0001
0000
0000
0000
0000
0000
1000
0000
0010
0000
1000
0000
0010
0000
0000
0000
0000
0000
0010
0000
1000
0000
0010
0000
,  // measure 57
1000
0000
0000
0100
0000
0000
0010
0000
0000
0001
0000
0000
0100
0000
0000
0001
0000
0000
0100
0000
0000
0001
0000
0000
0100
0000
0000
0000
0000
0000
0010
0000
1000
0000
0010
0000
1000
0000
0000
0000
0000
0000
1000
0000
0010
0000
1000
0000
,  // measure 58
0010
0000
0000
0100
0000
0000
0010
0000
0000
0100
0000
0000
0001
0000
0000
0100
0000
0000
0010
0000
0000
0100
0000
0000
0010
0000
0000
0000
0000
0000
0100
0000
0001
0000
0100
0000
0001
0000
0000
0000
0000
0000
0001
0000
0100
0000
0001
0000
,  // measure 59
0100
0010
0100
0010
0100
0010
1000
0002
,  // measure 60
1003
0000
0000
0001
0000
0000
1000
0000
0000
0001
0000
0000
1000
0000
0000
0001
0000
0000
0010
0000
0000
0001
0000
0000
1000
0000
0000
0000
0000
0000
0001
0000
0100
0000
0001
0000
0100
0000
0000
0000
0000
0000
0100
0000
0001
0000
0100
0000
,  // measure 61
0001
0000
0000
0010
0000
0000
0100
0000
0000
1000
0000
0000
0010
0000
0000
1000
0000
0000
0001
0000
0000
1000
0000
0000
0010
0000
0000
0000
0000
0000
0100
0000
0001
0000
0100
0000
0001
0000
0000
0000
0000
0000
0001
0000
0100
0000
0001
0000
,  // measure 62
0100
0000
0000
0010
0000
0000
1000
0000
0000
0010
0000
0000
0100
0000
0000
0010
0000
0000
1000
0000
0000
0010
0000
0000
0100
0000
0000
0000
0000
0000
0010
0000
1000
0000
0010
0000
1000
0000
0000
0000
0000
0000
1000
0000
0010
0000
1000
0000
,  // measure 63
0010
0000
0000
0100
0000
0000
0001
0000
0000
0100
0000
0000
0010
0000
0000
0100
0000
0000
0001
0000
0000
0100
0000
0000
0010
0000
0000
0000
0000
0000
1000
0000
0100
0000
1000
0000
0100
0000
0000
0000
0000
0000
0100
0000
1000
0000
0100
0000
,  // measure 64
1000
0000
0000
0001
0000
0000
0100
0000
0000
0001
0000
0000
1000
0000
0000
0001
0000
0000
0100
0000
0000
0001
0000
0000
1000
0000
0000
0000
0000
0000
0001
0000
0010
0000
0001
0000
0010
0000
0000
0000
0000
0000
0010
0000
0001
0000
0010
0000
,  // measure 65
0001
0000
0000
0100
0000
0000
0010
0000
0000
1000
0000
0000
0100
0000
0000
1000
0000
0000
0001
0000
0000
1000
0000
0000
0100
0000
0000
0000
0000
0000
0010
0000
0001
0000
0010
0000
0001
0000
0000
0000
0000
0000
0001
0000
0010
0000
0001
0000
,  // measure 66
0010
0000
0000
0100
0000
0000
1000
0000
0000
0100
0000
0000
0010
0000
0000
0100
0000
0000
1000
0000
0000
0100
0000
0000
0010
0000
0000
0000
0000
0000
0100
0000
1000
0000
0100
0000
1000
0000
0000
0000
0000
0000
1000
0000
0100
0000
1000
0000
,  // measure 67
0100
0010
0100
0010
0100
0010
0100
0010
0001
0000
0001
0000
1001
0000
0000
0000
,  // measure 68
1000
0000
0000
0000
;

//---------------kb4-single - ----------------
#NOTEDATA:;
#CHARTNAME:;
#CHARTHASH:228328351;
#STEPSTYPE:kb4-single;
#BANNER:;
#DESCRIPTION:;
#CHARTSTYLE:;
#DIFFICULTY:Hard;
#METER:16;
#METERF:0.000000;
#LASTSECONDHINT:127.512993;
#RADARVALUES:0.819893,0.830896,0.303625,0.199948,1.158959,775.000000,734.000000,41.000000,27.000000,0.000000,0.000000,0.000000,0.000000,0.000000,0.819893,0.830896,0.303625,0.199948,1.158959,775.000000,734.000000,41.000000,27.000000,0.000000,0.000000,0.000000,0.000000,0.000000;
#CREDIT:Supra G.L.;
#NOTES:
0000
0000
0000
0000
,
0000
0000
0000
0000
,
0000
0000
0000
0000
,
0000
0000
0000
0000
,
1000
0010
1000
0010
1000
0010
0100
0202
,
0003
0310
1000
2200
3300
0220
0330
0022
,
0030
0000
0103
0000
0010
0000
1000
0001
0000
0000
0010
0000
0100
0000
0010
0000
,
0001
0000
0100
0000
0010
0000
1000
0000
0100
0000
1000
0001
0010
0100
1000
0010
,
0100
0001
0100
0001
0100
0001
0010
0120
,
0000
0031
0100
0202
0303
2002
3003
2020
,
3000
0000
0130
0000
0001
0000
0010
0100
0000
0000
1000
0000
0001
0000
1000
0000
,
0100
0000
0000
0010
0000
0000
0001
0000
0000
0100
0000
0000
0010
0000
0000
1000
0100
1000
0100
0000
0000
0100
1000
0100
,
2000
0000
0000
0000
0000
0000
0001
0000
0000
0000
0000
0000
0100
0000
0000
3001
0010
0001
0010
0000
0000
0010
0001
0010
,
0001
0000
0000
0100
0000
0000
0010
0000
0000
1000
0000
0000
0200
0000
0000
0000
0000
0000
0000
0000
0000
0000
0000
0000
1000
0000
0000
0000
0000
0000
0310
0000
0001
0000
0010
0000
0001
0000
0000
0000
0000
0000
0001
0000
0010
0000
0001
0000
,
0020
0000
0000
0000
0000
0000
0100
0000
0000
0000
0000
0000
0001
0000
0000
0130
1000
0100
1000
0000
0000
1000
0100
1000
,
0200
0000
0000
0000
0000
0000
1000
0000
0000
0000
0000
0000
0010
0000
0000
1300
0010
1000
0010
0000
0000
0010
1000
0010
,
2000
0000
0000
0000
0000
0000
0001
0000
0000
0000
0000
0000
0010
0000
0000
3001
0100
0001
0100
0000
0000
0100
0001
0100
,
0001
0000
0000
0010
0000
0000
0100
0000
0000
1000
0000
0000
0020
0000
0000
0000
0000
0000
0000
0000
0000
0000
0000
0000
1000
0000
0000
0000
0000
0000
0130
0000
0001
0000
0100
0000
0001
0000
0000
0000
0000
0000
0001
0000
0100
0000
0001
0000
,
0200
0000
0000
0000
0000
0000
0010
0000
0000
0000
0000
0000
0001
0000
0000
0310
1000
0010
1000
0000
0000
1000
0010
1000
,
0020
0000
0000
0000
0000
0000
0000
0000
0000
0000
0000
0000
0000
0000
0000
1030
0100
0010
0001
0000
0000
0001
0010
0100
,
1000
0000
0000
0000
0110
0000
0000
0000
1001
0000
0000
1100
0000
0000
1100
0000
,
1001
0000
0000
0101
0000
0000
0101
0000
1001
0000
0000
1010
0000
0000
1010
0000
,
1001
0000
0000
0000
0110
0000
0000
0000
1001
0000
0000
0011
0000
0000
0011
0000
,
1001
0000
0000
1010
0000
0000
1010
0000
1001
0000
0000
0101
0000
0000
0101
0000
,
1000
0100
1000
0010
0100
0001
0010
0001
,
0100
0010
1000
0001
0010
0100
0010
0001
,
1000
0010
1000
0010
0100
0001
0100
0001
1000
0100
1000
0100
0010
0001
0010
0001
,
2000
0000
0000
0000
3001
0001
1001
0000
,
1000
0000
0000
0001
0000
0000
0100
0000
0000
0001
0000
0000
0000
0000
0000
1000
0000
0000
0010
0000
0000
1000
0000
0000
0000
0000
0000
0000
0000
0000
0001
0000
0010
0000
0001
0000
0010
0000
0000
0000
0000
0000
0010
0000
0001
0000
0010
0000
,
0001
0000
0000
0100
0000
0000
0010
0000
0000
1000
0000
0000
0000
0000
0000
0100
0000
0000
1000
0000
0000
0100
0000
0000
0000
0000
0000
0000
0000
0000
0010
0000
0001
0000
0010
0000
0001
0000
0000
0000
0000
0000
0001
0000
0010
0000
0001
0000
,
0010
0000
0000
0100
0000
0000
1000
0000
0000
0100
0000
0000
0000
0000
0000
1000
0000
0000
0010
0000
0000
1000
0000
0000
0000
0000
0000
0000
0000
0000
0100
0000
1000
0000
0100
0000
1000
0000
0000
0000
0000
0000
1000
0000
0100
0000
1000
0000
,
0100
0000
0000
0010
0000
0000
0001
0000
0000
0010
0000
0000
0000
0000
0000
0001
0000
0000
0100
0000
0000
0001
0000
0000
0000
0000
0000
0000
0000
0000
1000
0000
0010
0000
1000
0000
0010
0000
0000
0000
0000
0000
0010
0000
1000
0000
0010
0000
,
1000
0000
0000
0001
0000
0000
0010
0000
0000
0001
0000
0000
0000
0000
0000
1000
0000
0000
0100
0000
0000
1000
0000
0000
0000
0000
0000
0000
0000
0000
0001
0000
0100
0000
0001
0000
0100
0000
0000
0000
0000
0000
0100
0000
0001
0000
0100
0000
,
0001
0000
0000
0010
0000
0000
0100
0000
0000
1000
0000
0000
0000
0000
0000
0010
0000
0000
1000
0000
0000
0010
0000
0000
0000
0000
0000
0000
0000
0000
0100
0000
0001
0000
0100
0000
0001
0000
0000
0000
0000
0000
0001
0000
0100
0000
0001
0000
,
0100
0000
0000
0010
0000
0000
1000
0000
0000
0010
0000
0000
0000
0000
0000
1000
0000
0000
0100
0000
0000
1000
0000
0000
0000
0000
0000
0000
0000
0000
0010
0000
1000
0000
0010
0000
1000
0000
0000
0000
0000
0000
1000
0000
0010
0000
1000
0000
,
0010
0100
0010
0100
0010
0100
0001
2000
,
3001
0000
0000
1000
0000
0000
0001
0000
0000
1000
0000
0000
0000
0000
0000
0100
0000
0000
0010
0000
0000
0001
0000
0000
0000
0000
0000
0000
0000
0000
1000
0000
0010
0000
1000
0000
0010
0000
0000
0000
0000
0000
0010
0000
1000
0000
0010
0000
,
1000
0000
0000
0100
0000
0000
0010
0000
0000
0001
0000
0000
0000
0000
0000
0010
0000
0000
0100
0000
0000
1000
0000
0000
0000
0000
0000
0000
0000
0000
0010
0000
1000
0000
0010
0000
1000
0000
0000
0000
0000
0000
1000
0000
0010
0000
1000
0000
,
0010
0000
0000
0100
0000
0000
0001
0000
0000
1000
0000
0000
0000
0000
0000
0100
0000
0000
1000
0000
0000
0001
0000
0000
0000
0000
0000
0000
0000
0000
0100
0000
0001
0000
0100
0000
0001
0000
0000
0000
0000
0000
0001
0000
0100
0000
0001
0000
,
0100
0000
0000
0010
0000
0000
1000
0000
0000
0001
0000
0000
0000
0000
0000
0010
0000
0000
0001
0000
0000
1000
0000
0000
0000
0000
0000
0000
0000
0000
0001
0000
0010
0000
0001
0000
0010
0000
0000
0000
0000
0000
0010
0000
0001
0000
0010
0000
,
0001
0000
0000
0100
0000
0000
0010
0000
0000
1000
0000
0000
0000
0000
0000
0010
0000
0000
0100
0000
0000
0001
0000
0000
0000
0000
0000
0000
0000
0000
1000
0000
0100
0000
1000
0000
0100
0000
0000
0000
0000
0000
0100
0000
1000
0000
0100
0000
,
1000
0000
0000
0010
0000
0000
0100
0000
0000
0001
0000
0000
0000
0000
0000
0100
0000
0000
0010
0000
0000
1000
0000
0000
0000
0000
0000
0000
0000
0000
0100
0000
1000
0000
0100
0000
1000
0000
0000
0000
0000
0000
1000
0000
0100
0000
1000
0000
,
0100
0000
0000
0010
0000
0000
0001
0000
0000
1000
0000
0000
0000
0000
0000
0010
0000
0000
1000
0000
0000
0001
0000
0000
0000
0000
0000
0000
0000
0000
0010
0000
0001
0000
0010
0000
0001
0000
0000
0000
0000
0000
0001
0000
0010
0000
0001
0000
,
0010
0100
0010
0100
0010
0100
0010
0100
1000
0000
1000
0000
1001
0000
0000
0000
,
1010
0000
0000
1000
0000
0000
0001
0000
0011
0000
0000
0010
0000
0000
0100
0000
,
1100
0000
0000
1000
0000
0000
0001
0000
0011
0000
0001
0000
1000
0000
0100
0000
,
1100
0000
0000
0100
0000
0000
0010
0000
0011
0000
0000
0001
0000
0000
1000
0000
,
1010
0000
0000
0010
0000
0000
0100
0000
0101
0000
0100
0000
0010
0000
1000
0000
,
0001
0000
1000
0001
1000
0000
0001
1000
0001
0000
1000
0001
1000
0000
0001
1000
,
0001
0000
1000
0001
1000
0000
0001
1000
0001
0000
1000
0001
1000
0000
0001
1000
,
0001
1000
0001
1000
0001
1000
0001
1000
0001
1000
0001
1000
0001
1000
0001
1000
,
0002
0000
0000
0000
1003
1000
1001
0000
,
0001
0000
0000
1000
0000
0000
0001
0000
0000
1000
0000
0000
0001
0000
0000
1000
0000
0000
0001
0000
0000
1000
0000
0000
0001
0000
0000
0000
0000
0000
1000
0000
0001
0000
1000
0000
0001
0000
0000
0000
0000
0000
0001
0000
1000
0000
0001
0000
,
1000
0000
0000
0001
0000
0000
1000
0000
0000
0001
0000
0000
1000
0000
0000
0001
0000
0000
1000
0000
0000
0001
0000
0000
1000
0000
0000
0000
0000
0000
0001
0000
1000
0000
0001
0000
1000
0000
0000
0000
0000
0000
1000
0000
0001
0000
1000
0000
,
0001
0000
0000
1000
0000
0000
0001
0000
0000
1000
0000
0000
0001
0000
0000
1000
0000
0000
0001
0000
0000
1000
0000
0000
0001
0000
0000
0000
0000
0000
1000
0000
0001
0000
1000
0000
0001
0000
0000
0000
0000
0000
0001
0000
1000
0000
0001
0000
,
1000
0000
0000
0001
0000
0000
1000
0000
0000
0001
0000
0000
1000
0000
0000
0001
0000
0000
1000
0000
0000
0001
0000
0000
1000
0000
0000
0000
0000
0000
0001
0000
1000
0000
0001
0000
1000
0000
0000
0000
0000
0000
1000
0000
0001
0000
1000
0000
,
0001
0000
0000
1000
0000
0000
0001
0000
0000
1000
0000
0000
0001
0000
0000
1000
0000
0000
0001
0000
0000
1000
0000
0000
0001
0000
0000
0000
0000
0000
1000
0000
0001
0000
1000
0000
0001
0000
0000
0000
0000
0000
0001
0000
1000
0000
0001
0000
,
1000
0000
0000
0001
0000
0000
1000
0000
0000
0001
0000
0000
1000
0000
0000
0001
0000
0000
1000
0000
0000
0001
0000
0000
1000
0000
0000
0000
0000
0000
0001
0000
1000
0000
0001
0000
1000
0000
0000
0000
0000
0000
1000
0000
0001
0000
1000
0000
,
0001
0000
0000
1000
0000
0000
0001
0000
0000
1000
0000
0000
0001
0000
0000
1000
0000
0000
0001
0000
0000
1000
0000
0000
0001
0000
0000
0000
0000
0000
1000
0000
0001
0000
1000
0000
0001
0000
0000
0000
0000
0000
0001
0000
1000
0000
0001
0000
,
1000
0001
1000
0001
1000
0001
1000
0002
,
1003
0000
0000
0001
0000
0000
1000
0000
0000
0001
0000
0000
1000
0000
0000
0001
0000
0000
1000
0000
0000
0001
0000
0000
1000
0000
0000
0000
0000
0000
0001
0000
1000
0000
0001
0000
1000
0000
0000
0000
0000
0000
1000
0000
0001
0000
1000
0000
,
0001
0000
0000
1000
0000
0000
0001
0000
0000
1000
0000
0000
0001
0000
0000
1000
0000
0000
0001
0000
0000
1000
0000
0000
0001
0000
0000
0000
0000
0000
1000
0000
0001
0000
1000
0000
0001
0000
0000
0000
0000
0000
0001
0000
1000
0000
0001
0000
,
1000
0000
0000
0001
0000
0000
1000
0000
0000
0001
0000
0000
1000
0000
0000
0001
0000
0000
1000
0000
0000
0001
0000
0000
1000
0000
0000
0000
0000
0000
0001
0000
1000
0000
0001
0000
1000
0000
0000
0000
0000
0000
1000
0000
0001
0000
1000
0000
,
0001
0000
0000
1000
0000
0000
0001
0000
0000
1000
0000
0000
0001
0000
0000
1000
0000
0000
0001
0000
0000
1000
0000
0000
0001
0000
0000
0000
0000
0000
1000
0000
0001
0000
1000
0000
0001
0000
0000
0000
0000
0000
0001
0000
1000
0000
0001
0000
,
1000
0000
0000
0001
0000
0000
1000
0000
0000
0001
0000
0000
1000
0000
0000
0001
0000
0000
1000
0000
0000
0001
0000
0000
1000
0000
0000
0000
0000
0000
0001
0000
1000
0000
0001
0000
1000
0000
0000
0000
0000
0000
1000
0000
0001
0000
1000
0000
,
0001
0000
0000
1000
0000
0000
0001
0000
0000
1000
0000
0000
0001
0000
0000
1000
0000
0000
0001
0000
0000
1000
0000
0000
0001
0000
0000
0000
0000
0000
1000
0000
0001
0000
1000
0000
0001
0000
0000
0000
0000
0000
0001
0000
1000
0000
0001
0000
,
1000
0000
0000
0001
0000
0000
1000
0000
0000
0001
0000
0000
1000
0000
0000
0001
0000
0000
1000
0000
0000
0001
0000
0000
1000
0000
0000
0000
0000
0000
0001
0000
1000
0000
0001
0000
1000
0000
0000
0000
0000
0000
1000
0000
0001
0000
1000
0000
,
0001
1000
0001
1000
0001
1000
0001
1000
0001
0000
0001
0000
1001
0000
0000
0000
,
1000
0000
0000
0000
;
