#VERSION:0.83;
#TITLE:幻想系世界修復少女;
#SUBTITLE:(Supra's Edit);
#ARTIST:Last Note.;
#TITLETRANSLIT:Gensoukei sekai shuufuku shoujo;
#SUBTITLETRANSLIT:;
#ARTISTTRANSLIT:;
#GENRE:;
#ORIGIN:;
#CREDIT:;
#BANNER:Gensoukei sekai shuufuku shoujo (Supra's Edit).png;
#BACKGROUND:Gensoukei sekai shuufuku shoujo (Supra's Edit)-bg.png;
#PREVIEWVID:;
#JACKET:Gensoukei sekai shuufuku shoujo (Supra's Edit)-jacket.png;
#CDIMAGE:;
#DISCIMAGE:;
#LYRICSPATH:;
#CDTITLE:cdtitle.png;
#MUSIC:Gensoukei sekai shuufuku shoujo (Supra's Edit).ogg;
#OFFSET:0.000000;
#SAMPLESTART:60.932999;
#SAMPLELENGTH:15.000000;
#SELECTABLE:YES;
#BPMS:0.000=193.000;
#STOPS:;
#DELAYS:;
#WARPS:;
#TIMESIGNATURES:0.000=4=4;
#TICKCOUNTS:0.000=4;
#COMBOS:0.000=1;
#SPEEDS:0.000=1.000=0.000=0;
#SCROLLS:0.000=1.000;
#FAKES:;
#LABELS:0.000=Song Start;
#BGCHANGES:2.500=Gensoukei sekai shuufuku shoujo (Supra's Edit).avi=1.000=0=0=0=StretchNoLoop====,
99999=-nosongbg-=1.000=0=0=0 // don't automatically add -songbackground-
;
#KEYSOUNDS:;
#ATTACKS:
;

//---------------dance-single - ----------------
#NOTEDATA:;
#CHARTNAME:;
#STEPSTYPE:dance-single;
#DESCRIPTION:;
#CHARTSTYLE:;
#DIFFICULTY:Beginner;
#METER:3;
#RADARVALUES:0.157418,0.226341,0.000000,0.000000,0.000000,111.000000,111.000000,0.000000,0.000000,0.000000,0.000000,0.000000,0.000000,0.000000,0.157418,0.226341,0.000000,0.000000,0.000000,111.000000,111.000000,0.000000,0.000000,0.000000,0.000000,0.000000,0.000000,0.000000;
#CREDIT:;
#NOTES:
0000
0000
0000
0000
,
0000
0000
0000
0000
,
0000
0000
0000
0000
,
0000
0000
0000
0000
,
0000
0000
0000
0000
,
1000
0000
0000
0000
,
1000
0000
0000
0000
,
0001
0000
0000
0000
,
0100
0000
0000
0000
,
1000
0000
1000
0000
,
0001
0000
0000
0000
,
0001
0000
0001
0000
,
1000
0000
0000
0000
,
1000
0000
1000
0000
,
0001
0000
0000
0000
,
0001
0000
0010
0000
,
0100
0000
0000
0000
,
1000
0000
0000
0000
,
1000
0000
1000
0000
,
0001
0000
0000
0000
,
0001
0000
0001
0000
,
0100
0000
0000
0000
,
0100
0000
0100
0000
,
0010
0000
0000
0000
,
0010
0010
0010
0000
,
1000
0000
0000
0000
,
0100
0000
1000
0000
,
0001
0000
0000
0000
,
0100
0000
0001
0000
,
1000
0000
0000
0000
,
0100
0000
0010
0000
,
0001
0000
0001
0000
,
1000
1000
1000
0000
,
0001
0000
0000
0000
,
0001
0000
0000
0000
,
1000
0000
0010
0000
,
1000
0000
1000
0000
,
0001
0000
0000
0000
,
0001
0000
0000
0000
,
1000
0000
0000
0000
,
0100
0000
0100
0000
,
1000
0000
0000
0000
,
1000
0000
0000
0000
,
0010
0000
0010
0000
,
1000
0000
0010
0000
,
1000
0000
0001
0000
,
1000
0000
0001
0000
,
1000
0000
0100
0000
,
0010
0000
0000
0000
,
0001
0000
1000
0000
,
0001
0000
1000
0000
,
0001
0000
0001
0000
,
0100
0100
0100
0000
,
0001
0000
0010
0000
,
0100
0000
0000
0000
,
1000
0000
0100
0000
,
0010
0000
0000
0000
,
0001
0000
1000
0000
,
0001
0000
1000
0000
,
0001
0000
0000
0000
,
0100
0000
0000
0000
,
0100
0000
0100
0000
,
0001
0000
0100
0000
,
0001
0000
0000
0000
,
1000
0000
0000
0000
,
1000
0000
1000
0000
,
0001
0000
0000
0000
,
0001
0000
0001
0000
,
1000
0000
0000
0000
,
1000
0000
1000
0000
,
0001
0000
0000
0000
,
0001
0000
0010
0000
,
0100
0000
0000
0000
,
1000
0000
0000
0000
,
1000
0000
0000
0000
,
0100
0000
0010
0000
,
0001
0000
0000
0000
;

//---------------dance-single - ----------------
#NOTEDATA:;
#CHARTNAME:;
#STEPSTYPE:dance-single;
#DESCRIPTION:;
#CHARTSTYLE:;
#DIFFICULTY:Easy;
#METER:6;
#RADARVALUES:0.317671,0.390885,0.069491,0.049636,0.000000,224.000000,217.000000,7.000000,5.000000,0.000000,0.000000,0.000000,0.000000,0.000000,0.317671,0.390885,0.069491,0.049636,0.000000,224.000000,217.000000,7.000000,5.000000,0.000000,0.000000,0.000000,0.000000,0.000000;
#CREDIT:;
#NOTES:
0000
0000
0000
0000
,
0000
0000
0000
0000
,
0000
0000
0000
0000
,
0000
0000
0000
0000
,
0000
0000
0000
0000
,
0001
0001
0100
0000
,
1000
1000
0100
0000
,
0001
0001
1000
1000
,
0000
0100
0100
0100
,
0000
0001
0001
0000
,
1000
0001
1000
0001
,
0000
1000
1000
0000
,
0001
1000
0001
1000
,
0000
0001
0001
0000
,
0100
0010
0100
0010
,
1000
1000
0001
0001
,
1001
0000
1001
0000
,
0000
0001
0100
0100
,
0001
0001
1000
0100
,
0000
1000
0100
0100
,
1000
1000
0001
0100
,
0000
0010
0000
0010
,
0000
0100
0000
0100
,
0001
0001
1000
1000
,
0001
0001
1000
1000
,
0000
0001
0010
0010
,
0001
1000
0001
1000
,
0000
1000
0010
0010
,
1000
0001
1000
0001
,
0000
0010
0000
0010
,
0000
0100
0000
0100
,
1000
1000
0001
0001
,
0100
0000
0100
0000
,
0001
0000
0001
0000
,
1000
0000
1000
0000
,
0001
0001
1000
0100
,
1000
1000
1000
1000
,
0001
0000
0001
0000
,
1000
0000
1000
0001
,
0200
0000
0300
0000
,
0100
0000
1001
0000
,
0010
0000
0010
0000
,
0001
0000
0001
0000
,
1000
1000
0001
0100
,
0001
0001
0001
0001
,
0100
0000
0100
0000
,
0100
0000
0100
0000
,
0001
0001
1000
1000
,
2002
0000
3003
0000
,
1000
1000
0001
0001
,
1000
1000
0001
0001
,
1000
1000
0001
0100
,
0001
0001
1000
0100
,
1000
0000
1000
0000
,
0001
0000
0001
0000
,
0100
0100
0001
0100
,
0001
1000
1001
0000
,
0001
0001
1000
1000
,
0001
0001
1000
1000
,
0010
0100
0000
0000
,
0001
1000
0100
0010
,
0001
0001
0010
0010
,
0100
0100
1000
1000
,
0001
1000
0100
1000
,
0001
0200
0000
0300
,
0000
0001
0001
0000
,
1000
0001
1000
0001
,
0000
1000
1000
0000
,
0001
1000
0001
1000
,
0000
0001
0001
0000
,
0100
0010
0100
0010
,
0000
1000
0001
1000
,
1001
0000
1001
0000
,
0001
0100
0001
0000
,
1000
0100
1000
0000
,
0001
0000
0100
0000
0001
0000
1000
0002
,
0000
0000
0000
0000
,
0000
0000
0000
0000
,
0000
0000
0000
0003
;

//---------------dance-single - ----------------
#NOTEDATA:;
#CHARTNAME:;
#STEPSTYPE:dance-single;
#DESCRIPTION:;
#CHARTSTYLE:;
#DIFFICULTY:Medium;
#METER:9;
#RADARVALUES:0.476507,0.547239,0.089345,0.079418,0.000000,336.000000,327.000000,9.000000,8.000000,0.000000,0.000000,0.000000,0.000000,0.000000,0.476507,0.547239,0.089345,0.079418,0.000000,336.000000,327.000000,9.000000,8.000000,0.000000,0.000000,0.000000,0.000000,0.000000;
#CREDIT:;
#NOTES:
0000
0000
0000
0000
,
0000
0000
0000
0000
,
0000
0000
0000
0000
,
0000
0000
0000
0000
,
0000
0000
0000
0000
,
0001
0000
0001
1000
0100
0000
0100
0000
,
1000
0000
1000
0001
0100
0000
0100
0000
,
0010
0000
0001
0000
1000
0001
1000
0100
,
0000
0100
0110
0110
,
0001
0000
0001
0100
0001
0000
0001
0010
,
0001
0000
0001
1000
0001
0000
0100
0000
,
1000
0000
1000
0010
1000
0000
1000
0100
,
1000
0000
1000
0001
1000
0000
0100
0000
,
0001
0000
0001
0100
0010
0000
0010
1000
,
0100
0000
0100
1000
0001
0000
0001
0000
,
1000
0000
1000
0001
0100
0000
0001
1000
,
0100
0000
1000
0001
1000
0000
0001
0000
,
1000
1000
0100
0010
,
0001
0000
0100
0000
0010
1000
0100
0000
,
0001
1000
0100
0001
,
0010
0000
0001
0000
0010
0001
0100
0000
,
0010
0010
1000
0010
,
0100
0000
0001
0000
1000
0010
0100
0000
,
0001
0000
0010
0000
0100
0000
1000
0001
,
0000
0010
0000
0100
0000
1000
0000
1000
,
0001
1000
0010
0100
,
1000
0001
0100
0110
,
0010
0001
0100
1000
,
1000
0010
0001
0101
,
0010
0001
0100
0010
,
1000
0100
0010
0100
,
1000
1000
0001
0001
,
1000
0100
0010
0001
,
1000
0000
0000
0100
0000
0000
0010
0000
,
0000
0010
0001
1000
,
0001
0010
0001
0000
1000
0010
0100
0000
,
0010
1000
0100
0000
0010
0000
0010
0000
,
0001
0000
0000
0010
0000
0000
0100
0000
,
0000
1000
0001
0010
,
0200
0000
0000
0300
,
0110
0000
1001
0000
,
1000
0000
0000
0100
0000
0000
0001
0000
,
0000
1000
0010
0001
,
1000
0100
1000
0000
0001
0010
0100
0000
,
1000
0100
0010
0000
0100
0010
0001
0000
,
0100
0100
0100
0100
,
0100
0010
0100
0000
0100
0010
0100
0010
,
0100
0000
1001
1001
,
2002
0000
3003
0100
,
0001
0100
1000
0000
1000
0100
0001
0000
,
0001
0100
1000
0000
1000
0100
0001
0000
,
0001
0010
0100
1000
,
0001
0000
0001
0000
1000
0100
1000
0100
,
1000
0010
0100
1000
,
0001
0010
0100
0001
,
0001
0100
0001
0100
0001
0000
1000
0100
,
0000
0100
0000
0010
0002
0000
0003
0000
,
0001
0010
1000
0000
1000
0010
0001
0000
,
0001
0010
1000
0000
1000
0010
0001
0000
,
0010
0000
0010
0100
0000
1000
0000
0001
,
0000
1000
1000
0100
,
1000
0000
0100
1000
0000
0100
0000
2000
,
0000
0100
0100
3100
,
1000
0100
1000
0100
1000
0000
1000
0100
,
1000
0010
0200
0000
0000
0000
0300
0000
,
0001
0000
0001
0100
0001
0000
0001
0010
,
0001
0000
0001
1000
0001
0000
0100
0000
,
1000
0000
1000
0010
1000
0000
1000
0100
,
1000
0000
1000
0001
1000
0000
0100
0000
,
0001
0000
0001
0100
0010
0000
0010
1000
,
0100
0000
0100
1000
0001
0000
0001
0000
,
1000
0000
1000
0001
0100
0000
0001
1000
,
0100
0000
1000
0001
1000
0000
0001
0000
,
1000
0000
0100
0000
0100
0000
1000
0001
,
0000
0000
1000
0000
0100
1000
0001
1000
,
0000
0000
1000
0000
0100
0000
2000
0002
,
0000
0000
0000
0000
,
0000
0000
0000
0000
,
0000
0000
0000
3003
;

//---------------dance-single - ----------------
#NOTEDATA:;
#CHARTNAME:;
#STEPSTYPE:dance-single;
#DESCRIPTION:;
#CHARTSTYLE:;
#DIFFICULTY:Hard;
#METER:12;
#RADARVALUES:0.611234,0.664504,0.436798,0.277963,0.000000,431.000000,387.000000,44.000000,28.000000,0.000000,0.000000,0.000000,0.000000,0.000000,0.611234,0.664504,0.436798,0.277963,0.000000,431.000000,387.000000,44.000000,28.000000,0.000000,0.000000,0.000000,0.000000,0.000000;
#CREDIT:;
#NOTES:
0000
0000
0000
0000
,
0000
0000
0000
0000
,
0000
0000
0000
0000
,
0000
0000
0000
0000
,
0000
0000
0000
0000
,
0001
0010
0001
0100
0001
0010
0001
1000
,
0000
1000
0010
1000
0100
1000
0001
1000
,
0010
0100
0010
0001
0010
1000
0010
0200
,
0000
0010
0301
0100
,
0001
0001
0100
0010
0100
0001
0000
0001
,
0010
0100
0000
0001
0100
0010
0001
0000
,
1000
1000
0010
0100
0010
1000
0000
1000
,
0100
0010
0000
1000
0010
0100
1000
0000
,
0010
0010
1000
0100
0010
1000
0000
0010
,
0100
1000
0000
0010
1000
0100
0010
0000
,
0101
0000
0001
0010
0100
0001
0000
0100
,
0010
0001
0000
1000
1010
0000
0110
0000
,
1000
0000
0010
0100
0010
0000
1000
0100
,
1000
0000
0001
0010
0001
0000
0100
0000
,
0001
0000
0100
0010
0100
0000
0001
0010
,
0001
0000
1000
0100
1000
0000
0010
0000
,
1000
0000
1000
0100
0010
0000
0001
0010
,
0100
0000
1000
0010
0100
0000
0010
0000
,
0101
0000
0100
0000
1010
0000
0010
0100
,
0000
0101
0000
0011
0000
1010
0000
0001
,
2000
3020
0032
0023
,
2030
3200
0302
0203
,
0320
0032
0203
0320
,
0032
2003
3002
0013
,
0011
0110
1010
0101
,
0110
0000
1010
0000
0100
0010
1000
0000
,
1001
0000
1001
0000
0001
1000
0001
1000
,
0001
0010
0110
1100
,
2000
0000
0000
3200
0000
0000
0320
0000
,
0000
0000
0031
0000
0010
0001
0010
0000
,
0001
1000
0001
0000
0010
0010
0000
0100
,
0000
0100
0100
0000
1000
0000
1001
0000
,
0002
0000
0000
0023
0000
0000
0230
0000
,
0000
1300
0010
0001
,
1000
0100
0010
0000
0100
0010
0001
0000
,
1000
0100
0001
0000
1000
0001
1000
0000
,
0010
1010
0100
0011
,
0100
1010
0001
0110
,
0001
0010
0100
1000
0010
0100
1000
0001
,
0000
0010
0100
0001
0100
0010
1000
0000
,
1100
0000
0110
0000
0011
0000
0001
0010
,
0000
0010
1100
0000
0001
0010
0001
0000
,
0100
0000
0100
0020
0000
0000
1030
0000
,
1010
0000
1010
0000
0010
1000
0010
1000
,
0001
0100
0001
0100
1000
0100
0010
0001
,
0010
0100
0010
0100
0010
1000
0001
0100
,
0001
0000
0001
0100
0000
0100
0010
1000
,
0100
0100
0001
1000
,
1010
0000
0100
0010
0000
1000
0000
0101
,
0000
0001
0100
0000
0011
0000
0100
0000
,
1000
0100
1000
0100
1000
0000
1000
0100
,
0000
0010
0000
0001
0001
0000
1001
0000
,
0001
0010
1000
0001
0100
0010
0001
1000
,
0100
0001
1000
0010
0100
1000
0001
0000
,
1000
0100
1000
0010
0000
1100
0000
0202
,
0000
0000
0000
0303
0000
0010
0100
1000
,
0001
0000
0100
0001
0000
0100
0000
0001
,
0000
0100
0001
0100
0001
0100
0001
0100
,
1000
0100
0010
0001
1000
0000
1000
0100
,
0010
1000
0002
0000
0000
0000
0000
0003
,
0001
0001
0100
0010
0100
0001
0000
0001
,
0010
0100
0000
0001
0100
0010
0001
0000
,
1000
1000
0010
0100
0010
1000
0000
1000
,
0100
0010
0000
1000
0010
0100
1000
0000
,
0010
0010
1000
0100
0010
1000
0000
0010
,
0100
1000
0000
0010
1000
0100
0010
0000
,
0001
0010
1000
0010
0100
0001
0000
0100
,
0010
0001
0000
1000
1010
0000
0110
0000
,
1001
0000
0011
0000
1100
0000
0100
0010
,
0000
0000
1100
0000
0011
0100
0100
0010
,
0000
0000
1100
0000
0011
0000
0200
0020
,
0000
0000
0000
0000
,
0000
0000
0000
0000
,
0000
0000
0000
0330
;

//---------------dance-double - ----------------
#NOTEDATA:;
#CHARTNAME:;
#STEPSTYPE:dance-double;
#DESCRIPTION:;
#CHARTSTYLE:;
#DIFFICULTY:Easy;
#METER:7;
#RADARVALUES:0.360217,0.429973,0.079418,0.029782,0.000000,254.000000,246.000000,8.000000,3.000000,0.000000,0.000000,0.000000,0.000000,0.000000,0.360217,0.429973,0.079418,0.029782,0.000000,254.000000,246.000000,8.000000,3.000000,0.000000,0.000000,0.000000,0.000000,0.000000;
#CREDIT:;
#NOTES:
00000000
00000000
00000000
00000000
,
00000000
00000000
00000000
00000000
,
00000000
00000000
00000000
00000000
,
00000000
00000000
00000000
00000000
,
00000000
00000000
00000000
00000000
,
00100000
00010000
00010000
00000000
,
00001000
00000100
00000100
00000000
,
00010000
00000000
00010000
00000000
00001000
00000000
00010000
00001000
,
00000000
00001000
00001000
00001000
,
00000000
00010000
01000000
00000000
,
00100000
00001000
00100000
00001000
,
00000000
00001000
00000100
00000000
,
00000010
00010000
00000010
00010000
,
00000000
00010000
00001000
00010000
,
00100000
01000000
00100000
00010000
,
00001000
00000100
00000010
00001000
,
00011000
00000000
00011000
00001000
,
00000000
01000000
01000000
00100000
,
00010000
00001000
00000100
00000100
,
00000000
00000010
00000100
00001000
,
00010000
00000100
00001000
00000010
,
00000000
00001000
00001000
00000100
,
00010000
00000100
00010000
00100000
,
01000000
00010000
10000000
00010000
,
00100000
00010000
00001000
00000100
,
00000000
00000100
00010000
00001000
,
00100000
00001000
00010000
00010000
,
00000000
01000000
00001000
00010000
,
00000010
00010000
00001000
00001000
,
00000000
00010000
00000010
00000100
,
00001000
00010000
00100000
01000000
,
00001000
00000000
00010000
00000000
,
00001000
00001000
00010000
00010000
,
01000000
00000000
00100000
00000000
,
00010000
01000000
00001000
00001000
,
00010000
00010000
00001000
00000100
,
00000010
00000010
00001000
00000001
,
00000100
00000000
00000010
00000000
,
00001000
00000100
00010000
00010000
,
00002000
00000000
00003000
00000000
,
00011000
00000000
00110000
00000000
,
00100000
00000000
00010000
01000000
,
00001000
00001000
00010000
00001000
,
00000100
00000010
00001000
00001000
,
00000100
00010000
00001000
00001000
,
01000000
00010000
01000000
00001000
,
01000000
00010000
01000000
00001000
,
01000000
01000000
00100000
10000000
,
00100000
00010000
00001000
00000100
,
00000001
00000001
00000100
00001000
,
00010000
00010000
00100000
10000000
,
00100000
00100000
01000000
00001000
,
00010000
00010000
00010000
00010000
,
00100000
00010000
00001000
00000100
,
00001000
00010000
00100000
01000000
,
00100000
00100000
10000000
10000000
,
10000000
00000000
01010000
01010000
,
10000000
10000000
01000000
00010000
,
00001000
00001000
00000010
00000001
,
00001000
00001000
00000000
00000000
,
00000100
00010000
00001000
00001000
,
00010000
00001000
00100000
00001000
,
00010000
00100000
01000000
10000000
,
01000000
00100000
00010000
00001000
,
00000100
00000002
00000000
00000003
,
00000000
00010000
01000000
00000000
,
00100000
00001000
00100000
00001000
,
00000000
00001000
00000100
00000000
,
00000010
00010000
00000010
00010000
,
00000000
00010000
00001000
00010000
,
00100000
01000000
00100000
00010000
,
00001000
00000100
00000010
00001000
,
00011000
00000000
00011000
00010000
,
00100000
00100000
00010000
00000000
,
00001000
00000100
00000100
00000000
,
00001000
00000000
00010000
00000000
00010000
00000000
00001000
00020000
,
00000000
00000000
00000000
00000000
,
00000000
00000000
00000000
00000000
,
00000000
00000000
00000000
00030000
,
00000000
00000000
00000000
00000000
;

//---------------dance-double - ----------------
#NOTEDATA:;
#CHARTNAME:;
#STEPSTYPE:dance-double;
#DESCRIPTION:;
#CHARTSTYLE:;
#DIFFICULTY:Medium;
#METER:9;
#RADARVALUES:0.479344,0.547239,0.585707,0.109200,0.000000,338.000000,279.000000,59.000000,11.000000,0.000000,0.000000,0.000000,0.000000,0.000000,0.479344,0.547239,0.585707,0.109200,0.000000,338.000000,279.000000,59.000000,11.000000,0.000000,0.000000,0.000000,0.000000,0.000000;
#CREDIT:;
#NOTES:
00000000
00000000
00000000
00000000
,
00000000
00000000
00000000
00000000
,
00000000
00000000
00000000
00000000
,
00000000
00000000
00000000
00000000
,
00000000
00000000
00000000
00000000
,
00110000
00010000
00010000
00000000
,
00001100
00001000
00001000
00000000
,
00011000
00000000
00010000
00000000
00010000
00001000
00010000
00001000
,
00000000
00011000
00011000
00011000
,
00000000
00110000
01000000
00000000
,
00110000
00001000
00100000
00001000
,
00000000
00001100
00000100
00000000
,
00001010
00000000
00010000
00000000
00000010
00001000
00000010
00000000
,
00000000
00011000
00010000
00001000
,
00100000
00010000
01000000
00000000
00100000
00000000
00010000
00000000
,
00001000
00000000
00000100
00000000
00000010
00001000
00000100
00000000
,
00011000
00000000
00011000
00011000
,
00000000
01001000
01000000
00100000
,
00010000
00001000
00000100
00010100
,
00000000
00010010
00000100
00001000
,
00010000
00000100
00001000
00010010
,
00000000
00011000
00001000
00000100
,
00010000
00000100
00010000
00100000
,
01001000
00000000
00010000
00000000
10000000
00000000
00010000
00100000
,
00000000
00010000
00000000
00001000
00000000
00000100
00000000
00000010
,
00000000
00010100
00010000
00001000
,
00100000
00001000
00010000
00011000
,
00000000
01001000
00001000
00010000
,
00000010
00010000
00001000
00011000
,
00000000
00010100
00000010
00000100
,
00001000
00000000
00010000
00000000
00100000
10000000
01000000
00000000
,
00110000
00000000
00011000
00000000
,
00001100
00011000
00011000
00110000
,
01000000
00000000
00000000
00100000
00000000
00000000
00010000
00000000
,
00000000
01001000
00001000
00010000
,
00010000
00001000
00010000
00000000
00001000
00010000
00000100
00000000
,
00001000
00000100
00001000
00000000
00000001
00000000
00001000
00000000
,
00000100
00000000
00000000
00000010
00000000
00000000
00000001
00000000
,
00000000
00000110
00001000
00011000
,
00022000
00000000
00000000
00033000
,
00011000
00001000
00110000
00010000
,
00100000
00000000
00000000
00010000
00000000
00000000
01000000
00000000
,
00000000
00101000
00010000
00001000
,
00000100
00000010
00001000
00000000
00000100
00001000
00000100
00000000
,
00010000
00001000
00010000
00000000
00001000
00000000
00001000
00000000
,
02000000
03010000
02000000
03001000
,
02000000
03010000
02000000
03001000
,
02000000
00000000
03100000
00100000
00000000
10000000
00100000
00000000
,
00100000
00000000
00010000
00000000
00001000
00010000
00000100
00000000
,
00010100
00000010
00000100
00001000
,
00010100
00010000
00100000
10000000
,
00110000
00100000
01001000
00100000
,
00010000
00000000
00010000
00000000
00010000
00001000
00010000
00000000
,
00101000
00010000
00001000
00000100
,
00011000
00010000
00100000
01000000
,
00101000
00000000
00100000
00000000
00100000
00010000
00100000
00001000
,
00000000
00010000
00000000
00001000
00010000
00000000
00011000
00000000
,
01001000
00100000
01000000
00010000
,
01001000
00001000
00000010
00000001
,
00001000
00000100
00000010
00000001
00000000
00000001
00000000
00000001
,
00000000
00000100
00001000
00000000
00001000
00000000
00001000
00000000
,
00010000
00000000
00001000
00010000
00000000
00001000
00000000
00002000
,
00000000
00100000
00010000
00013000
,
00001000
00010000
00001000
00010000
00001000
00000000
00010000
00001000
,
00010000
00001000
00020000
00000000
00000000
00000000
00030000
00000000
,
00000000
00110000
01000000
00000000
,
00110000
00001000
00100000
00001000
,
00000000
00001100
00000100
00000000
,
00001010
00000000
00010000
00000000
00000010
00001000
00000010
00000000
,
00000000
00011000
00010000
00001000
,
00100000
00010000
01000000
00000000
00100000
00000000
00010000
00000000
,
00001000
00000000
00000100
00000000
00000010
00001000
00000100
00000000
,
00011000
00000000
00011000
00011000
,
00101000
00000000
00100000
00000000
00010000
00000000
00010000
00001000
,
00000000
00000000
00101000
00000000
00100000
00001000
00010000
00001000
,
00000000
00000000
00101000
00000000
00010000
00000000
00020000
00002000
,
00000000
00000000
00000000
00000000
,
00000000
00000000
00000000
00000000
,
00000000
00000000
00000000
00033000
,
00000000
00000000
00000000
00000000
;

//---------------dance-double - ----------------
#NOTEDATA:;
#CHARTNAME:;
#STEPSTYPE:dance-double;
#DESCRIPTION:;
#CHARTSTYLE:;
#DIFFICULTY:Hard;
#METER:13;
#RADARVALUES:0.611234,0.664504,0.446725,0.277963,0.000000,431.000000,386.000000,45.000000,28.000000,0.000000,0.000000,0.000000,0.000000,0.000000,0.611234,0.664504,0.446725,0.277963,0.000000,431.000000,386.000000,45.000000,28.000000,0.000000,0.000000,0.000000,0.000000,0.000000;
#CREDIT:;
#NOTES:
00000000
00000000
00000000
00000000
,
00000000
00000000
00000000
00000000
,
00000000
00000000
00000000
00000000
,
00000000
00000000
00000000
00000000
,
00000000
00000000
00000000
00000000
,
00010000
00000100
00010000
00001000
00010000
00000010
00010000
00001000
,
00000000
00001000
00100000
00001000
01000000
00001000
00010000
00001000
,
00100000
01000000
00100000
00010000
00001000
00000100
00010000
00000020
,
00000000
00000100
00001030
00001010
,
00010000
00010000
00001000
00000100
00000010
00001000
00000000
00000100
,
00000010
00001000
00000000
00000010
00001000
00010000
00001000
00000000
,
00001000
00001000
00010000
00100000
01000000
00010000
00000000
00100000
,
01000000
00010000
00000000
01000000
00010000
00001000
00010000
00000000
,
00100000
00100000
00010000
00001000
00000100
00000010
00000000
00001000
,
00000100
00000010
00000000
00001000
00000001
00000100
00001000
00000000
,
00010100
00000000
00010000
00100000
01000000
00010000
00000000
01000000
,
00100000
00010000
00000000
00001000
00001100
00000000
00000110
00000000
,
00000001
00000000
00000010
00000100
00001000
00000000
00010000
00100000
,
01000000
00000000
00010000
10000000
00100000
00000000
00010000
00000000
,
00010000
00000000
01000000
00100000
00010000
00000000
00001000
00000100
,
00000010
00000000
00000001
00001000
00000100
00000000
00000001
00000000
,
00001000
00000000
00000100
00000010
00001000
00000000
00010000
01000000
,
00100000
00000000
00001000
00010000
00001000
00000000
00100000
00000000
,
01010000
00000000
00010000
00000000
00010100
00000000
00000100
00000010
,
00000000
00001100
00000000
00011000
00000000
00100000
00000000
01000000
,
20000000
30200000
00320000
00032000
,
00003200
00000320
00002030
00003200
,
00020300
02030000
03020000
20030000
,
30200000
00302000
00023000
00031000
,
00010100
00001100
00000101
00001010
,
00010100
00000000
00011000
00000000
00100000
00010000
01000000
00000000
,
10010000
00000000
10010000
00000000
10000000
00010000
10000000
00010000
,
00110000
00011000
00001100
00000110
,
00000002
00000000
00000000
00000020
00000003
00000000
00000200
00000030
,
00000000
00000000
00001300
00000000
00000100
00010000
00000100
00000000
,
00010000
01000000
00100000
00000000
00010000
00010000
00000000
10000000
,
00000000
00100000
00010000
00000000
00001000
00000000
00000100
00000000
,
00002000
00000000
00000000
00020000
00003000
00000000
00000200
00030000
,
00000000
00001300
00010000
00001000
,
00010000
01000000
00100000
00000000
01000000
00100000
00010000
00000000
,
10000000
01000000
00010000
00000000
10000000
00100000
01000000
00000000
,
00010000
00101000
01000000
00110000
,
00001000
00010100
00001000
00011000
,
00010000
00000010
00000100
00001000
00000001
00000010
00001000
00000100
,
00000000
00010000
01000000
00010000
10000000
00100000
01000000
00000000
,
11000000
00000000
01100000
00000000
00110000
00000000
00010000
00001000
,
00000000
00001000
00000110
00000000
00000100
00000001
00000100
00000000
,
00000001
00000000
00000001
00000020
00000000
00000000
00000130
00000000
,
00001100
00000000
00001100
00000000
00001000
00010000
00001000
00010000
,
00001000
00000100
00000010
00001000
00000100
00000010
00001000
00000001
,
00000100
00000010
00000100
00001000
00010000
00100000
01000000
00010000
,
00001000
00000000
00010000
00001000
00000000
00001000
00000100
00000001
,
00000010
00000001
00000010
00000001
,
00000110
00000000
00001000
00000100
00000000
00001000
00000000
01010000
,
00000000
00010000
01000000
00000000
00110000
00000000
01000000
00000000
,
01000000
00100000
01000000
00100000
01000000
00000000
01000000
10000000
,
00000000
01000000
00000000
00010000
00001000
00000000
00000010
00000000
,
00000100
00001000
00000001
00000010
00001000
00000100
00000010
00001000
,
00010000
00100000
10000000
00100000
01000000
10000000
00010000
00000000
,
00100000
01000000
00100000
10000000
00000000
11000000
00000000
02020000
,
00000000
00000000
00000000
03030000
00000000
00100000
00010000
00001000
,
00000100
00000000
00010000
00000100
00000000
00010000
00000000
00000100
,
00000000
00010000
00000100
00010000
00000100
00010000
00000100
00010000
,
00000010
00000100
00001000
00000001
00000010
00000000
00000100
00001000
,
00010000
00001000
00020000
00000000
00000000
00000000
00000000
00030000
,
00010000
00010000
00001000
00000100
00000010
00001000
00000000
00000100
,
00000010
00001000
00000000
00000010
00001000
00010000
00001000
00000000
,
00001000
00001000
00010000
00100000
01000000
00010000
00000000
00100000
,
01000000
00010000
00000000
01000000
00010000
00001000
00010000
00000000
,
00100000
00100000
00010000
00001000
00000100
00000010
00000000
00001000
,
00000100
00000010
00000000
00001000
00000001
00000100
00001000
00000000
,
00010100
00000000
00010000
00100000
01000000
00010000
00000000
01000000
,
00100000
00010000
00000000
00001000
00001100
00000000
00000110
00000000
,
00001001
00000000
00001100
00000000
00011000
00000000
00000100
00000010
,
00000000
00000000
00001100
00000000
00011000
00001000
00000100
00000010
,
00000000
00000000
00001100
00000000
00011000
00000000
00000200
00000020
,
00000000
00000000
00000000
00000000
,
00000000
00000000
00000000
00000000
,
00000000
00000000
00000000
00000330
,
00000000
00000000
00000000
00000000
;

//---------------dance-single - ----------------
#NOTEDATA:;
#CHARTNAME:;
#STEPSTYPE:dance-single;
#DESCRIPTION:;
#CHARTSTYLE:;
#DIFFICULTY:Challenge;
#METER:16;
#RADARVALUES:0.978542,0.977212,0.962942,0.178690,0.407017,690.000000,593.000000,97.000000,18.000000,0.000000,0.000000,0.000000,0.000000,0.000000,0.978542,0.977212,0.962942,0.178690,0.407017,690.000000,593.000000,97.000000,18.000000,0.000000,0.000000,0.000000,0.000000,0.000000;
#CREDIT:;
#NOTES:
// measure 0
0000
0000
0000
0000
,  // measure 1
0000
0000
0000
0000
,  // measure 2
0000
0000
0000
0000
,  // measure 3
0000
0000
0000
0000
,  // measure 4
0000
0000
0000
0000
,  // measure 5
0101
0000
0001
0010
0001
0000
0100
0000
0110
0000
0010
0000
1000
0000
1010
0000
,  // measure 6
0000
0000
1000
0010
1000
0000
0100
0000
1100
0000
1000
0000
1001
0000
0001
0000
,  // measure 7
0011
0000
0010
0100
0010
0000
0001
0000
1000
0100
1000
0100
1000
0100
2000
0000
,  // measure 8
0000
0000
0000
0000
3002
0000
0000
0000
0103
0020
0000
0000
2030
0000
0000
0000
,  // measure 9
3001
0000
0100
0001
0100
0000
0010
0000
1010
0000
1100
0000
0000
0000
1000
0000
,  // measure 10
1001
0101
0000
0001
0011
1000
1100
0100
,  // measure 11
0010
0000
0001
0100
0001
0000
1000
0000
1010
0000
0110
0000
0000
0000
0100
0000
,  // measure 12
0101
0011
0000
0010
0110
1000
1001
0001
,  // measure 13
1000
0000
0100
0010
0001
0000
0100
0000
0110
0000
1010
0000
0000
0000
1000
0000
,  // measure 14
1001
0011
0000
0001
0101
1000
1010
0010
,  // measure 15
0100
0000
0001
1000
0100
0000
0010
0000
0011
0000
0101
0000
0000
0000
0010
0000
,  // measure 16
1010
0000
1100
0000
0000
0000
0001
0000
0101
0000
1000
0000
0001
0010
0001
0010
,  // measure 17
0001
0001
1000
0100
0000
0100
1000
0010
,  // measure 18
0100
0000
0001
0000
0010
0000
1000
0000
0010
0000
0100
0000
1000
0000
0001
0100
,  // measure 19
0001
0001
1000
0010
0010
1000
0100
1000
,  // measure 20
0000
0000
1000
0000
0001
0000
0100
0000
0010
0000
1000
0010
1000
0000
1000
0000
,  // measure 21
0001
0001
1000
0010
0000
0010
1000
0100
,  // measure 22
0010
0000
0100
0000
0001
0000
0100
0000
1000
0000
0001
0000
1000
0000
0100
0010
,  // measure 23
0100
0100
1000
0001
0001
1000
0100
1100
,  // measure 24
0000
0000
0011
0000
0000
0000
0101
0000
0001
0000
1000
0001
1000
0000
0001
1000
,  // measure 25
0001
0001
1000
0010
0010
1000
0100
0100
,  // measure 26
0010
0000
0001
0000
0100
0000
0001
0000
1000
0000
0001
0000
0100
0000
0010
1000
,  // measure 27
0010
0010
0100
0001
0001
1000
0100
0100
,  // measure 28
1000
0000
0010
0000
0001
0000
0010
0000
0100
0000
0001
1000
0001
0000
0001
0000
,  // measure 29
0100
0100
0010
1000
1000
0100
0010
0010
,  // measure 30
0001
0000
0100
0000
0010
0000
0100
0000
1000
0000
0100
0000
0010
0000
1000
0100
,  // measure 31
1000
1000
0001
0100
0010
0010
0100
0001
,  // measure 32
0011
0010
0110
0100
1100
1000
1001
0001
,  // measure 33
0200
0000
0000
0000
0310
0000
1000
0000
0001
0000
0100
0010
0100
0000
0001
0000
,  // measure 34
1000
0000
0010
0000
0100
0001
0100
0000
0010
0000
1000
0000
0100
0010
0100
0010
,  // measure 35
0100
1000
1001
0000
0100
0001
1001
0000
,  // measure 36
0010
0000
1000
0000
1001
0000
0000
0000
0010
0000
0001
0010
0100
1000
0100
1000
,  // measure 37
0020
0000
0000
0000
0130
0000
0001
0000
1000
0000
0001
0010
0001
0000
0100
0000
,  // measure 38
0010
0000
1000
0000
0100
0010
0100
0000
0010
0000
0001
0000
1000
0010
1000
0010
,  // measure 39
1000
0100
0110
0000
0001
0100
0110
0000
,  // measure 40
1000
0000
0010
0000
0110
0000
0000
0000
0001
0000
0010
0001
0010
0100
1000
0100
,  // measure 41
0010
0100
1000
0100
0010
0001
0100
1000
,  // measure 42
0100
0000
0010
0000
1000
0000
0100
0010
0001
0000
1000
0000
0100
0000
1000
0001
,  // measure 43
0010
0001
1000
0010
0001
0010
0100
0001
,  // measure 44
0010
0000
0100
0000
1000
0000
0010
0000
0100
0000
0001
0010
0100
0000
1000
0000
,  // measure 45
1001
0001
0011
0000
0110
0100
1100
0000
,  // measure 46
1010
0000
1000
0000
1001
0000
0000
0000
0101
0000
0001
0010
0100
0000
1000
0000
,  // measure 47
1001
0000
0001
0000
0100
0000
0010
0000
1000
0000
0100
0000
1000
0001
1000
0001
,  // measure 48
1000
0000
0000
0000
0000
0000
0000
0000
0000
0000
0100
0010
1001
0000
0000
0000
,  // measure 49
0001
0000
0100
0000
0010
0000
1000
0100
1000
0000
0010
0000
0100
0000
0001
0010
,  // measure 50
0001
0000
0010
0000
0100
0000
1000
0010
1000
0000
0100
0000
0010
0000
0010
0000
,  // measure 51
0100
0000
0100
0000
1000
0000
0010
0100
0010
0000
0100
0000
0001
0000
0020
0000
,  // measure 52
0100
0230
1000
2300
0001
3002
0010
0013
,  // measure 53
0001
0000
1000
0000
0100
0000
0010
0001
0010
0000
0001
0000
1000
0000
1010
0000
,  // measure 54
0000
0000
1000
0100
1000
0000
0001
0100
0001
0000
1000
0000
0010
0000
0010
0000
,  // measure 55
1000
0000
0100
0000
0001
0000
0100
1000
0010
0000
1000
0000
0001
0000
0011
0000
,  // measure 56
0000
0000
1100
0000
0000
0000
0110
0000
1001
0000
0001
0000
1000
0010
0100
0001
,  // measure 57
1000
0000
0010
0000
0100
0000
0001
0010
0100
0000
0010
0000
0001
0000
1000
0100
,  // measure 58
0010
0000
0100
0000
1000
0000
0001
1000
0010
0000
1000
0000
0001
0000
0100
0001
,  // measure 59
1000
1000
0010
1010
0000
0101
0000
1100
,  // measure 60
0000
0000
1000
0010
1000
0000
0001
0100
0001
0000
1000
0100
1000
0100
0010
0001
,  // measure 61
1000
0000
0010
1000
0010
0000
0110
0000
0000
0000
0101
0000
0001
0000
0011
0000
,  // measure 62
0000
0000
0010
0100
1000
0000
1010
0000
0000
0000
0010
0100
0001
0010
0001
0010
,  // measure 63
0001
1000
1100
1000
1001
0000
0101
0001
,  // measure 64
0020
0000
0001
0000
0200
0000
0000
0000
0000
0000
0330
0000
1000
0001
1000
0001
,  // measure 65
1000
0000
0010
1000
0010
0000
1010
0000
1000
0000
1001
0000
0000
0000
0101
0000
,  // measure 66
0001
0011
0000
0110
0110
0100
1100
1000
,  // measure 67
0001
0000
0010
0001
0010
0000
0011
0000
0001
0000
0101
0000
0000
0000
0110
0000
,  // measure 68
0010
0000
1010
0000
0000
0000
1100
0000
1100
0000
1000
0000
0001
0010
0001
0010
,  // measure 69
0001
0000
1000
0100
0010
0000
0011
0000
0001
0000
0101
0000
0000
0000
1001
0000
,  // measure 70
1000
1010
0000
1100
1100
0010
0011
0001
,  // measure 71
1000
0000
0010
0100
0001
0000
0101
0000
1000
0000
1010
0000
0000
0000
1100
0000
,  // measure 72
0001
0000
0011
0000
0000
0000
0110
0000
0110
0000
0001
0000
1000
0001
1000
0001
,  // measure 73
1000
0000
0001
0010
0001
0000
1000
0000
0010
0000
1000
0000
1100
0000
2002
0000
,  // measure 74
3003
0000
1000
0100
1000
0000
0010
0000
0100
0000
0101
0000
1010
0000
2002
0000
,  // measure 75
3003
0000
0001
0100
0001
0000
0010
0000
0100
1000
0100
1000
0100
0010
0002
0000
,  // measure 76
0000
0000
0000
0000
,  // measure 77
0000
0000
0000
0200
0000
0000
0000
0000
,  // measure 78
0000
0000
0000
0303
;

//---------------dance-single - BETA----------------
#NOTEDATA:;
#CHARTNAME:;
#STEPSTYPE:dance-single;
#DESCRIPTION:BETA;
#CHARTSTYLE:;
#DIFFICULTY:Edit;
#METER:17;
#RADARVALUES:1.016832,1.055389,1.062214,0.178690,0.426871,717.000000,610.000000,107.000000,18.000000,0.000000,0.000000,0.000000,0.000000,0.000000,1.016832,1.055389,1.062214,0.178690,0.426871,717.000000,610.000000,107.000000,18.000000,0.000000,0.000000,0.000000,0.000000,0.000000;
#CREDIT:;
#NOTES:
// measure 0
0000
0000
0000
0000
,  // measure 1
0000
0000
0000
0000
,  // measure 2
0000
0000
0000
0000
,  // measure 3
0000
0000
0000
0000
,  // measure 4
0000
0000
0000
0000
,  // measure 5
0101
0000
0001
0010
0001
0000
0100
0000
0110
0000
0010
0000
1000
0000
1010
0000
,  // measure 6
0000
0000
1000
0010
1000
0000
0100
0000
1100
0000
1000
0000
1001
0000
0001
0000
,  // measure 7
0011
0000
0010
0100
0010
0000
0001
0000
1000
0100
1000
0100
1000
0100
2000
0000
,  // measure 8
0000
0000
0000
0000
3002
0000
0000
0000
0103
0020
0000
0000
2030
0000
0000
0000
,  // measure 9
3001
0000
0100
0001
0100
0000
0010
0000
1010
0000
1100
0000
0000
0000
1000
0000
,  // measure 10
1001
0101
0000
0001
0011
1000
1100
0100
,  // measure 11
0010
0000
0001
0100
0001
0000
1000
0000
1010
0000
0110
0000
0000
0000
0100
0000
,  // measure 12
0101
0011
0000
0010
0110
1000
1001
0001
,  // measure 13
1000
0000
0100
0010
0001
0000
0100
0000
0110
0000
1010
0000
0000
0000
1000
0000
,  // measure 14
1001
0011
0000
0001
0101
1000
1010
0010
,  // measure 15
0100
0000
0001
1000
0100
0000
0010
0000
0011
0000
0101
0000
0000
0000
0010
0000
,  // measure 16
1010
0000
1100
0000
0000
0000
0001
0000
0101
0000
1000
0000
0001
0010
0001
0010
,  // measure 17
0001
0001
1000
0100
0000
0100
1000
0010
,  // measure 18
0100
0000
0001
0000
0010
0000
1000
0000
0010
0000
0100
0000
1000
0000
0001
0100
,  // measure 19
0001
0001
1000
0010
0010
1000
0100
1000
,  // measure 20
0000
0000
1000
0000
0001
0000
0100
0000
0010
0000
1000
0010
1000
0000
1000
0000
,  // measure 21
0001
0001
1000
0010
0000
0010
1000
0100
,  // measure 22
0010
0000
0100
0000
0001
0000
0100
0000
1000
0000
0001
0000
1000
0000
0100
0010
,  // measure 23
0100
0100
1000
0001
0001
1000
0100
1100
,  // measure 24
0000
0000
0011
0000
0000
0000
0101
0000
0001
0000
1000
0001
1000
0000
0001
1000
,  // measure 25
0001
0001
1000
0010
0010
1000
0100
0100
,  // measure 26
0010
0000
0001
0000
0100
0000
0001
0000
1000
0000
0001
0000
0100
0000
0010
1000
,  // measure 27
0010
0010
0100
0001
0001
1000
0100
0100
,  // measure 28
1000
0000
0010
0000
0001
0000
0010
0000
0100
0000
0001
1000
0001
0000
0001
0000
,  // measure 29
0100
0100
0010
1000
1000
0100
0010
0010
,  // measure 30
0001
0000
0100
0000
0010
0000
0100
0000
1000
0000
0100
0000
0010
0000
1000
0100
,  // measure 31
1000
1000
0001
0100
0010
0010
0100
0001
,  // measure 32
0011
0010
0110
0100
1100
1000
1001
0001
,  // measure 33
0200
0000
0000
0000
0310
0000
1000
0000
0001
0000
0100
0010
0100
0000
0001
0000
,  // measure 34
1000
0000
0010
0000
0100
0001
0100
0000
0010
0000
1000
0000
0100
0010
0100
0010
,  // measure 35
0100
1000
1001
0010
0100
0001
1001
0100
,  // measure 36
0010
0000
1000
0000
1001
0000
0100
0000
0010
0000
0001
0010
0100
1000
0100
1000
,  // measure 37
0020
0000
0000
0000
0130
0000
0001
0000
1000
0000
0001
0010
0001
0000
0100
0000
,  // measure 38
0010
0000
1000
0000
0100
0010
0100
0000
0010
0000
0001
0000
1000
0010
1000
0010
,  // measure 39
1000
0100
0110
1000
0001
0100
0110
0001
,  // measure 40
1000
0000
0010
0000
0110
0000
1000
0000
0001
0000
0010
0001
0010
0100
1000
0100
,  // measure 41
0010
0001
0101
0010
1000
0100
1100
0001
,  // measure 42
1000
0000
0010
0000
1010
0000
0100
0001
0010
0000
0100
0000
0110
0000
0010
0001
,  // measure 43
1000
0100
1100
1000
0001
0010
0011
0100
,  // measure 44
1000
0000
0001
0000
1001
0000
0100
0000
0010
0000
1000
0100
0010
0000
0001
0000
,  // measure 45
1001
1000
1001
0001
0110
0100
0110
0010
,  // measure 46
1100
0000
1000
0000
1100
0000
0100
0000
0011
0000
0010
0100
1000
0000
1000
0000
,  // measure 47
1001
0000
0001
0000
0100
0000
0010
0000
1000
0000
0100
0000
1000
0001
1000
0001
,  // measure 48
1000
0000
0000
0000
0000
0000
0000
0000
0000
0000
0100
0010
1001
0000
0000
0000
,  // measure 49
0001
0000
0100
0000
0010
0000
1000
0100
1000
0000
0010
0000
0100
0000
0001
0010
,  // measure 50
0001
0000
0010
0000
0100
0000
1000
0010
1000
0000
0100
0000
0010
0000
0010
0000
,  // measure 51
0100
0000
0100
0000
1000
0000
0010
0100
0010
0000
0100
0000
0001
0000
0020
0000
,  // measure 52
0100
0230
1000
2300
0001
3002
0010
0013
,  // measure 53
0001
0000
1000
0000
0100
0000
0010
0001
0010
0000
0001
0000
1000
0000
1010
0000
,  // measure 54
0000
0000
1000
0100
1000
0000
0001
0100
0001
0000
1000
0000
0010
0000
0010
0000
,  // measure 55
1000
0000
0100
0000
0001
0000
0100
1000
0010
0000
1000
0000
0001
0000
0011
0000
,  // measure 56
0000
0000
0010
0001
0010
0000
0100
1000
0100
1000
0010
0000
1000
0010
0100
0001
,  // measure 57
1000
0000
0010
0000
0100
0000
0001
0010
1000
0000
0010
0000
0001
0000
1000
0100
,  // measure 58
0001
0000
0100
0000
1000
0000
0001
1000
0010
0000
1000
0000
0001
0000
0100
0001
,  // measure 59
1000
1000
0010
1010
0000
0101
0000
1100
,  // measure 60
0000
0000
1000
0010
1000
0000
0001
0100
0001
0000
1000
0100
1000
0100
0010
0001
,  // measure 61
1000
0000
0010
1000
0010
0000
0100
0000
0101
0000
0001
0000
0011
0000
1100
0000
,  // measure 62
0000
0000
1000
0100
0010
0000
0100
0000
0010
0000
0001
0010
0100
1000
0100
0010
,  // measure 63
0001
0000
1000
0000
1010
0000
0010
1000
0001
0000
0100
0000
0101
0000
0001
0000
,  // measure 64
0020
0000
0001
0000
0200
0000
0000
0000
0000
0000
0330
0000
1000
0001
1000
0001
,  // measure 65
1000
0000
0010
1000
0010
0000
1010
0000
1001
0000
0101
0000
0000
0000
0011
0000
,  // measure 66
0110
1100
0000
1010
1010
0100
0101
0001
,  // measure 67
0010
0000
0100
1000
0100
0000
1100
0000
1001
0000
0011
0000
0000
0000
0101
0000
,  // measure 68
0110
0000
1010
0000
0000
0000
1100
0000
1100
0000
1000
0000
0001
0010
0001
0010
,  // measure 69
0001
0000
1000
0100
0010
0000
0011
0000
1001
0000
0101
0000
0000
0000
0110
0000
,  // measure 70
1010
1100
0000
1001
1001
0100
0110
0010
,  // measure 71
1000
0000
0100
0010
0001
0000
0011
0000
0101
0000
0110
0000
0000
0000
1010
0000
,  // measure 72
1001
0000
1100
0000
0000
0000
0110
0000
0110
0000
0001
0000
1000
0001
1000
0001
,  // measure 73
1000
0000
0001
0010
0001
0000
1000
0000
0010
0000
1000
0000
1100
0000
2002
0000
,  // measure 74
3003
0000
1000
0100
1000
0000
0010
0000
0100
0000
0101
0000
1010
0000
2002
0000
,  // measure 75
3003
0000
0001
0100
0001
0000
0010
0000
0100
1000
0100
1000
0100
0010
0002
0000
,  // measure 76
0000
0000
0000
0000
,  // measure 77
0000
0000
0000
0200
0000
0000
0000
0000
,  // measure 78
0000
0000
0000
0303
;
