#TITLE:Future Utobeania;
#SUBTITLE:;
#ARTIST:Jukio Kallio & Daniel Hagstrom;
#TITLETRANSLIT:;
#SUBTITLETRANSLIT:;
#ARTISTTRANSLIT:;
#GENRE:;
#CREDIT:;
#BANNER:Future Utobeania.png;
#BACKGROUND:Future Utobeania-bg.png;
#LYRICSPATH:;
#CDTITLE:cdtitle.png;
#MUSIC:Future Utobeania.ogg;
#OFFSET:-0.419000;
#SAMPLESTART:112.320999;
#SAMPLELENGTH:15.000000;
#SELECTABLE:YES;
#BPMS:0.000000=163.000000
;
#STOPS:
;
#BGCHANGES:;
#KEYSOUNDS:;
#ATTACKS:;

//---------------dance-single - ----------------
#NOTES:
     dance-single:
     :
     Hard:
     11:
     0.502952,0.525187,0.058236,0.248829,0.047648,665.000000,654.000000,11.000000,47.000000,0.000000,0.000000,0.502952,0.525187,0.058236,0.248829,0.047648,665.000000,654.000000,11.000000,47.000000,0.000000,0.000000:
0000
0000
0000
0000
,
0000
0000
0000
0000
,
0000
0000
0000
0000
,
0000
0000
0000
0000
,
1000
0000
1000
0000
0001
0010
0100
0010
,
0001
0000
0001
0000
0100
0010
1000
0010
,
0100
0000
0100
0000
0001
0010
0100
2000
,
0002
0000
0000
0000
3003
0000
1000
0001
,
1000
0000
0010
0000
1000
0100
0000
1000
,
0010
0000
0100
0000
0010
1000
0000
0010
,
0100
0000
0001
0000
0100
0010
0000
0100
,
0001
0010
0001
0000
1000
0100
1000
0000
,
0001
0000
0100
0000
0001
0010
0000
0001
,
0100
0000
0010
0000
0100
0001
0000
0100
,
0010
0000
1000
0000
0010
0100
0000
0010
,
1000
0100
1000
0000
0001
0010
0001
0000
,
2000
0000
0100
0000
0100
0100
0000
0001
,
3002
0000
0100
0000
0100
0100
0000
0010
,
0023
0000
0100
0000
0100
0100
0000
1000
,
1000
1000
0032
1000
,
2003
0000
0010
0000
0010
0010
0000
0100
,
0100
0000
0100
0000
0100
0100
0000
0001
,
3002
0000
0100
0000
0100
0100
0000
1000
,
2003
0010
3002
0010
,
2003
0000
0001
0000
0100
0000
3001
0010
,
0100
1000
0002
0000
0100
0000
1000
0000
,
0203
0010
0001
0010
,
0302
1000
0010
1000
,
0023
0000
0100
0000
0001
0000
0130
1000
,
0001
0010
0200
0000
1000
0000
0010
0000
,
2300
0001
0010
0001
,
3020
0000
1000
0000
0230
0000
0301
0001
,
0002
0000
1000
0000
0010
0000
1003
0100
,
0010
0001
2000
0000
0010
0000
0001
0000
,
3020
0100
1000
0100
,
2030
0001
0100
0001
,
3200
0000
0010
0000
1000
0000
0310
0001
,
1000
0100
0020
0000
0001
0000
0100
0000
,
0032
1000
0100
1000
,
0203
0000
0001
0000
0310
1000
0010
1000
,
0002
0010
0010
0000
,
2003
0000
0010
0000
0010
0010
0000
0000
,
3200
0000
0010
0000
0010
0000
0000
0001
,
0001
0001
2300
0100
,
3020
0100
0100
0000
,
0001
0000
0001
0000
1000
1000
0000
0000
,
0230
0000
0010
0000
0010
0000
0000
0001
,
0301
0000
0000
0000
,
1000
0100
1000
0010
0100
0010
1000
0001
,
0000
0010
0100
0010
0001
0100
0010
1000
,
0000
0001
0010
0100
0010
0001
1000
0001
,
0000
0100
0010
1000
0100
1000
0010
0100
,
0001
0010
0001
0100
0010
0100
0001
1000
,
0000
0100
0010
0100
1000
0010
0100
0001
,
0000
1000
0100
0010
0100
1000
0001
1000
,
0010
0010
0100
0010
1000
0001
1000
1000
,
0001
0000
0001
0000
0001
0010
0000
0010
,
0100
0000
0100
0000
0100
1000
0000
1000
,
0010
0000
0010
0000
0010
0100
0000
0100
,
0001
0010
0001
0000
1000
0010
1000
0000
,
0100
0000
0100
0000
0100
0010
0000
0010
,
0001
0000
0001
0000
0001
0100
0000
0100
,
0010
0000
0010
0000
0010
1000
0000
1000
,
0001
0100
0001
0000
1000
0100
1000
0000
,
0002
0000
1000
0000
1003
0100
0010
0001
,
2000
0000
0001
0000
3001
0100
0010
1000
,
0020
0000
0100
0000
0130
0001
0010
0100
,
1000
0010
2000
0000
3010
0100
0020
0000
,
0230
0000
0001
0000
0310
1000
0100
0010
,
0002
0000
1000
0000
0103
0010
1000
0100
,
0020
0000
0001
0000
0130
1000
0010
0100
,
0001
0010
0200
0000
1300
0010
0200
0000
,
0301
0010
0001
1000
0001
0100
0001
0000
,
1000
0010
1000
0001
1000
0100
1000
0000
,
0010
1000
0010
0100
0010
0001
0010
0000
,
2002
0000
0000
3003
,
1000
0100
0010
0001
0100
0010
1000
0000
,
0001
0010
0100
1000
0010
0100
0001
0000
,
1000
0100
0010
0100
1000
0010
0100
0000
,
0001
0010
0100
0000
1000
0100
0010
0000
,
0001
1000
0010
0100
0010
1000
0100
0000
,
1000
0001
0010
0100
0010
0001
0100
0000
,
0010
1000
0100
0010
0001
0100
0010
0000
,
1000
0000
0100
0000
0000
1000
0000
0000
0010
0000
0000
0100
0000
0000
0001
0000
,
1000
0100
0010
0100
1000
0010
0001
0000
,
0010
0100
0001
1000
0100
0010
1000
0000
,
0010
0001
0100
0010
1000
0100
0001
0000
,
1000
0010
0001
0000
1000
0100
0001
0000
,
0100
1000
0001
0010
1000
0010
0001
0000
,
0100
0001
1000
0010
0001
0010
1000
0000
,
0001
0000
0010
0000
0000
0001
0000
0000
0100
0000
0000
0010
0000
0000
1000
0000
,
0001
0000
0000
0010
0000
0000
0100
0000
0000
1000
0000
0000
0010
0000
0100
0000
,
0001
1000
1010
0000
,
0010
0000
0100
0000
0101
0001
0000
0000
,
0010
0000
0100
0000
1100
0000
0000
1100
,
1000
0001
0011
0010
,
0001
0100
0110
0000
,
1000
0000
0010
0000
0110
0100
0000
0000
,
0010
0000
1000
0000
1001
0000
0000
1001
,
0001
0000
0100
0000
0000
0001
0000
0000
0010
0000
0000
0100
0000
0000
1000
0000
,
0001
0010
1000
0010
0100
1000
0010
0100
,
0010
0001
0010
1000
0100
0010
0001
0000
,
1000
0010
0001
0010
0100
0001
0010
0100
,
0010
1000
0010
0001
0100
0010
1000
0000
,
0100
0010
0001
0100
1000
0100
0010
1000
,
0100
0001
0100
0010
0001
0010
0100
0000
,
1000
0000
0010
0000
0000
1000
0000
0000
0100
0000
0000
0010
0000
0000
0001
0000
,
1000
0000
0000
0010
0000
0000
0100
0000
0000
0001
0000
0000
0010
0000
0100
0000
,
2002
0000
0000
0000
,
0000
0000
0000
0000
,
0000
0000
0000
0000
,
0000
0000
0000
3003
,
1000
0100
0010
0100
1000
0100
0010
0000
,
0001
0100
0010
0100
0001
0100
0010
0000
,
1000
0001
1000
0100
1000
0001
1000
0000
,
0001
0000
0010
0000
0000
0100
0000
0000
1000
0000
0000
0010
0000
0000
0100
0000
,
0001
0010
0100
0010
0001
0010
0100
0000
,
1000
0010
0100
0010
1000
0010
0100
0000
,
0001
1000
0001
0010
0001
1000
0001
0000
,
1000
0100
1000
0001
1000
0100
1000
0010
,
0100
0001
0010
0001
0100
0001
0010
0000
,
0100
1000
0010
1000
0100
1000
0010
0000
,
1000
0000
0100
0000
0000
0010
0000
0000
0001
0000
0000
0100
0000
0000
0010
0000
,
1000
0000
0000
0100
0000
0000
1000
0000
0000
0010
0000
0000
0100
0000
0001
0000
,
1000
0000
0000
0000
;

//---------------dance-single - ----------------
#NOTES:
     dance-single:
     :
     Challenge:
     16:
     0.792621,0.853429,0.360007,0.407655,0.354713,1048.000000,980.000000,68.000000,77.000000,0.000000,0.000000,0.792621,0.853429,0.360007,0.407655,0.354713,1048.000000,980.000000,68.000000,77.000000,0.000000,0.000000:
// measure 0
0000
0000
0000
0000
,  // measure 1
0000
0000
0000
0000
,  // measure 2
0000
0000
0000
0000
,  // measure 3
0000
0000
0000
0000
,  // measure 4
1000
0000
0000
0000
1000
0000
0000
0000
0100
0000
0010
0000
0001
0000
0100
0010
,  // measure 5
0100
0000
0000
0000
0100
0000
0000
0000
0001
0000
1000
0000
0100
0000
0010
0001
,  // measure 6
0010
0000
0000
0000
0010
0000
0000
0000
0001
0000
0100
0000
0010
0000
1000
0002
,  // measure 7
2000
0000
0000
0000
0000
0000
0000
0000
3003
0000
0000
0001
0100
0010
0100
0001
,  // measure 8
1000
0100
1000
0100
1000
0100
0010
0100
,  // measure 9
0010
0001
0010
0001
0010
0001
0100
0001
,  // measure 10
0100
0010
0100
0010
0100
0010
1000
0100
,  // measure 11
0010
0001
0010
0001
1000
0100
1000
0100
,  // measure 12
0010
0001
0010
0001
0010
0100
0010
0100
,  // measure 13
1000
0100
1000
0100
1000
0010
1000
0010
,  // measure 14
0100
0010
0100
0010
0100
0001
0010
0100
,  // measure 15
1000
0010
1000
0010
0100
0001
0100
0001
,  // measure 16
2000
0010
0010
0010
3010
1000
0100
0010
,  // measure 17
0002
0100
0100
0100
0103
0001
0010
0100
,  // measure 18
0020
0001
0001
0001
0031
0010
0100
1000
,  // measure 19
0200
0010
0010
0010
2300
0001
0001
0001
,  // measure 20
3020
1000
1000
1000
1030
0010
0100
0001
,  // measure 21
0020
0001
0001
0001
0031
0010
0100
1000
,  // measure 22
0002
0100
0100
0100
0103
0001
0010
0100
,  // measure 23
2000
0001
0001
0001
3200
0010
0010
0010
,  // measure 24
2300
0010
0001
0010
0001
0010
0001
3020
,  // measure 25
2030
3200
0320
0001
0100
0001
0100
0001
,  // measure 26
0230
0010
1000
0010
1000
0010
1000
0010
,  // measure 27
2300
0000
0100
0000
0001
0000
0100
0000
3001
0000
1001
0000
0001
1000
0000
1000
,  // measure 28
0002
1000
0010
1000
0010
1000
0010
2003
,  // measure 29
3200
0320
0032
1000
0100
1000
0100
1000
,  // measure 30
0203
0001
0010
0001
0010
0001
0010
0001
,  // measure 31
0320
0000
0100
0000
1000
0000
0100
0000
2030
0000
0010
0000
3001
1000
0001
1000
,  // measure 32
0002
0100
1000
0100
1000
0100
1000
0203
,  // measure 33
0302
0023
0230
1000
0010
1000
0010
1000
,  // measure 34
0320
0100
0001
0100
0001
0100
0001
0100
,  // measure 35
0032
0000
0010
0000
1000
0000
0010
0000
1003
0000
1001
0000
1000
0001
0000
0001
,  // measure 36
2000
0001
0100
0001
0100
0001
0100
3002
,  // measure 37
0023
0230
2300
0001
0010
0001
0010
0001
,  // measure 38
3020
1000
0000
1000
,  // measure 39
0230
0000
0000
0000
0001
0000
0000
0000
0301
1000
0001
1000
0001
1000
0001
1000
,  // measure 40
0002
0000
0100
0003
0110
0000
0010
0000
,  // measure 41
2000
0000
0100
3000
0110
0010
0001
0000
,  // measure 42
0200
0000
0001
0300
1001
0000
1000
1010
,  // measure 43
0020
0000
1000
0030
1002
0000
0100
0000
,  // measure 44
2003
0000
0001
3000
0011
0000
0010
0000
,  // measure 45
0002
0000
1000
0003
1100
0100
1000
0000
,  // measure 46
0020
0000
0100
0030
0101
0000
0001
1001
,  // measure 47
1000
0000
0010
0000
0000
0010
0000
0000
,  // measure 48
1000
0100
1001
1000
0001
0010
1001
0001
,  // measure 49
0100
0010
0110
1000
0010
0100
0110
0001
,  // measure 50
1000
0100
1100
0010
0001
1000
1100
0001
,  // measure 51
1000
0010
1010
0100
0001
1000
1010
0001
,  // measure 52
1000
0001
0101
1000
0010
0100
0101
0010
,  // measure 53
1000
0001
0011
1000
0100
0010
0011
0100
,  // measure 54
1000
0010
0110
0100
0001
0010
0110
0100
,  // measure 55
1000
0000
1000
0000
1001
0000
0001
0000
1001
0000
1000
0100
0010
0001
0010
0001
,  // measure 56
1000
1000
1000
1000
1000
0010
0010
0010
,  // measure 57
0100
0100
0100
0100
0100
0001
0001
0001
,  // measure 58
0010
0010
0010
0010
0010
0100
0100
1000
,  // measure 59
0001
0001
0001
0001
0100
0100
0100
0100
,  // measure 60
0001
0001
0001
0001
0001
1000
1000
1000
,  // measure 61
0100
0100
0100
0100
0100
0010
0010
0010
,  // measure 62
0001
0001
0001
0001
0001
0100
0100
0010
,  // measure 63
1000
1000
1000
1000
0001
0001
0001
0001
,  // measure 64
2000
0000
3010
0000
2000
0000
3001
0000
2000
0000
3010
0000
2000
0000
3001
1000
,  // measure 65
0002
0000
0103
0000
0002
0000
1003
0000
0002
0000
0103
0000
0002
0000
1003
0001
,  // measure 66
0020
0000
0031
0000
0020
0000
0130
0000
0020
0000
0031
0000
0020
0000
0130
1000
,  // measure 67
0001
0100
0001
0100
1000
0100
1000
0100
,  // measure 68
0020
0000
1030
0000
0020
0000
0130
0000
0020
0000
0031
0000
0020
0000
0130
0010
,  // measure 69
2000
0000
3100
0000
2000
0000
3001
0000
2000
0000
3010
0000
2000
0000
3001
0010
,  // measure 70
0200
0000
1300
0000
0200
0000
0310
0000
0200
0000
0301
0000
0200
0000
0310
0001
,  // measure 71
1000
0010
1000
0010
0001
0010
0001
0010
,  // measure 72
1000
0100
1000
0010
0100
0001
0010
0001
,  // measure 73
1000
0100
1000
0010
0100
0001
0010
0001
,  // measure 74
1000
0100
1000
0010
0100
0001
0010
0001
,  // measure 75
2002
0000
0000
0000
0000
0000
0000
0000
0000
0000
3003
0000
1000
0001
0010
0100
,  // measure 76
1000
0000
0001
0100
0001
0000
1000
0100
1000
0000
0001
0010
0100
0000
1000
0010
,  // measure 77
0100
0000
0001
0010
0001
0000
1000
0010
1000
0000
0001
0100
0010
0000
1000
0100
,  // measure 78
0010
0000
0100
1000
0100
0000
0010
0001
0010
0000
0100
1000
0001
0000
0100
0001
,  // measure 79
1000
0000
0010
1000
0010
0000
0100
0001
0100
0000
0010
1000
0001
0000
0010
0001
,  // measure 80
1000
0000
0100
0010
0001
0000
1000
0010
1000
0000
0001
0010
0100
0000
0010
0001
,  // measure 81
0010
0000
0001
0100
0010
0000
0100
0001
0100
0000
0010
0100
0001
0000
1000
0100
,  // measure 82
1000
0000
0001
0010
0100
0000
1000
0001
1000
0000
0010
0100
0010
0000
0100
0001
,  // measure 83
1000
0000
1100
0000
0000
0001
0000
0000
0011
0000
0000
0100
0000
0000
1001
0000
,  // measure 84
1000
0000
0100
0010
0001
0000
1000
0010
1000
0000
0010
0001
0010
0000
0100
0001
,  // measure 85
0010
0000
0100
1000
0010
0000
0100
1000
0100
0000
0001
0100
0001
0000
0010
0100
,  // measure 86
1000
0000
0010
1000
0001
0000
0100
1000
0100
0000
0001
1000
0010
0000
0100
0001
,  // measure 87
1000
0000
0010
0001
0010
0000
1000
0001
0100
0000
0001
0010
1000
0000
0001
0100
,  // measure 88
1000
0000
0001
0100
0010
0000
1000
0100
0001
0000
0100
1000
0001
0000
1000
0010
,  // measure 89
0100
0000
0001
0010
1000
0000
0010
0001
0100
0000
0010
1000
0001
0000
0100
0001
,  // measure 90
1000
0000
1100
0000
0000
0001
0000
0000
0011
0000
0000
0100
0000
0000
1001
0000
,  // measure 91
1000
0100
0000
0100
0010
0000
0010
0001
0000
0001
0100
0010
0100
0001
1000
0000
,  // measure 92
0001
0010
0001
0010
0011
0010
0010
0010
,  // measure 93
0100
1000
0100
1000
1100
0100
0010
0010
,  // measure 94
0001
0100
0001
0100
0101
0100
0100
0110
,  // measure 95
0010
0100
0001
1000
1001
1000
0001
0100
,  // measure 96
0010
1000
0010
1000
1010
1000
1000
1000
,  // measure 97
0001
0100
0001
0100
0101
0001
0010
0010
,  // measure 98
0100
1000
0100
1000
1100
1000
1000
1001
,  // measure 99
0001
0000
0011
0000
0000
1000
0000
0000
1100
0000
0000
0010
0000
0000
1001
0000
,  // measure 100
0001
0000
0100
0000
1001
0000
1000
0001
1000
0000
0100
0000
1001
0000
0001
1000
,  // measure 101
0010
0000
1000
0000
0110
0000
1000
0100
0010
0000
0001
0000
0110
0000
0001
0100
,  // measure 102
0001
0000
0010
0000
1100
0000
1000
0010
0100
0000
0001
0000
1100
0000
0100
0010
,  // measure 103
0100
0000
1000
0000
0011
0000
0010
0100
1000
0000
0100
0000
0011
0000
0001
0100
,  // measure 104
0001
0000
1000
0000
1010
0000
0100
0001
1000
0000
0001
0000
0101
0000
0010
1000
,  // measure 105
0100
0000
0010
0000
0011
0000
0100
0001
0010
0000
0100
0000
1100
0000
0010
1000
,  // measure 106
0001
0000
0011
0000
0000
1000
0000
0000
1100
0000
0000
0010
0000
0000
1001
0000
,  // measure 107
0001
0010
0000
0010
0100
0000
0100
1000
0000
1000
0010
0100
0010
1000
0001
0000
,  // measure 108
2002
0000
0000
0000
,  // measure 109
0000
0000
0000
0000
,  // measure 110
0000
0000
0000
0000
,  // measure 111
0000
0000
0000
3003
,  // measure 112
1000
0000
0100
0000
0010
0000
0001
0000
0100
0000
0010
1000
0010
0000
0100
0000
,  // measure 113
0001
0000
0010
0000
0100
0000
1000
0000
0010
0000
0100
0001
0100
0000
0010
0000
,  // measure 114
1000
0000
0001
0000
0010
0000
0100
0000
1000
0000
0010
0100
0010
0000
1000
0000
,  // measure 115
0001
0000
0011
0000
0000
0100
0000
0000
1100
0000
0000
0010
1000
0001
1000
0001
,  // measure 116
1000
0000
0001
0000
0010
0000
0100
0000
1000
0000
0001
0100
0010
0000
0100
0000
,  // measure 117
0001
0000
1000
0000
0100
0000
0010
0000
0001
0000
1000
0010
0100
0000
0010
0000
,  // measure 118
1000
0000
0100
0000
0010
0000
0100
0000
1000
0000
0001
1000
0010
0000
0100
0000
,  // measure 119
0001
0000
0010
0000
0100
0000
0010
0000
0001
0000
1001
0000
1000
0001
0000
0001
,  // measure 120
1000
0000
0010
0000
0001
0000
0010
0000
0100
0000
0001
0010
0100
0000
1000
0000
,  // measure 121
0001
0000
0100
0000
1000
0000
0100
0000
0001
0000
1000
0100
0010
0000
0001
0000
,  // measure 122
1000
0000
1100
0000
0000
0001
0000
0000
0011
0000
0000
0100
0000
0000
1001
0000
,  // measure 123
1000
0100
0000
0100
0010
0000
0010
0001
0000
0001
0100
0010
1000
0100
0010
0001
,  // measure 124
1000
0000
0000
0000
;

//---------------dance-single - ----------------
#NOTES:
     dance-single:
     :
     Beginner:
     2:
     0.112691,0.164121,0.005294,0.074119,0.000000,149.000000,148.000000,1.000000,14.000000,0.000000,0.000000,0.112691,0.164121,0.005294,0.074119,0.000000,149.000000,148.000000,1.000000,14.000000,0.000000,0.000000:
0000
0000
0000
0000
,
0000
0000
0000
0000
,
0000
0000
0000
0000
,
0000
0000
0000
0000
,
1000
0000
0000
0000
,
0001
0000
0000
0000
,
0100
0000
0000
0000
,
0010
0000
0000
0000
,
1000
0000
0000
0000
,
1000
0000
0000
0000
,
0001
0000
0000
0000
,
0001
0000
1000
0000
,
0001
0000
0000
0000
,
0001
0000
0000
0000
,
1000
0000
0000
0000
,
1000
0000
0001
0000
,
0100
0000
0000
0000
,
0100
0000
0000
0000
,
0010
0000
0000
0000
,
0010
0000
0100
0000
,
0010
0000
0000
0000
,
0010
0000
0000
0000
,
0100
0000
0000
0000
,
0100
0000
0010
0000
,
1000
0000
0000
0000
,
0010
0000
0000
0000
,
0100
0000
0000
0000
,
0001
0000
0000
0000
,
1000
0000
0000
0000
,
0100
0000
0000
0000
,
0010
0000
0000
0000
,
0001
0000
0100
0000
,
0001
0000
0000
0000
,
0010
0000
0000
0000
,
0100
0000
0000
0000
,
1000
0000
0000
0000
,
0001
0000
0000
0000
,
0100
0000
0000
0000
,
0010
0000
0000
0000
,
1000
0000
0100
0000
,
1000
0000
0000
0000
,
1000
0000
0000
0000
,
0001
0000
0000
0000
,
0001
0000
0000
0000
,
0100
0000
0000
0000
,
0100
0000
0000
0000
,
0010
0000
0000
0000
,
0010
0000
0000
0000
,
1000
0000
1000
0000
,
1000
0000
0000
0000
,
0001
0000
0001
0000
,
0001
0000
0000
0000
,
0100
0000
0100
0000
,
0100
0000
0000
0000
,
0010
0000
0010
0000
,
0010
0000
0000
0000
,
2000
0000
0000
0000
,
3000
0000
0000
0000
,
2000
0000
0000
0000
,
3000
0000
1000
0000
,
0002
0000
0000
0000
,
0003
0000
0000
0000
,
0002
0000
0000
0000
,
0003
0000
0001
0000
,
0200
0000
0000
0000
,
0300
0000
0000
0000
,
0200
0000
0000
0000
,
0300
0000
0100
0000
,
0020
0000
0000
0000
,
0030
0000
0000
0000
,
0020
0000
0000
0000
,
0030
0000
0010
0000
,
1000
0000
0000
0000
,
0001
0000
0000
0000
,
0100
0000
0000
0000
,
0010
0000
0000
0000
,
1000
0000
1000
0000
,
0001
0000
0001
0000
,
0100
0000
0100
0000
,
0010
0000
0010
0000
,
0100
0000
0100
0000
,
0001
0000
0001
0000
,
1000
0000
1000
0000
,
0010
0000
0000
0000
,
1000
0000
1000
0000
,
0100
0000
0100
0000
,
0010
0000
0010
0000
,
0001
0000
0001
0000
,
0100
0000
0100
0000
,
0010
0000
0010
0000
,
1000
0000
0000
0000
,
0001
0000
0000
0000
,
2000
0000
0000
0000
,
3000
0000
0000
0000
,
0002
0000
0000
0000
,
0003
0000
0000
0000
,
0200
0000
0000
0000
,
0300
0000
0000
0000
,
0020
0000
0000
0000
,
0030
0000
0000
0000
,
1000
0000
0100
0000
,
0001
0000
0100
0000
,
1000
0000
0100
0000
,
0001
0000
0100
0000
,
0001
0000
0010
0000
,
1000
0000
0010
0000
,
0001
0000
0000
0000
,
0010
0000
0000
0000
,
2002
0000
0000
0000
,
0000
0000
0000
0000
,
0000
0000
0000
0000
,
0000
0000
3003
0000
,
1000
0000
0100
0000
,
1000
0000
0100
0000
,
0010
0000
0001
0000
,
0010
0000
0000
0000
,
0001
0000
0100
0000
,
0001
0000
0100
0000
,
0010
0000
1000
0000
,
0010
0000
1000
0000
,
0100
0000
1000
0000
,
0100
0000
1000
0000
,
0001
0000
0000
0000
,
1000
0000
0000
0000
,
0001
0000
0000
0000
;

//---------------dance-single - ----------------
#NOTES:
     dance-single:
     :
     Easy:
     5:
     0.238240,0.295418,0.042354,0.217063,0.000000,315.000000,307.000000,8.000000,41.000000,0.000000,0.000000,0.238240,0.295418,0.042354,0.217063,0.000000,315.000000,307.000000,8.000000,41.000000,0.000000,0.000000:
0000
0000
0000
0000
,
0000
0000
0000
0000
,
0000
0000
0000
0000
,
0000
0000
0000
0000
,
1000
0000
1000
0000
,
0001
0000
0001
0000
,
0100
0000
0100
0000
,
0020
0000
0000
0030
,
1000
0100
1000
0000
,
0001
0010
0001
0000
,
0100
0001
0100
0000
,
0010
1000
0010
0100
,
0001
0010
0001
0000
,
1000
0100
1000
0000
,
0010
1000
0010
0000
,
0100
0001
0010
0100
,
1000
0010
1000
0000
,
0001
0100
0001
0000
,
0010
0001
0010
0000
,
0100
1000
0100
0010
,
0001
0100
0001
0000
,
1000
0010
1000
0000
,
0100
1000
0100
0000
,
0010
0001
0100
0010
,
1000
0000
0100
0000
,
0001
0010
0001
0000
,
0200
0000
1300
0000
,
0020
0000
0031
0000
,
0100
0000
1000
0000
,
0010
0001
0010
0000
,
0200
0000
0301
0000
,
0020
0000
2030
0000
,
3001
0000
0010
0000
,
1000
0100
1000
0000
,
0020
0000
0031
0000
,
0200
0000
1300
0000
,
0010
0000
0001
0000
,
0100
1000
0100
0000
,
0020
0000
1030
0000
,
0200
0000
0302
0000
,
2003
0000
3100
0000
,
0002
0000
0103
0000
,
0020
0000
0100
0000
,
0130
0000
0200
0000
,
2300
0000
0001
0000
,
0001
0000
3001
0000
,
0002
0000
1000
0000
,
1003
0000
0000
0000
,
1000
0100
1000
0000
,
1000
0100
1000
0000
,
0001
0010
0001
0000
,
0001
0010
0001
0000
,
0100
0001
0100
0000
,
0100
0001
0100
0000
,
0010
1000
0010
0000
,
0010
1000
0010
0000
,
2000
0000
0000
0000
,
3200
0000
0000
0000
,
0320
0000
0000
0000
,
0031
0000
1000
0000
,
0002
0000
0000
0000
,
0203
0000
0000
0000
,
0320
0000
0000
0000
,
1030
0000
0001
0000
,
2000
0000
0010
0000
,
3020
0000
0100
0000
,
0230
0000
0001
0000
,
0301
0000
1000
0000
,
0002
0000
0010
0000
,
0023
0000
0100
0000
,
0230
0000
1000
0000
,
1300
0000
0001
0000
,
1000
0010
0100
0000
,
0001
0010
0100
0000
,
1000
0100
0010
0000
,
0200
0000
0000
0300
,
1000
0010
0100
0001
,
1000
0100
0010
0001
,
1000
0010
0001
0010
,
1000
0001
0010
0100
,
1000
0001
0100
0010
,
1000
0001
0010
1000
,
0010
0001
1000
0010
,
0200
0000
0000
0300
,
0001
0100
0010
1000
,
0001
0010
0100
1000
,
0001
0010
1000
0010
,
0001
1000
0010
0100
,
0001
1000
0100
0010
,
0001
1000
0010
0001
,
0020
0000
0000
0030
,
0200
0000
0000
0300
,
0001
0000
1001
0000
,
1000
0000
1001
0000
,
0010
0000
0110
0000
,
0100
0000
0110
0000
,
0001
0000
0101
0000
,
1000
0000
1010
0000
,
0100
0000
1100
0000
,
0020
0000
0000
0030
,
1000
0100
0001
0100
,
1000
0010
0001
0010
,
1000
0100
0010
0001
,
0100
1000
0001
0010
,
1000
0001
0010
1000
,
0010
0001
0100
1000
,
0200
0000
0000
0300
,
0020
0000
0000
0030
,
2002
0000
0000
0000
,
0000
0000
0000
0000
,
0000
0000
0000
0000
,
0000
0000
0000
3003
,
1000
0100
1000
0100
,
0010
0001
0010
0001
,
0100
0001
0100
0001
,
2000
0000
0000
3000
,
0001
0010
0001
0010
,
0100
1000
0100
1000
,
0010
1000
0010
1000
,
0001
0100
0010
1000
,
0100
0010
0100
0010
,
0001
1000
0001
1000
,
0200
0000
0000
0300
,
0020
0000
0000
0030
,
0001
0000
0000
0000
;

//---------------dance-single - ----------------
#NOTES:
     dance-single:
     :
     Medium:
     8:
     0.349419,0.459539,0.068825,0.243534,0.000000,462.000000,449.000000,13.000000,46.000000,0.000000,0.000000,0.349419,0.459539,0.068825,0.243534,0.000000,462.000000,449.000000,13.000000,46.000000,0.000000,0.000000:
0000
0000
0000
0000
,
0000
0000
0000
0000
,
0000
0000
0000
0000
,
0000
0000
0000
0000
,
1000
1000
0001
0001
,
0010
0010
0001
0001
,
1000
1000
0010
0010
,
0200
0000
0000
0300
,
0001
0001
0010
0100
,
1000
1000
0010
0100
,
0010
0010
1000
0001
,
0010
0010
0100
0100
,
0010
0010
0001
1000
,
0100
0100
1000
0001
,
1000
1000
0010
0100
,
0001
0001
1000
0010
,
1000
1000
0100
0010
,
0001
0001
0100
0010
,
0100
0100
0001
1000
,
0100
0100
0010
0010
,
0100
0100
1000
0001
,
0010
0010
0001
1000
,
0001
0001
0100
0010
,
1000
1000
0001
0100
,
0002
0000
0010
0000
,
1003
0200
1000
0000
,
0320
0000
0001
0000
,
0032
0000
1000
0000
,
0203
0000
0010
0000
,
0301
2000
0001
0000
,
3020
0000
1000
0000
,
0230
0000
0000
0000
0302
0000
1003
0001
,
2000
0000
0100
0000
,
3001
0020
0001
0000
,
0230
0000
1000
0000
,
2300
0000
0001
0000
,
3020
0000
0100
0000
,
1030
0002
1000
0000
,
0203
0000
0001
0000
,
0320
0000
0000
0000
1030
0001
1000
0001
,
2000
0100
0100
0000
,
3002
0100
0100
0000
,
0023
0100
0100
0000
,
0100
0100
0032
1000
,
2003
0010
0010
0000
,
0010
0010
0010
0000
,
3002
0010
0010
0000
,
0013
0000
0000
0000
,
1000
0000
0100
0000
1000
0100
1000
0000
,
0100
0000
0010
0000
0100
0010
0100
0000
,
0010
0000
0001
0000
0010
0001
0010
0000
,
0001
0100
0001
1000
,
0001
0000
0100
0000
0001
0100
0001
0000
,
0100
0000
0010
0000
0100
0010
0100
0000
,
0010
0000
1000
0000
0010
1000
0010
0000
,
1000
0001
1000
0000
0001
0010
0100
1000
,
0002
0000
0000
0000
0000
0100
0000
0000
,
0203
0000
0000
0000
0000
0010
0000
0000
,
0320
0000
0000
0000
0000
1000
0000
0000
,
2030
0000
3002
0000
,
2003
0000
0000
0000
0000
0100
0000
0000
,
3200
0000
0000
0000
0000
0010
0000
0000
,
0320
0000
0000
0000
0000
0001
0000
0000
,
0032
0000
2003
0000
,
3001
0000
0100
0000
0001
0100
0000
0000
,
0010
0000
1000
0000
0010
1000
0000
0000
,
0100
0000
1000
0000
0100
1000
0000
0100
,
1000
1000
0001
0001
,
1000
0000
0100
0000
1000
0100
0000
0000
,
0010
0000
0001
0000
0010
0001
0000
0000
,
0100
0000
0001
0000
0100
0001
0000
0100
,
0001
0001
1000
1000
,
0001
0010
0100
1000
,
0001
0100
0010
1000
,
0001
0010
0100
1000
,
0020
0000
0000
0030
,
1000
0000
0100
0000
0010
0001
0010
0000
,
0001
0000
0100
0000
0010
1000
0010
0000
,
0100
0000
0001
0000
0010
0100
0010
0000
,
0100
1000
0100
0000
1000
0001
1000
0000
,
0010
0000
0100
0000
0001
0010
0100
0000
,
0010
0000
0001
0000
1000
0100
0010
0000
,
0001
0000
0100
0000
0010
1000
0001
0000
,
0020
0100
0001
0130
,
0001
0000
0100
0000
0010
1000
0001
0000
,
0010
0000
0100
0000
0010
0001
1000
0000
,
0010
0000
0100
0000
0001
0010
0100
0000
,
1000
0010
0100
0000
0010
1000
0100
0000
,
0010
0000
0001
0000
1000
0100
0001
0000
,
0100
0000
1000
0000
0001
0010
1000
0000
,
0020
0001
0100
0031
,
0200
1000
0010
1300
,
0010
0001
1001
0000
,
0100
1000
1001
0000
,
1000
0010
0110
0000
,
0001
0100
0110
0010
,
1000
0001
0011
0000
,
0001
1000
1100
0000
,
0010
0100
0101
0000
,
0200
0010
0001
0310
,
0001
0000
1001
0000
0010
0100
0001
0000
,
1000
0000
1001
0000
0010
0100
1000
0000
,
0010
0000
0110
0000
0001
0100
0010
0000
,
1000
0100
0010
0000
0100
1000
0010
0000
,
0100
0000
0101
0000
1000
0010
0001
0000
,
0010
0000
1010
0000
0001
0100
1000
0000
,
0200
0001
0010
0301
,
0020
0100
1000
0130
,
2002
0000
0000
0000
,
0000
0000
0000
0000
,
0000
0000
0000
0000
,
0000
0000
0000
3003
,
1000
0000
0100
0000
0010
0001
0100
0000
,
0010
0000
1000
0000
0001
0010
0100
0000
,
0010
0000
0001
0000
1000
0010
0100
0000
,
0002
0010
1000
0103
,
1000
0000
0010
0000
0100
0001
0010
0000
,
0100
0000
1000
0000
0010
0100
0001
0000
,
1000
0000
0100
0000
0010
0001
1000
0000
,
0010
0000
0100
0000
0001
1000
0001
1000
,
0001
0000
0010
0000
0100
1000
0010
0000
,
0100
0000
0001
0000
1000
0100
0010
0000
,
0002
0100
1000
0013
,
2000
0100
0001
3010
,
0001
0000
0000
0000
;
