#TITLE:Frame Skip;
#SUBTITLE:;
#ARTIST:DeBisco;
#TITLETRANSLIT:;
#SUBTITLETRANSLIT:;
#ARTISTTRANSLIT:;
#GENRE:;
#CREDIT:;
#BANNER:Frame Skip.png;
#BACKGROUND:Frame Skip-bg.png;
#LYRICSPATH:;
#CDTITLE:cdtitle.png;
#MUSIC:Frame Skip.ogg;
#OFFSET:-0.388000;
#SAMPLESTART:68.516998;
#SAMPLELENGTH:15.000000;
#SELECTABLE:YES;
#BPMS:0.000000=155.000000
;
#STOPS:
;
#BGCHANGES:;
#KEYSOUNDS:;
#ATTACKS:;

//---------------dance-single - ----------------
#NOTES:
     dance-single:
     :
     Beginner:
     4:
     0.147368,0.209841,0.008817,0.114619,0.000000,117.000000,116.000000,1.000000,13.000000,0.000000,0.000000,0.147368,0.209841,0.008817,0.114619,0.000000,117.000000,116.000000,1.000000,13.000000,0.000000,0.000000:
0000
0000
0000
0000
,
0000
0000
0000
0000
,
0000
0000
0000
0000
,
0000
0000
0000
0000
,
1000
0000
0000
0000
,
1000
0000
0000
0000
,
0001
0000
0000
0000
,
0001
0000
0000
0000
,
1000
0000
1000
0000
,
1000
0000
1000
0000
,
0001
0000
0001
0000
,
0001
0000
0001
0000
,
0100
0000
0100
0000
,
0100
0000
0100
0000
,
0010
0000
0010
0000
,
0010
0000
0010
0000
,
1000
0000
1000
0000
,
0001
0000
0001
0000
,
0010
0000
0010
0000
,
0100
0000
0100
0000
,
0010
0000
0010
0000
,
0001
0000
0001
0000
,
1000
0000
1000
0000
,
0100
0100
0100
0000
,
2002
0000
0000
0000
,
0000
0000
0000
0000
,
0000
0000
0000
0000
,
0000
0000
3003
0000
,
2000
0000
0000
0000
,
0000
0000
3000
0000
,
0002
0000
0000
0000
,
0000
0000
0003
0000
,
0200
0000
0000
0000
,
0000
0000
0300
0000
,
0020
0000
0000
0000
,
0000
0000
0030
0000
,
1000
0000
1000
0000
,
1000
0000
1000
0010
,
0001
0000
0001
0000
,
0001
0000
0001
0010
,
1000
0000
1000
0000
,
0001
0000
0001
0000
,
1000
0001
1000
0001
,
1000
0000
0000
0000
,
0001
0100
0000
0001
,
0000
1000
0000
0100
,
0010
0001
0000
0100
,
0000
0010
0000
1000
,
0100
1000
0000
0010
,
0000
0100
0000
0001
,
1000
0010
0000
1000
,
0000
0001
0010
0000
,
0001
0100
0000
0010
,
1000
0100
1000
0000
,
1000
0010
0000
0100
,
0001
0010
0001
0000
,
0001
1000
0000
0100
,
0010
0001
0000
0100
,
0010
1000
0000
0001
,
0100
0100
0100
0000
,
0000
0000
0002
0000
,
0003
0000
2000
0000
,
3000
0000
0020
0000
,
0030
0000
0200
0000
,
0300
0001
0002
0000
,
0003
1000
2000
0000
,
3000
0100
0200
0000
,
0300
0000
0000
0000
,
0010
0000
0000
0000
;

//---------------dance-single - ----------------
#NOTES:
     dance-single:
     :
     Easy:
     7:
     0.269544,0.359728,0.123436,0.238055,0.000000,214.000000,200.000000,14.000000,27.000000,0.000000,0.000000,0.269544,0.359728,0.123436,0.238055,0.000000,214.000000,200.000000,14.000000,27.000000,0.000000,0.000000:
0000
0000
0000
0000
,
0000
0000
0000
0000
,
0000
0000
0000
0000
,
0000
0000
0000
0000
,
1001
0000
0000
0000
,
1001
0000
0000
0000
,
0110
0000
0000
0000
,
0110
0000
0000
0000
,
1000
0100
1000
0100
,
0010
0100
0010
0100
,
0010
0001
0010
0001
,
1000
0001
2000
0000
,
3001
0100
0001
0100
,
0010
0100
0010
0100
,
0010
1000
0010
1000
,
0001
1000
0002
0000
,
1003
0000
0100
0000
1000
0001
1000
0000
,
0100
0010
0001
0000
,
0001
0000
0100
0000
0001
1000
0001
0000
,
0100
0010
2000
0000
,
3001
0000
0010
0000
0100
1000
0100
0000
,
1000
0000
0010
0000
0100
0001
0100
0000
,
0001
0000
1000
0000
0010
0100
0010
0000
,
1000
0001
0110
0000
,
2002
0000
0000
0000
,
0000
0000
0000
0000
,
0000
0000
0000
0000
,
0000
0000
0000
3003
,
2000
0000
0000
0000
,
0000
0000
0000
0000
,
3002
0000
0000
0000
,
0000
0000
0000
0000
,
0203
0000
0000
0000
,
0000
0000
0000
0000
,
0320
0000
0000
0000
,
0230
0000
0000
0000
,
0301
0100
0000
0001
,
0000
1000
0000
0100
,
1000
0010
0000
1000
,
0000
0001
0000
0010
,
0001
0100
0010
1000
,
0001
0010
0100
1000
,
0001
0100
0001
0000
1000
0010
1000
0000
,
0100
0100
0100
0000
,
1000
0000
0001
0010
0001
0000
0100
0000
,
0010
0000
1000
0100
1000
0000
0001
0000
,
0100
0000
0010
1000
0010
0000
1000
0000
,
0100
0000
0010
0001
0020
0000
0000
0000
,
0031
0000
0100
0010
0100
0000
0010
0000
,
1000
0000
0001
0100
0001
0000
0010
0000
,
0100
0000
1000
0010
1000
0000
0100
0000
,
0010
0000
0001
1000
0002
0000
0000
0000
,
1003
0000
0010
0100
0010
0000
1000
0100
,
1000
0000
0001
0100
0001
0000
0000
0000
,
0001
0000
0100
0010
0100
0000
0001
0010
,
0001
0000
1000
0010
2000
0000
0000
0000
,
3001
0000
1000
0100
1000
0000
0001
0010
,
0001
0000
0100
0010
0100
0000
0010
0000
,
1000
0000
0001
0100
0001
0000
1000
0010
,
1000
0001
0110
0000
,
1000
0000
2002
3003
,
0001
0000
2002
3003
,
0100
0000
0220
0330
,
0010
0000
0220
0330
,
1000
1000
2002
3003
,
0001
0001
2002
3003
,
0010
0010
0220
0330
,
0100
0100
0100
0000
,
0010
0000
0000
0000
;

//---------------dance-single - ----------------
#NOTES:
     dance-single:
     :
     Medium:
     12:
     0.506340,0.569569,0.096986,0.387942,0.418801,402.000000,391.000000,11.000000,44.000000,0.000000,0.000000,0.506340,0.569569,0.096986,0.387942,0.418801,402.000000,391.000000,11.000000,44.000000,0.000000,0.000000:
0000
0000
0000
0000
,
0000
0000
0000
0000
,
0000
0000
0000
0000
,
0000
0000
0000
0000
,
1001
0000
0000
1000
0000
0000
1000
0000
0000
0000
0001
0000
0000
0100
0000
0000
,
0110
0000
0000
0010
0000
0000
0010
0000
0000
0000
0000
0000
0000
0000
0000
0000
,
1001
0000
0000
0001
0000
0000
0001
0000
0000
0000
1000
0000
0000
0000
0100
0000
,
0110
0000
0000
0010
0000
0000
0010
0000
0000
0000
0000
0000
0000
0000
0000
0000
,
2000
0000
3000
0001
0100
0000
0000
0000
0010
0000
0000
1000
0100
0000
0000
0000
,
0020
0000
0030
0001
1000
0000
0000
0000
0010
0000
0000
0100
0001
0000
1000
0000
,
0200
0000
0300
0010
0001
0000
0000
0000
0100
0000
0000
0010
1000
0000
0000
0000
,
0002
0000
0003
0010
0100
0000
0000
0000
1000
0001
0000
1000
0001
0000
0100
0000
,
0020
0000
0030
1000
0100
0000
0000
0000
0010
0000
0000
0001
0100
0000
0000
0000
,
2000
0000
3000
0100
0010
0000
0000
0000
1000
0000
0000
0001
0010
0000
0100
0000
,
0002
0000
0003
0100
0010
0000
0000
0000
0001
0000
0000
1000
0010
0000
0000
0000
,
0200
0000
0300
0001
1000
0000
0000
0000
0002
0000
0000
0000
0013
0000
0100
0000
,
2000
0010
3000
1000
0010
0000
0000
0000
0100
0001
0000
0100
0001
0000
0000
0000
,
0020
0001
0030
0010
0001
0000
0000
0000
1000
0000
0000
1000
0000
0000
1000
0000
,
0200
0010
0300
0100
0010
0000
0000
0000
0001
0100
0000
0001
0100
0000
0000
0000
,
0020
1000
0030
0010
1000
0000
0000
0000
0002
0000
0000
0023
0000
0000
0230
0000
,
2300
0010
3000
1000
0001
0000
0000
0000
0010
0100
0000
1000
0100
0000
0000
0000
,
0020
0001
0030
0010
0100
0000
0000
0000
1000
0001
0000
0100
0001
0000
0010
0000
,
0200
1000
0300
0001
0010
0000
0000
0000
0100
0010
0000
0001
1000
0000
0000
0000
,
0020
0000
1030
0001
1000
0000
0100
0000
0010
0000
0000
0001
0000
0000
1000
0000
,
2002
0000
0000
0000
,
0000
0000
0000
0000
,
0000
0000
0000
0003
,
3020
0000
0230
0000
,
0301
1000
0000
1000
0000
1000
0000
1000
,
0000
0001
0000
0001
0000
0001
0000
0001
,
0000
0010
0000
0010
0000
0010
0000
0010
,
0000
0100
0000
0100
0000
0100
0000
0100
,
0000
1000
0000
1000
0000
0010
0000
0010
,
0000
0100
0000
0100
0000
0001
0000
0001
,
0020
0000
0000
0000
,
0230
0000
0000
0000
0000
0000
0000
0000
0010
0000
0000
0010
0000
0000
0010
0000
,
0310
0000
0001
0000
1000
0000
0000
0010
0000
0000
0100
0000
0001
0000
0000
1000
,
0000
0000
0100
0000
0010
0000
0000
0001
0000
0000
0001
0000
0010
0000
0100
0000
,
0000
0000
1000
0000
0001
0000
0000
0010
0000
0000
1000
0000
0010
0000
0000
0100
,
0000
0000
1000
0000
0010
0000
0000
0001
0000
0000
0001
0000
0010
0000
1000
0000
,
0001
0100
0010
1000
0010
0100
0010
0000
,
1000
0100
0010
0001
0010
0100
0010
0000
,
0001
0100
0010
0100
1000
0001
0010
0100
,
0010
0000
0000
0000
0110
0000
0000
1000
0000
0001
0000
0000
1001
0000
0000
0000
,
1000
0000
0100
0000
0010
0000
0001
1000
0000
0000
0010
0000
0100
0000
0001
0010
,
0000
0000
0100
0000
1000
0000
0001
0100
0000
0000
0100
0000
1000
0000
0100
0000
,
0001
0000
0010
0000
0100
0000
1000
0001
0000
0000
0100
0000
0010
0000
1000
0100
,
0000
0000
0010
0000
0001
0000
1000
0010
0000
0000
0010
0000
0100
0010
0100
0000
,
0010
0000
1000
0000
0100
0000
0010
0001
0000
0000
1000
0000
0010
0000
0100
0001
,
0000
0000
0010
0000
0100
0000
1000
0001
0000
0000
0001
0000
0100
0000
1000
0000
,
0100
0000
0001
0000
0010
0000
0100
1000
0000
0000
0001
0000
0100
0000
0010
1000
,
0000
0000
0100
0000
0010
0000
0001
0000
2000
0000
0000
0000
3001
1000
0001
0000
,
1000
0000
0020
0000
1000
0000
1030
0010
0000
0000
0200
0000
0001
0000
0301
0100
,
0000
0000
0002
0000
0010
0000
0013
0001
1000
0000
0000
1000
0000
0000
1000
0000
,
0001
0000
2000
0000
0010
0000
3010
1000
0000
0000
0002
0000
0100
0000
0103
0001
,
0000
0000
0020
0000
0001
0000
0031
0010
0000
0000
0010
0000
0100
0010
0100
0000
,
0010
0000
0002
0000
0100
0000
0103
0010
0000
0000
2000
0000
0100
0000
3100
0010
,
0000
0000
0200
0000
1000
0000
1300
0010
0000
0000
0010
0000
0001
0000
0010
0000
,
1000
0000
0200
0000
0010
0000
0310
0001
0000
0000
2000
0000
0001
0000
3001
0000
,
0100
0000
0001
1000
0001
0000
0010
0000
0100
0000
0000
1000
0000
0000
0001
0000
,
1000
0000
0000
1000
0000
0000
1000
0000
0002
0000
0000
0000
0000
0000
0103
0000
,
0001
0000
0000
0001
0000
0000
0001
0000
2000
0000
0000
0000
3010
0000
1000
0000
,
0010
0000
0000
0010
0000
0000
0010
0000
0200
0000
0000
0000
0000
0000
0310
0000
,
0100
0000
0000
0100
0000
0000
0100
0000
0020
0000
0000
0000
1030
0000
0010
0000
,
1000
0000
0000
1000
0000
0000
1000
0000
1002
0000
0000
0000
0000
0000
0013
0000
,
0001
0000
0000
0001
0000
0000
0001
0000
2001
0000
0000
0000
3010
0000
1000
0000
,
0010
0000
0000
0010
0000
0000
0100
0000
0000
0100
0000
0000
0001
0000
1000
0000
,
0100
0000
0000
0000
0110
0000
0000
1000
0000
0001
0000
0000
1001
0000
0000
0000
,
0010
0000
0000
0000
;

//---------------dance-single - ----------------
#NOTES:
     dance-single:
     :
     Hard:
     15:
     0.699051,0.899320,0.440843,0.546646,0.634814,555.000000,505.000000,50.000000,62.000000,0.000000,0.000000,0.699051,0.899320,0.440843,0.546646,0.634814,555.000000,505.000000,50.000000,62.000000,0.000000,0.000000:
// measure 0
0000
0000
0000
0000
,  // measure 1
0000
0000
0000
0000
,  // measure 2
0000
0000
0000
0000
,  // measure 3
0000
0000
0000
0000
,  // measure 4
1001
0000
0000
1000
0000
0000
1000
0000
0000
0000
1100
0000
0000
0011
0000
0000
,  // measure 5
1001
0000
0000
0001
0000
0000
0001
0000
0000
0000
0000
0000
0000
0000
0000
0000
,  // measure 6
0110
0000
0000
0010
0000
0000
0010
0000
0000
0000
1010
0000
0000
0000
0101
0000
,  // measure 7
0110
0000
0000
0100
0000
0000
0100
0000
0000
0000
0000
0000
0000
0000
0000
0000
,  // measure 8
2000
0000
3001
0010
0001
0000
1000
0000
0010
0000
0100
0001
0100
0000
0001
0000
,  // measure 9
0020
0000
0130
1000
0100
0000
0010
0000
0001
0000
1000
0010
1000
0000
1001
0000
,  // measure 10
0002
0000
1003
0100
1000
0000
0001
0000
0100
0000
0010
1000
0010
0000
1000
0000
,  // measure 11
0200
0000
0310
0001
0010
0000
0100
0000
1000
0001
0000
1000
0001
0000
0100
0010
,  // measure 12
2000
0000
3100
0010
0001
0000
0100
0000
0010
0000
0100
0001
1000
0000
0100
0000
,  // measure 13
0020
0000
0031
0100
0010
0000
1000
0000
0100
0000
0010
0100
1000
0000
1001
0000
,  // measure 14
0002
0000
1003
0010
0100
0000
0001
0000
0010
0000
0100
1000
0001
0000
1000
0000
,  // measure 15
0200
0000
0310
0001
0100
0000
0010
0000
1000
0100
1000
0000
0001
0010
0001
0000
,  // measure 16
2000
0010
3000
1000
0010
0000
0100
0000
0001
0010
0000
0001
0010
0000
0001
0000
,  // measure 17
0200
0001
0300
0100
0001
0000
1000
0000
1100
0000
0000
0011
0000
0000
1001
0000
,  // measure 18
0002
0100
0003
0001
0100
0000
0010
0000
1000
0100
0000
1000
0100
0000
1000
0000
,  // measure 19
0020
0100
0030
0010
0100
0000
0001
0000
2000
0000
0000
3200
0000
0000
0320
0000
,  // measure 20
0032
0100
0003
0001
1000
0000
0100
0000
0010
0001
0000
0010
0100
0000
1000
0000
,  // measure 21
0020
0100
0030
0010
1000
0000
0100
0000
0010
0001
0000
0100
0001
0000
1001
0000
,  // measure 22
2000
0100
3000
0010
0001
0000
1000
0000
0010
0100
0000
0001
1000
0000
0100
0000
,  // measure 23
0020
0000
0031
1000
0001
0000
1000
0000
1010
0000
0000
0101
0000
0000
0110
0000
,  // measure 24
2002
0000
0003
0200
,  // measure 25
0000
0000
0000
0000
,  // measure 26
0000
0000
0000
3000
,  // measure 27
0320
0000
0000
0032
0000
0000
1003
0001
1000
0001
1000
0000
,  // measure 28
0002
1000
0000
1000
0000
1000
0000
1000
,  // measure 29
0000
0100
0000
0100
0000
0100
0000
0100
,  // measure 30
0203
0001
0000
0001
0000
0001
0000
0001
,  // measure 31
0000
0010
0000
0010
0000
0010
0000
0010
,  // measure 32
0320
0100
0000
0100
0000
0100
0000
0100
,  // measure 33
0000
1000
0000
1000
0000
1000
0000
1000
,  // measure 34
2030
0000
0000
0000
,  // measure 35
3002
0000
0000
0000
0000
0000
0003
0000
0011
0000
0000
1100
0000
0000
0110
0000
,  // measure 36
1001
0000
1000
0000
0010
0000
0100
0001
0000
0000
1000
0000
0100
0000
0010
0001
,  // measure 37
0000
0000
0100
0000
0010
0000
1000
0001
0000
0000
0001
0000
0010
0000
1000
0000
,  // measure 38
0010
0000
0001
0000
0100
0000
0010
1000
0000
0000
0001
0000
0010
0000
0100
1000
,  // measure 39
0000
0000
0010
0000
0100
0000
0001
1000
0000
0000
1000
0000
0100
0010
0100
0010
,  // measure 40
0001
0100
0001
0100
1000
0100
1000
0100
,  // measure 41
0010
0001
0010
0001
0010
1000
0010
1000
,  // measure 42
0001
0010
0001
0010
0100
1000
0100
1000
0100
0010
0100
0010
0001
1000
0001
1000
,  // measure 43
0001
0000
0001
0000
0101
0000
0100
0010
1000
0010
0100
0000
0101
0000
0001
0000
,  // measure 44
1001
0000
1000
0000
0100
0000
0010
0001
0000
1000
0001
0000
0100
0000
0010
1000
,  // measure 45
0000
0100
1000
0000
0001
0000
0100
0010
0000
0100
0002
0000
0023
0000
0230
0000
,  // measure 46
1300
0000
0010
0000
0100
0000
0001
0010
0000
0001
0100
0000
0010
0000
1000
0001
,  // measure 47
0000
1000
0100
0000
1000
0000
0010
0100
0001
1000
0001
0100
0001
1000
0001
0100
,  // measure 48
0001
0000
0010
0000
0100
0000
1000
0010
0000
0001
0010
0000
0100
0000
0001
0010
,  // measure 49
0000
0100
1000
0000
0010
0000
0100
1000
0000
0100
0002
0000
0023
0000
0230
0000
,  // measure 50
1300
0000
0001
0000
0100
0000
0010
1000
0000
0001
0010
0000
0100
0000
0001
0100
,  // measure 51
0000
1000
0001
0000
0100
0000
0010
1000
0001
0010
0001
0000
1000
0100
1000
0000
,  // measure 52
1001
0000
0002
0000
0100
0000
0103
0001
0000
0001
2000
0000
0010
0000
3010
1000
,  // measure 53
0000
1000
0002
0000
0010
0000
0013
0000
0101
0000
0000
1010
0000
0000
0110
0000
,  // measure 54
1001
0000
2000
0000
0100
0000
3100
1000
0000
1000
0020
0000
0100
0000
0130
0010
,  // measure 55
0000
0010
2000
0000
0001
0000
3001
1000
0000
1000
0010
0000
1000
0100
0010
0001
,  // measure 56
1000
0000
0020
0000
0100
0000
0130
0001
0000
0001
2000
0000
0100
0000
3100
0010
,  // measure 57
0000
0010
0200
0000
1000
0000
1300
0001
0000
0001
0020
0000
0230
0000
2300
0000
,  // measure 58
3001
0000
0200
0000
0001
0000
0301
0010
0000
0010
0002
0000
1000
0000
1003
0010
,  // measure 59
0100
0000
0001
1000
0001
0000
1000
0000
1100
0000
0000
0011
0000
0000
0110
0000
,  // measure 60
0001
0000
0000
0001
0000
0000
0001
0000
2002
0000
0000
0000
0003
0000
3001
0000
,  // measure 61
1000
0000
0000
1000
0000
0000
1000
0000
2002
0000
3000
0000
0103
0010
0100
0010
,  // measure 62
0100
0000
0000
0100
0000
0000
0100
0000
0220
0000
0300
0000
2030
0000
3001
0100
,  // measure 63
0010
0000
0000
0010
0000
0000
0010
0000
0220
0000
0030
0000
0301
1000
0001
1000
,  // measure 64
0001
0000
0000
0011
0000
0000
1100
0000
2002
0000
0000
0000
0003
0000
3001
0000
,  // measure 65
1000
0000
0000
1010
0000
0000
0101
0000
2002
0000
3000
0000
0013
0100
0010
0100
,  // measure 66
0010
0000
0000
0011
0000
0000
1100
0000
0000
1010
0000
0000
0101
0000
0100
0010
,  // measure 67
1000
0000
1000
0000
1100
0000
0100
0010
0001
0010
0100
0000
1100
0000
1000
0000
,  // measure 68
1001
0000
0000
0000
;
