#VERSION:0.83;
#TITLE:Falling Stars;
#SUBTITLE:(Chugu Bam Bam);
#ARTIST:Jukio Kallio & Daniel Hagstrom;
#TITLETRANSLIT:;
#SUBTITLETRANSLIT:;
#ARTISTTRANSLIT:;
#GENRE:;
#ORIGIN:;
#CREDIT:;
#BANNER:Falling Stars (Chugu Bam Bam).png;
#BACKGROUND:Falling Stars (Chugu Bam Bam)-bg.png;
#PREVIEWVID:;
#JACKET:Falling Stars (Chugu Bam Bam)-jacket.png;
#CDIMAGE:Falling Stars (Chugu Bam Bam).png;
#DISCIMAGE:;
#LYRICSPATH:;
#CDTITLE:cdtitle.png;
#MUSIC:Falling Stars (Chugu Bam Bam).ogg;
#OFFSET:-0.413000;
#SAMPLESTART:84.413002;
#SAMPLELENGTH:15.000000;
#SELECTABLE:YES;
#BPMS:0.000=160.000;
#STOPS:;
#DELAYS:;
#WARPS:;
#TIMESIGNATURES:0.000=4=4;
#TICKCOUNTS:0.000=4;
#COMBOS:0.000=1;
#SPEEDS:0.000=1.000=0.000=0;
#SCROLLS:0.000=1.000;
#FAKES:;
#LABELS:0.000=Song Start;
#LASTSECONDHINT:177.787994;
#BGCHANGES:;
#KEYSOUNDS:;
#ATTACKS:
;

//---------------dance-single - ----------------
#NOTEDATA:;
#CHARTNAME:;
#STEPSTYPE:dance-single;
#DESCRIPTION:;
#CHARTSTYLE:;
#DIFFICULTY:Challenge;
#METER:16;
#RADARVALUES:0.852223,0.965878,0.601345,0.164971,1.048363,1121.000000,1008.000000,113.000000,31.000000,0.000000,0.000000,0.000000,0.000000,0.000000,0.852223,0.965878,0.601345,0.164971,1.048363,1121.000000,1008.000000,113.000000,31.000000,0.000000,0.000000,0.000000,0.000000,0.000000;
#CREDIT:;
#NOTES:
0000
0000
0000
0000
,
0000
0000
0000
0000
,
0000
0000
0000
0000
,
0000
0000
0000
0000
,
2000
0000
0000
0100
0000
0000
0100
0000
0100
0000
0000
0001
0000
0000
0001
0000
,
3002
0000
0000
0010
0000
0000
0010
0000
0010
0000
0000
0100
0000
0000
0100
0000
,
0203
0000
0000
0001
0000
0000
0001
0000
0001
0000
0000
0010
0000
0000
0010
0000
,
0320
0000
0000
1000
0000
0000
1000
0000
0130
0000
0100
0000
0100
0000
0010
0100
,
0001
0000
0000
1000
0100
0000
1000
0000
0010
0000
0000
0100
0001
0000
0010
0001
,
0100
0000
0000
0010
1000
0000
0100
0000
0010
0100
0010
0100
0010
0000
0100
0010
,
0001
0000
0000
0100
0001
0000
0010
0000
0100
0000
0000
1000
0010
0000
1000
0100
,
0010
0000
0000
0001
0100
0000
0001
0000
0010
0000
0100
0000
1000
0000
0001
1000
,
0001
0000
0000
0100
0010
0000
0100
0000
1000
0000
0000
0100
0010
0000
0100
0001
,
1000
0000
0000
0100
0010
0000
0100
0000
1000
0001
1000
0001
1000
0000
0001
1000
,
0010
0000
0000
0100
0001
0000
0100
0000
0010
0000
0000
1000
0100
0000
1000
0001
,
0010
0000
0000
0010
0000
0000
0010
0000
0001
1000
0001
1000
0001
1000
0001
1000
,
0001
0000
0001
0000
0010
0100
0000
0100
1000
0000
1000
0000
0010
0100
0000
0100
,
0001
0000
0001
0000
0010
0100
0000
0100
1000
0000
1010
0000
0001
0000
0101
0000
,
0100
0000
0100
0000
0010
1000
0000
1000
0100
0000
0100
0000
0010
0001
0000
0001
,
0100
0101
0001
1001
1000
1010
0010
0110
,
0100
0000
0100
0000
0001
0010
0000
0010
0100
0000
0100
0000
1000
0010
0000
0010
,
0100
0000
0100
0000
0001
0010
0000
0010
0100
0000
1100
0000
0010
0000
0011
0000
,
0001
0000
0001
0000
1000
0010
0000
0010
1000
0000
1000
0000
0001
0010
0000
0010
,
0001
0000
1001
0000
0100
0000
0110
0000
0001
0010
0001
0010
0100
1000
0100
1000
,
0001
0000
0100
0000
0001
0100
0000
0001
0100
0000
0001
0100
0000
0001
0100
0000
,
0010
0000
1000
0000
0010
1000
0000
0010
1000
0000
0010
1000
0000
0010
1000
0000
,
0100
0000
1000
0000
0100
1000
0000
0100
1000
0000
0100
1000
0000
0100
1000
0000
,
0010
0000
0100
0000
0010
0100
0000
0010
0100
0000
0010
0100
0000
0010
0100
0000
,
0001
0000
0010
0000
0001
0100
0000
0001
0010
0000
0001
0100
0000
0001
0010
0000
,
0100
0000
1000
0000
0010
1000
0000
0100
1000
0000
0010
1000
0000
0100
1000
0000
,
0010
0000
0100
0000
0001
0100
0000
0010
0100
0000
0001
0100
0000
0010
0100
0000
,
0010
0000
1000
0000
0010
0100
0000
0010
1000
0100
1000
0100
0010
0001
0010
0001
,
2000
0000
0100
0000
0000
0100
0000
0000
0010
0000
0000
0010
0000
0000
0001
0000
,
3002
0000
0100
0000
0000
0100
0000
0000
1000
0000
0000
1000
0000
0000
0010
0000
,
0023
0000
0100
0000
0000
0100
0000
0000
1000
0000
0000
1000
0000
0000
0001
0000
,
0032
0000
0100
0000
0000
0010
0000
0000
2003
0000
0000
0010
0000
0000
0100
0000
,
3001
0000
0000
1000
0001
0000
1000
0000
0000
0000
0000
0000
0001
0000
0000
0000
,
0000
1000
0000
1000
,
0001
0010
0001
0010
0000
0010
0000
0010
0100
1000
0100
1000
0000
1000
0000
1000
,
0001
0000
0000
0100
0000
0000
0001
0000
0000
0100
0000
0000
0010
0000
0000
1000
0000
0000
0010
0000
0000
1000
0000
0000
0001
0000
0000
0010
0000
0000
0100
0000
0000
1000
0000
0000
0010
0000
0000
0000
0001
0000
0000
0000
0010
0000
0000
0000
,
2000
0100
0100
3100
,
1002
0100
0100
0103
,
0210
0001
0001
0301
,
0120
1030
2100
3001
,
1001
1100
1001
0011
,
0110
1010
0110
0101
,
1000
0001
1000
0100
1000
0001
1000
0100
0010
0001
0010
0100
0010
0001
0010
0100
,
1000
0010
0100
0001
0010
0100
1000
0100
0010
0000
0000
0001
1000
0000
1001
0000
,
0001
0010
0010
0010
0010
0010
0010
0010
0010
0010
0000
0000
,
1000
0000
0010
0000
0010
0000
0010
0000
0010
0000
0010
0000
0010
0000
0010
0000
0010
0000
0010
0000
0000
0001
0000
0000
,
1000
0100
0100
0100
0100
0100
0100
0100
0100
0100
0000
0000
,
1000
0000
0000
0010
0000
0000
0001
0000
1000
0000
0000
0100
0000
0000
0001
0000
,
0010
1000
1000
1000
1000
1000
1000
1000
1000
1000
0000
0000
,
0010
0000
0001
0000
0001
0000
0001
0000
0001
0000
0001
0000
0001
0000
0001
0000
0001
0000
0001
0000
0000
0010
0000
0000
,
0100
1000
1000
1000
1000
1000
1000
1000
1000
1000
0000
0000
,
0100
0000
0000
0001
0000
0000
0010
0000
1000
0001
1000
0001
1000
0001
1000
0001
,
1000
0100
1000
0100
1000
0000
0100
1000
0100
0000
1000
0100
0000
0100
1000
0000
,
0001
0010
0001
0010
0001
0000
0010
0001
0010
0000
0001
0010
0000
0010
0001
0000
,
0100
0010
0100
0010
0100
0000
0010
0100
0010
0000
0100
0010
0000
0010
1000
0000
,
0001
0100
0001
0100
0001
0000
0100
0001
0100
0000
0001
0100
0000
0100
0001
0000
,
1000
0010
1000
0010
1000
0000
0100
0010
0100
0000
1000
0010
0000
0010
1000
0000
,
0001
0010
0001
0010
0001
0000
1000
0100
1000
0000
0001
0100
0000
0100
0001
0000
,
0010
0100
0010
0100
0010
0000
0001
1000
0001
0000
0100
0010
0000
0010
0100
0000
,
0001
0010
0001
0010
0100
1000
0100
1000
0010
1000
0010
1000
0001
0100
0001
0100
,
0020
0000
0000
0230
,
0301
0000
0000
0000
,
0000
0000
0000
0000
0000
0000
0000
0000
2000
0000
0000
0000
3100
0010
0000
0100
,
0010
0000
0011
0000
0001
0100
0000
0100
0010
0000
1010
0000
1000
0100
0000
0100
,
0010
0011
0001
0101
0100
0110
0010
1010
,
1000
0000
1001
0000
0001
0010
0000
0010
0100
0000
1001
0000
1000
0010
0000
0010
,
0100
0000
1001
0000
0001
0100
0000
0100
0010
1000
0000
0001
0100
0000
1001
0000
,
0010
0000
0110
0000
0100
0001
0000
0001
0010
0000
0110
0000
0100
1000
0000
1000
,
0010
0000
0110
0000
1000
0000
1001
0000
0010
0100
0010
0100
0001
1000
0001
1000
,
0010
0000
1010
0000
0000
0100
0000
0000
1100
0000
0000
0001
0000
0000
1001
0000
,
0100
0000
0101
0000
0000
0010
0000
0000
0011
0000
0000
1000
0000
0000
1001
0000
,
0010
0000
1010
0000
0000
1000
0000
0000
1100
0000
0000
0100
0000
0000
0110
0000
,
0010
0000
0011
0000
0000
0001
0000
0000
0101
0000
0000
0100
0000
0000
0110
0000
,
0010
0000
1010
0000
0000
1100
0000
0000
1010
0000
0000
1100
0000
0000
1010
0000
,
0100
0000
0101
0000
0000
0011
0000
0000
0101
0000
0000
0011
0000
0000
0101
0000
,
0010
0000
0110
0000
0000
0101
0000
0000
0110
0000
0000
1010
0000
0000
0110
0000
,
1000
0000
1001
0000
0000
0011
0000
0000
1001
0000
0000
1100
0000
0000
1001
0000
,
0001
0100
0000
0001
0000
0000
0010
0000
0100
1000
0000
0100
0000
0000
0010
0000
,
0001
1000
0000
0001
0000
0000
0100
0000
0010
1000
0000
0010
0000
0000
0100
0000
,
0001
0010
0000
0001
0000
0000
1000
0000
0100
0010
0000
0100
0000
0000
1000
0000
,
0010
0100
0000
0010
0000
0000
1000
0000
0001
0010
0000
0001
0000
0000
1000
0000
,
0010
0100
0000
0001
0000
0000
0010
0000
0100
1000
0000
0001
0000
0000
0100
0000
,
0010
0001
0000
0010
0000
0000
1000
0000
0001
0010
0000
0100
0000
0000
1000
0000
,
0010
0100
0000
0001
0000
0000
0010
0000
1000
0010
0000
0100
0000
0000
1000
0000
,
0001
0100
0000
0010
0000
0000
1000
0000
0100
0010
0000
0100
0000
0000
1000
0000
,
0002
0000
0000
0103
0000
0000
0010
1000
0010
0000
0000
1000
0000
0000
0001
0000
,
0020
0000
0000
0130
0000
0000
0010
0001
0010
0000
0000
0001
0000
0000
1000
0000
,
0200
0000
0000
0310
0000
0000
0100
1000
0100
0000
0000
1000
0000
0000
0001
0000
,
0200
0000
0000
0301
0000
0000
1000
0000
0100
0000
0000
0010
0000
0000
0001
0000
,
1002
0000
0000
0103
0000
0000
0010
1000
0010
0000
0000
1000
0000
0000
0001
0000
,
2001
0000
0000
3100
0000
0000
0010
0001
0010
0000
0000
0001
0000
0000
0100
0000
,
0120
0000
0000
1030
0000
0000
0001
0100
0001
0000
0000
0010
0000
0000
0100
0000
,
1000
0001
1000
0001
1000
0001
0011
1010
,
1000
1000
1000
0100
0100
0100
1000
1000
1000
0100
0000
0000
,
0010
0000
0010
0000
0010
0000
0001
0000
0001
0000
0001
0000
0010
0000
0010
0000
0010
0000
0001
0000
0000
1000
0000
0000
,
0010
0010
0010
1000
1000
1000
0010
0010
0010
1000
0000
0000
,
0001
0000
0000
0010
0000
0000
1000
0000
0001
0000
0000
0100
0000
0000
1000
0000
,
0001
0001
0001
0010
0010
0010
0100
0100
0100
1000
0000
0000
,
0010
0000
0010
0000
0010
0000
0100
0000
0100
0000
0100
0000
0001
0000
0001
0000
0001
0000
1000
0000
0000
0001
0000
0000
,
1000
1000
1000
0100
0100
0100
0010
0010
0010
0001
0000
0000
,
0100
0000
0000
1000
0000
0000
0010
0000
0001
0000
0000
1000
0001
0000
1000
0000
,
0001
0100
0010
0100
0001
0000
1000
0100
1000
0000
0001
0010
0000
0010
0001
0000
,
1000
0100
0010
0100
1000
0000
0010
0100
0001
0000
1000
0010
0000
0010
1000
0000
,
0001
0010
0100
1000
0010
0000
0100
0001
1000
0000
0100
0010
0000
0010
0001
0000
,
1000
0010
0100
0001
0010
0000
0100
1000
0001
0000
0100
0010
0000
0010
1000
0000
,
1001
0000
0100
0010
0100
0000
0010
0000
1001
0000
0010
0100
0010
0000
0100
0000
,
1001
0000
0001
1000
0001
0000
1000
0000
0110
0000
1000
0001
1000
0000
0001
0000
,
0011
0010
0110
0100
1100
1000
1001
0001
,
0202
0303
2020
3030
2200
3300
0020
0030
,
0011
0000
0000
1010
0000
0000
1001
0000
0101
0000
0000
1100
0000
0000
0001
0100
,
0001
0000
0000
0011
0000
0000
1001
0000
1100
0000
0001
0100
0001
0000
1000
0100
,
1000
0000
0000
0101
0000
0000
1001
0000
1010
0000
0000
0011
0000
0000
1000
0010
,
1000
0000
0000
1100
0000
0000
1001
0000
0011
0000
1000
0010
1000
0000
0001
0010
,
0001
0000
0000
1010
0000
0000
0110
0000
0101
0000
0000
1100
0000
0000
0001
0010
,
0100
0000
0000
0011
0000
0000
0110
0000
1100
0000
0001
0010
0100
0000
1000
0010
,
0100
0000
0000
0101
0000
0000
0110
0000
1010
0000
0000
0011
0000
0000
1000
0100
,
0010
0000
0000
1100
0000
0000
0110
0000
0010
0000
0010
0000
0010
0000
0100
1000
,
0001
0000
0000
0000
;

//---------------dance-single - ----------------
#NOTEDATA:;
#CHARTNAME:;
#STEPSTYPE:dance-single;
#DESCRIPTION:;
#CHARTSTYLE:;
#DIFFICULTY:Hard;
#METER:13;
#RADARVALUES:0.664445,0.708310,0.250117,0.170292,0.657223,874.000000,827.000000,47.000000,32.000000,0.000000,0.000000,0.000000,0.000000,0.000000,0.664445,0.708310,0.250117,0.170292,0.657223,874.000000,827.000000,47.000000,32.000000,0.000000,0.000000,0.000000,0.000000,0.000000;
#CREDIT:;
#NOTES:
0000
0000
0000
0000
,
0000
0000
0000
0000
,
0000
0000
0000
0000
,
0000
0000
0000
0000
,
0010
0000
0000
0010
0000
0000
0010
0000
1000
0000
0000
1000
0000
0000
1000
0000
,
0100
0000
0000
0100
0000
0000
0100
0000
0001
0000
0000
0001
0000
0000
0001
0000
,
0100
0000
0000
0100
0000
0000
0100
0000
1000
0000
0000
1000
0000
0000
1000
0000
,
0010
0000
0000
0010
0000
0000
0010
0000
0100
0000
0100
0000
0100
0000
0010
0100
,
0001
0000
0000
1000
0100
0000
1000
0000
0010
0000
0000
0100
0001
0000
0010
0000
,
0001
0000
0000
1000
0100
0000
1000
0000
0010
0000
0100
0000
0001
0000
0010
0000
,
0100
0000
0000
1000
0010
0000
1000
0000
0100
0000
0000
0010
0001
0000
0100
0000
,
0001
0000
0000
1000
0010
0000
1000
0000
0100
0000
1000
0000
0010
0000
0100
0000
,
0100
0000
0000
0001
0010
0000
0001
0000
0100
0000
0000
0010
1000
0000
0100
0000
,
1000
0000
0000
0001
0010
0000
0001
0000
0100
0000
0010
0000
1000
0000
0100
0000
,
0010
0000
0000
0001
0100
0000
0001
0000
0010
0000
0000
0100
1000
0000
0010
0000
,
1000
0000
0000
1000
0000
0000
1000
0000
0001
0000
0001
0000
0001
0000
0001
0000
,
0010
0000
0100
0000
1000
0010
0000
1000
0010
0000
0100
0000
0001
0010
0000
0001
,
0010
0000
0100
0000
1000
0010
0000
1000
0010
0000
1000
0000
0100
0000
1000
0000
,
0010
0000
0100
0000
0001
0010
0000
0001
0010
0000
0100
0000
1000
0010
0000
1000
,
0010
1000
0100
1000
0010
1000
0001
1000
,
0100
0000
0010
0000
0001
0100
0000
0001
0100
0000
0010
0000
1000
0100
0000
1000
,
0100
0000
0010
0000
0001
0100
0000
0001
0100
0000
0001
0000
0010
0000
0001
0000
,
0100
0000
0010
0000
1000
0100
0000
1000
0100
0000
0010
0000
0001
0100
0000
0001
,
0100
0001
0010
0001
0100
0100
0010
0010
,
1000
0000
0100
0000
0000
1000
0000
0000
0010
0000
0000
1000
0000
0000
0100
0000
,
0010
0000
0001
0000
0000
0100
0000
0000
0001
0000
0000
0010
0000
0000
0001
0000
,
1000
0000
0010
0000
0000
0100
0000
0000
0010
0000
0000
1000
0000
0000
0010
0000
,
0100
0000
0001
0000
0000
0100
0000
0000
0010
0000
0000
0100
0000
0000
0001
0000
,
0010
0000
0100
0000
0000
1000
0000
0000
0010
0000
0000
0100
0000
0000
0001
0000
,
0010
0000
0001
0000
0000
0100
0000
0000
0010
0000
0000
1000
0000
0000
0100
0000
,
0010
0000
0001
0000
0000
0010
0000
0000
0100
0000
0000
1000
0000
0000
0010
0000
,
0100
0000
0010
0000
0000
1000
0000
0000
0100
0000
0100
0000
0010
0000
0010
0000
,
0002
0000
0100
0000
0000
0100
0000
0000
0100
0000
0000
0100
0000
0000
1000
0000
,
2003
0000
0100
0000
0000
0100
0000
0000
0100
0000
0000
0100
0000
0000
0010
0000
,
3020
0000
0100
0000
0000
0100
0000
0000
0100
0000
0000
0100
0000
0000
1000
0000
,
2030
0000
0010
0000
0000
0010
0000
0000
3002
0000
0000
0010
0000
0000
1000
0000
,
1003
0000
0000
0001
1000
0000
0001
0000
0000
0000
0000
0000
1000
0000
0000
0000
,
0000
0001
0000
0001
,
1000
0000
0100
0010
0000
0010
0000
0010
0001
0000
0100
0010
0000
0010
0000
0010
,
1000
0000
0000
0100
0000
0000
0010
0000
0000
0001
0000
0000
0100
0000
0000
0010
0000
0000
1000
0000
0001
0000
1000
0000
,
0002
0010
0010
0010
,
2003
0010
0010
0010
,
3200
1000
1000
1000
,
0320
0001
0032
1003
,
1001
0101
1001
1010
,
0110
0011
0110
1100
,
0001
0010
1000
0010
0001
0100
1000
0100
,
0001
0000
0010
0000
0100
0000
1000
0000
0010
0000
0000
0100
0010
0000
0100
0000
,
0001
0010
0001
0010
0001
0010
0001
0010
0001
0010
0000
0000
,
0100
0000
1000
0000
0100
0000
1000
0000
0100
0000
1000
0000
0100
0000
1000
0000
0100
0000
1000
0000
0000
0010
0000
0000
,
0100
0001
0100
0001
0100
0001
0100
0001
0100
0001
0000
0000
,
1000
0000
0000
0010
0000
0000
0001
0000
1000
0000
0000
0100
0000
0000
0001
0000
,
1000
0010
1000
0010
1000
0010
1000
0010
1000
0010
0000
0000
,
0100
0000
0001
0000
0100
0000
0001
0000
0100
0000
0001
0000
0100
0000
0001
0000
0100
0000
0001
0000
0000
0010
0000
0000
,
0100
1000
0100
1000
0100
1000
0100
1000
0100
1000
0000
0000
,
0010
0000
0000
0001
0000
0000
0100
0000
1000
0000
1000
0000
1000
0000
1000
0000
,
0001
0000
0010
0000
0100
0000
1000
0000
0010
0000
0100
0001
0000
0100
0001
0000
,
1000
0000
0100
0000
0010
0000
0001
0000
0100
0000
0010
1000
0000
0010
1000
0000
,
0100
0000
1000
0000
0010
0000
0100
0000
0001
0000
0010
0100
0000
0010
0100
0000
,
0010
0000
0001
0000
0100
0000
0010
0000
1000
0000
0100
0010
0000
0100
0010
0000
,
0100
0000
1000
0000
0001
0000
0100
0000
0010
0000
1000
0100
0000
1000
0100
0000
,
0010
0000
0001
0000
1000
0000
0010
0000
0100
0000
0001
0010
0000
0001
0010
0000
,
0100
0000
1000
0000
0001
0000
0100
0000
0010
0000
1000
0001
0000
1000
0001
0000
,
0010
0000
0010
0000
0100
0000
0100
0000
1000
0010
1000
0010
0100
0001
0100
0001
,
0020
0000
0000
0230
,
1300
0000
0000
0000
,
0000
0000
0000
0000
0000
0000
0000
0000
0002
0000
0000
0000
0103
0010
0000
0100
,
0010
0000
1000
0000
0100
0010
0000
0100
0010
0000
0001
0000
0100
0010
0000
0100
,
0010
0100
0001
0100
0010
0100
1000
0100
,
0001
0000
0010
0000
0100
1000
0000
0100
1000
0000
0010
0000
0100
0001
0000
0100
,
0001
0000
0010
0000
0100
1000
0000
0100
1000
0010
0000
0100
0001
0000
1000
0000
,
0001
0000
0100
0000
0010
1000
0000
0010
1000
0000
0100
0000
0010
0001
0000
0010
,
0001
0010
0100
0010
0001
0001
0100
0100
,
0010
0000
1000
0000
0000
0100
0000
0000
0010
0000
0000
0001
0000
0000
1001
0000
,
0000
0000
0001
0000
0000
0100
0000
0000
0010
0000
0000
1000
0000
0000
1001
0000
,
0000
0000
0100
0000
0000
0010
0000
0000
0001
0000
0000
0100
0000
0000
0110
0000
,
0000
0000
0010
0000
0000
1000
0000
0000
0100
0000
0000
0010
0000
0000
0110
0000
,
0000
0000
0011
0000
0000
0001
0000
0000
0101
0000
0000
0001
0000
0000
1001
0000
,
0000
0000
1010
0000
0000
1000
0000
0000
1100
0000
0000
1000
0000
0000
1001
0000
,
0000
0000
0101
0000
0000
0100
0000
0000
0110
0000
0000
0010
0000
0000
1010
0000
,
0000
0000
1100
0000
0000
0100
0000
0000
0110
0000
0000
0010
0000
0000
0011
0000
,
0002
0000
0203
0000
,
0320
0000
2030
0000
,
3002
0000
0023
0000
,
0230
0000
2300
0000
,
3001
0000
0000
0100
0000
0000
0010
0000
1000
0000
0000
0100
0000
0000
0010
0000
,
0001
0000
0000
0100
0000
0000
1000
0000
0100
0000
0000
0001
0000
0000
1000
0000
,
0100
0000
0000
0010
0000
0000
0001
0000
0100
0000
0000
0010
0000
0000
1000
0000
,
0100
0000
0000
0001
0000
0000
0100
0000
1000
0000
0000
0010
0000
0000
0100
0000
,
0002
0000
0000
0013
0000
0000
0100
0000
0100
0000
0000
0010
0000
0000
0001
0000
,
2000
0000
0000
3010
0000
0000
0100
0000
0100
0000
0000
0010
0000
0000
1000
0000
,
0200
0000
0000
0310
0000
0000
0001
0000
0001
0000
0000
0100
0000
0000
0001
0000
,
0020
0000
0000
0130
0000
0000
1000
0000
0010
0000
0000
0100
0000
0000
0001
0000
,
1002
0000
0000
0103
0000
0000
0010
0000
0010
0000
0000
1000
0000
0000
0001
0000
,
2001
0000
0000
3100
0000
0000
0010
0000
0010
0000
0000
0001
0000
0000
0100
0000
,
0120
0000
0000
1030
0000
0000
0001
0000
0001
0000
0000
0010
0000
0000
0100
0000
,
1000
0001
1000
0001
1000
0001
0100
0010
,
1000
0100
1000
0100
1000
0100
1000
0010
1000
0010
0000
0000
,
0100
0000
0001
0000
0100
0000
0001
0000
0100
0000
0001
0000
0010
0000
0001
0000
0010
0000
0001
0000
0000
0100
0000
0000
,
0010
1000
0010
1000
0010
1000
0100
1000
0100
1000
0000
0000
,
0001
0000
0000
0010
0000
0000
1000
0000
0001
0000
0000
0100
0000
0000
1000
0000
,
0001
0010
0100
1000
0010
0100
0001
0010
0100
1000
0000
0000
,
0100
0000
0010
0000
0001
0000
0100
0000
0010
0000
1000
0000
0100
0000
0010
0000
0001
0000
0100
0000
0000
0010
0000
0000
,
1000
0010
0100
0001
0010
0100
1000
0010
0100
0001
0000
0000
,
0010
0000
0000
1000
0000
0000
0100
0000
0001
0000
0000
1000
0001
0000
1000
0000
,
0001
0000
0010
0000
0100
0000
1000
0000
0010
0000
0100
0001
0000
0010
0001
0000
,
1000
0000
0010
0000
0100
0000
0001
0000
0010
0000
0100
1000
0000
0010
1000
0000
,
0001
0000
0010
0000
0001
0000
0100
0000
0010
0000
1000
0100
0000
0010
0100
0000
,
1000
0000
0010
0000
1000
0000
0100
0000
0010
0000
0001
0100
0000
0010
0100
0000
,
1001
0001
0010
0100
1001
1000
0010
0100
,
0110
0010
1000
0100
0110
0010
0001
0100
,
0101
0011
1100
1010
,
0002
0023
0230
2300
,
3001
0000
0000
0101
0000
0000
0100
0000
0010
0000
0000
1010
0000
0000
1000
0000
,
0100
0000
0000
0110
0000
0000
0010
0000
0001
0000
0100
0000
0001
0000
0010
0000
,
0100
0000
0000
1100
0000
0000
1000
0000
0001
0000
0000
0011
0000
0000
0010
0000
,
0001
0000
0000
1001
0000
0000
1000
0000
0010
0000
0100
0000
0010
0000
1000
0000
,
0100
0000
0000
0110
0000
0000
0010
0000
0001
0000
0000
0101
0000
0000
0100
0000
,
0010
0000
0000
1010
0000
0000
1000
0000
0010
0000
0100
0000
0001
0000
0010
0000
,
0100
0000
0000
1100
0000
0000
1000
0000
0001
0000
0000
1001
0000
0000
1000
0000
,
0001
0000
0000
0011
0000
0000
0010
0000
0100
0000
0100
0000
0100
0000
0010
0001
,
1000
0000
0000
0000
;

//---------------dance-single - ----------------
#NOTEDATA:;
#CHARTNAME:;
#STEPSTYPE:dance-single;
#DESCRIPTION:;
#CHARTSTYLE:;
#DIFFICULTY:Medium;
#METER:10;
#RADARVALUES:0.441696,0.515135,0.159649,0.250117,0.276725,581.000000,551.000000,30.000000,47.000000,0.000000,0.000000,0.000000,0.000000,0.000000,0.441696,0.515135,0.159649,0.250117,0.276725,581.000000,551.000000,30.000000,47.000000,0.000000,0.000000,0.000000,0.000000,0.000000;
#CREDIT:;
#NOTES:
0000
0000
0000
0000
,
0000
0000
0000
0000
,
0000
0000
0000
0000
,
0000
0000
0000
0000
,
0010
0000
0000
0020
0000
0000
0000
0000
1030
0000
0000
2000
0000
0000
0000
0000
,
3001
0000
0000
0002
0000
0000
0000
0000
0013
0000
0000
0020
0000
0000
0000
0000
,
0130
0000
0000
0200
0000
0000
0000
0000
1300
0000
0000
2000
0000
0000
0000
0000
,
3010
0000
0000
0020
0000
0000
0000
0000
0230
0000
0000
0000
0000
0000
0000
0000
,
0301
0011
1000
1100
,
0010
0000
0110
0000
0100
0001
0010
0001
,
0100
0101
0010
1010
,
1000
0000
1001
0000
0001
0010
0001
1000
,
1000
1100
0001
0011
,
0100
0000
0110
0000
0010
1000
0100
1000
,
0010
1010
0100
0101
,
0001
0000
0000
0001
0000
0000
0001
0000
2000
0000
0000
0000
0000
0000
0000
0000
,
3001
0010
0001
0000
1000
0010
1000
0000
,
0100
0010
0100
0000
1000
0000
1010
0000
,
0100
0001
0100
0000
0010
1000
0010
0000
,
1000
1100
0001
0011
,
1000
0100
1000
0000
0001
0100
0001
0000
,
0010
0100
0010
0000
0001
0000
0101
0000
,
0010
1000
0010
0000
0100
0001
0100
0000
,
0001
0000
0011
0000
1000
0100
1000
0100
,
1000
0000
0001
0000
0000
0001
0000
0000
0001
0000
0000
0001
0000
0000
0001
0000
,
0000
0000
1000
0000
0000
1000
0000
0000
1000
0000
0000
1000
0000
0000
1000
0000
,
0000
0000
0010
0000
0000
0010
0000
0000
0010
0000
0000
0010
0000
0000
0010
0000
,
0000
0000
0100
0000
0000
0100
0000
0000
0100
0000
0000
0100
0000
0000
0100
0000
,
0000
0000
0001
0000
0000
0001
0000
0000
0010
0000
0000
0010
0000
0000
0001
0000
,
0000
0000
1000
0000
0000
1000
0000
0000
0100
0000
0000
0100
0000
0000
1000
0000
,
0000
0000
0010
0000
0000
0010
0000
0000
0100
0000
0000
0100
0000
0000
0010
0000
,
0000
0000
1000
0000
0000
1000
0000
0000
0001
0000
0010
0000
0001
0000
0010
0000
,
0002
0100
0100
0100
,
2003
0100
0100
0100
,
3020
0100
0100
0100
,
2030
0100
3002
0100
,
1003
0001
0000
0001
,
0000
1000
0000
1000
,
0001
0000
0000
0001
0000
0001
0000
0000
1000
0000
0000
1000
0000
1000
0000
0000
,
0001
0010
0001
0010
0100
1000
0200
0000
,
2300
0000
0000
0000
,
3002
0000
0000
0000
,
0203
0000
0000
0000
,
0320
0000
2030
0000
,
3001
0001
1000
1000
,
0010
0010
0100
0100
,
0001
0010
0001
0000
1000
0100
1000
0000
,
0010
0100
0010
0100
0010
0000
1001
0000
,
1000
0000
1000
0100
0000
0100
1000
0000
1000
0100
0000
0000
,
0010
0000
0010
0001
0000
0001
0010
0000
0010
0001
0000
0000
,
0100
0000
0100
0010
0000
0010
0100
0000
0100
0010
0000
0000
,
1000
0000
0000
1000
0000
0000
1000
0000
0001
0000
0000
0001
0000
0000
0001
0000
,
1000
0000
1000
0010
0000
0010
1000
0000
1000
0010
0000
0000
,
0100
0000
0100
0001
0000
0001
0100
0000
0100
0001
0000
0000
,
0010
0000
0010
0100
0000
0100
0010
0000
0010
0100
0000
0000
,
1000
0000
0000
1000
0000
0000
1000
0000
0002
0000
0000
0000
0000
0000
0000
0000
,
1003
0000
0010
0000
0100
0001
0100
0000
,
0001
0000
0010
0000
0100
1000
0100
0000
,
0010
0000
0100
0000
1000
0010
1000
0000
,
0010
0000
0100
0000
0001
0010
0001
0000
,
0100
0000
0010
0000
1000
0100
0010
0000
,
0001
0000
0100
0000
0010
0100
0001
0000
,
1000
0000
0100
0000
0010
0100
1000
0000
,
0002
0000
0203
0000
0310
0010
1000
1000
,
0200
0000
0000
0320
,
0031
0000
0000
0000
,
0000
0000
2000
3020
,
1030
0100
1000
0000
0001
0010
0001
0000
,
1000
1001
0001
1001
,
1000
0010
0100
0000
0001
0010
0100
0000
,
1000
0100
0010
0000
0001
0100
0010
0000
,
1000
0001
0010
0000
0001
1000
0010
0000
,
0100
0000
0110
0000
0001
0010
0001
0010
,
0001
0000
1000
0000
0000
0100
0000
0000
1000
0000
0000
0100
0000
0000
1000
0000
,
0000
0000
0001
0000
0000
0010
0000
0000
0001
0000
0000
0010
0000
0000
0001
0000
,
0000
0000
0100
0000
0000
0001
0000
0000
0100
0000
0000
0001
0000
0000
0100
0000
,
0000
0000
0010
0000
0000
1000
0000
0000
0010
0000
0000
1000
0000
0000
0010
0000
,
0000
0000
1000
0000
0000
0100
0000
0000
1000
0000
0000
0010
0000
0000
1000
0000
,
0000
0000
0001
0000
0000
0100
0000
0000
0001
0000
0000
0010
0000
0000
0001
0000
,
0000
0000
0100
0000
0000
0010
0000
0000
0100
0000
0000
0001
0000
0000
0100
0000
,
0000
0000
0010
0000
0000
1000
0000
0000
0010
0000
0000
0100
0000
0000
0010
0000
,
2000
0000
0000
0000
,
3002
0000
0000
0000
,
0203
0000
0000
0000
,
0320
0000
0000
0000
,
2030
0000
3200
0000
,
0320
0000
0032
0000
,
0203
0000
0320
0000
,
2030
0000
3100
0110
,
0001
0000
0000
0000
0000
0000
0000
0000
0001
0000
0000
0001
0000
0000
0001
0000
,
1000
0000
0000
0000
0000
0000
0000
0000
1000
0000
0000
1000
0000
0000
1000
0000
,
0010
0000
0000
0000
0000
0000
0000
0000
0010
0000
0000
0010
0000
0000
0010
0000
,
0100
0000
0000
0000
0000
0000
0000
0000
0100
0000
0000
0100
0000
0000
0100
0000
,
0001
0000
0000
0000
0010
0000
0000
0000
0001
0000
0000
0001
0000
0000
0001
0000
,
1000
0000
0000
0000
0100
0000
0000
0000
1000
0000
0000
1000
0000
0000
1000
0000
,
0010
0000
0000
0000
0100
0000
0000
0000
0010
0000
0000
0010
0000
0000
0010
0000
,
0100
0100
0100
1001
,
0001
0000
0001
0010
0000
0010
0001
0000
0001
0100
0000
0000
,
0010
0000
0010
1000
0000
1000
0100
0000
0100
1000
0000
0000
,
0010
0000
0010
0100
0000
0100
0010
0000
0010
1000
0000
0000
,
0001
0000
0000
0001
0000
0000
0001
0000
1000
0000
0000
1000
0000
0000
1000
0000
,
0001
0000
0001
0010
0000
0010
0100
0000
0100
1000
0000
0000
,
0010
0000
0010
0100
0000
0100
0001
0000
0001
1000
0000
0000
,
0001
0000
0001
0100
0000
0100
0010
0000
0010
1000
0000
0000
,
0001
0000
0000
0001
0000
0000
0001
0000
2000
0000
0000
0000
0000
0000
0000
0000
,
3001
0000
0100
0000
0010
1000
0100
0000
,
1000
0000
0010
0000
0100
0001
0010
0000
,
0100
0000
1000
0000
0010
0100
0001
0000
,
0010
0000
0001
0000
0100
0010
1000
0000
,
1100
0001
0011
0100
,
0101
0010
1010
1000
,
1100
1010
0101
0011
,
0002
0203
0320
2030
,
3001
0000
0000
0010
0000
0000
0001
0000
1000
0000
0000
0010
0000
0000
1000
0000
,
0001
0000
0000
0100
0000
0000
0001
0000
2000
0000
0000
0000
3100
0000
0000
0000
,
1000
0000
0000
0010
0000
0000
1000
0000
0001
0000
0000
0010
0000
0000
0001
0000
,
1000
0000
0000
0100
0000
0000
1000
0000
0002
0000
0000
0000
0103
0000
0000
0000
,
0001
0000
0000
0010
0000
0000
0100
0000
1000
0000
0000
0010
0000
0000
0100
0000
,
0001
0000
0000
0100
0000
0000
0010
0000
2000
0000
0000
0000
3001
0000
0000
0000
,
1000
0000
0000
0010
0000
0000
0100
0000
0001
0000
0000
0010
0000
0000
0100
0000
,
1000
0000
0000
0100
0000
0000
0010
0000
0002
0000
0000
0000
0000
0000
0000
0000
,
1003
0000
0000
0000
;

//---------------dance-single - ----------------
#NOTEDATA:;
#CHARTNAME:;
#STEPSTYPE:dance-single;
#DESCRIPTION:;
#CHARTSTYLE:;
#DIFFICULTY:Easy;
#METER:6;
#RADARVALUES:0.306374,0.450743,0.180936,0.351228,0.000000,403.000000,369.000000,34.000000,66.000000,0.000000,0.000000,0.000000,0.000000,0.000000,0.306374,0.450743,0.180936,0.351228,0.000000,403.000000,369.000000,34.000000,66.000000,0.000000,0.000000,0.000000,0.000000,0.000000;
#CREDIT:;
#NOTES:
0000
0000
0000
0000
,
0000
0000
0000
0000
,
0000
0000
0000
0000
,
0000
0000
0000
0000
,
0020
0000
2030
0000
,
3002
0000
0203
0000
,
0320
0000
2030
0000
,
3200
0000
0320
0000
,
0031
0001
1000
1000
,
0010
0010
0100
0001
,
0010
0010
0100
0100
,
1000
1000
0010
0100
,
0010
0010
1000
1000
,
0100
0100
0010
0001
,
1000
1000
0001
0001
,
0010
0010
0002
0000
,
1003
1000
0100
0100
,
1000
1000
0010
0100
,
0001
0001
0010
0010
,
0001
1000
0001
0100
,
0010
0010
1000
1000
,
0100
0100
0010
0001
,
0100
0100
0001
0001
,
0010
0100
2000
0000
,
3002
0100
0100
0100
,
2003
0010
0010
0010
,
3200
1000
1000
1000
,
0320
0001
0001
0001
,
0032
1000
0100
1000
,
0203
0001
0010
0001
,
0320
0100
1000
0100
,
2030
0010
3002
0000
,
2003
0000
0000
0000
,
3020
0000
0000
0000
,
0230
0000
0000
0000
,
0302
0000
2003
0000
,
3001
0001
0000
0001
,
0000
1000
0000
1000
,
0002
0100
2003
0100
,
3002
0023
0230
2300
,
3002
0000
0000
0000
,
0203
0000
0000
0000
,
0320
0000
0000
0000
,
2030
0000
3002
0000
,
1003
1000
0010
0010
,
0100
0100
0001
0001
,
1000
0010
0100
0001
,
1000
0100
0010
0000
,
0002
0100
1000
0103
,
2000
0100
0001
3100
,
0002
0100
1000
0103
,
1000
1000
0001
0001
,
2000
0010
0001
3010
,
0002
0010
1000
0013
,
2000
0010
0001
3010
,
0001
0001
2000
0000
,
3001
0100
0010
1000
,
0001
0010
0100
1000
,
0010
0100
0001
1000
,
0100
0010
0001
1000
,
0110
0001
0010
0100
,
1000
0001
0100
0010
,
1000
0100
0010
0001
,
2000
3020
0230
0302
,
0023
0000
0000
0030
,
0010
0000
0000
0000
,
0000
0000
0200
0300
,
1000
1001
0001
1001
,
1000
0010
0100
0001
,
0010
0110
0010
0110
,
0100
0110
0100
0110
,
1000
1001
0001
1001
,
1000
0010
0100
0001
,
0000
1000
0100
1000
,
0000
0001
0100
0001
,
0000
1000
0010
0100
,
0000
0001
0010
0100
,
0000
1000
0010
1001
,
0000
0001
0010
1001
,
0000
1000
0001
0110
,
0000
0001
1000
0110
,
2000
0000
0000
3000
,
0020
0000
0000
0030
,
0200
0000
0000
0300
,
0002
0000
0000
0003
,
2000
0000
0001
3000
,
0002
0000
1000
0003
,
0200
0000
0010
0300
,
0020
0000
0100
0030
,
1000
0000
1000
1000
,
0001
0000
0001
0001
,
0100
0000
0100
0100
,
0010
0000
0010
0010
,
1000
0100
1000
1000
,
0001
0010
0001
0001
,
0100
0010
0100
0100
,
0010
0010
0010
0010
,
2000
0100
0001
3100
,
0002
0100
1000
0103
,
2000
0100
0001
3100
,
0001
0001
1000
1000
,
0002
0010
1000
0013
,
2000
0010
0001
3010
,
0002
0010
1000
0013
,
1000
1000
0002
0000
,
1003
0100
0010
0001
,
1000
0010
0100
0001
,
0010
0100
1000
0001
,
0100
0010
1000
0001
,
1001
0000
0110
0000
,
1001
0000
0110
0000
,
1001
1001
0110
0110
,
2002
0000
0000
3003
,
1100
0000
1100
0000
,
1100
0000
0100
0010
,
0011
0000
0011
0000
,
0011
0000
0001
1000
,
1010
0000
1010
0000
,
1010
0000
0010
0100
,
0101
0000
0101
0000
,
0101
0000
0002
0000
,
1003
0000
0000
0000
;

//---------------dance-single - ----------------
#NOTEDATA:;
#CHARTNAME:;
#STEPSTYPE:dance-single;
#DESCRIPTION:;
#CHARTSTYLE:;
#DIFFICULTY:Beginner;
#METER:4;
#RADARVALUES:0.188538,0.257567,0.026608,0.106433,0.000000,248.000000,243.000000,5.000000,20.000000,0.000000,0.000000,0.000000,0.000000,0.000000,0.188538,0.257567,0.026608,0.106433,0.000000,248.000000,243.000000,5.000000,20.000000,0.000000,0.000000,0.000000,0.000000,0.000000;
#CREDIT:;
#NOTES:
// measure 0
0000
0000
0000
0000
,  // measure 1
0000
0000
0000
0000
,  // measure 2
0000
0000
0000
0000
,  // measure 3
0000
0000
0000
0000
,  // measure 4
1000
0000
0000
0000
,  // measure 5
0010
0000
0000
0000
,  // measure 6
0100
0000
0000
0000
,  // measure 7
0001
0000
0000
0000
,  // measure 8
1000
0000
0100
0000
,  // measure 9
1000
0000
0100
0000
,  // measure 10
0010
0000
0001
0000
,  // measure 11
0010
0000
0001
0000
,  // measure 12
0100
0000
0001
0000
,  // measure 13
0100
0000
0001
0000
,  // measure 14
1000
0000
0010
0000
,  // measure 15
1000
0000
0010
0000
,  // measure 16
1000
0000
1000
0000
,  // measure 17
1000
0000
0010
0000
,  // measure 18
0001
0000
0001
0000
,  // measure 19
0001
0000
0010
0000
,  // measure 20
0100
0000
0100
0000
,  // measure 21
0100
0000
0001
0000
,  // measure 22
0010
0000
0010
0000
,  // measure 23
0010
0000
0001
0000
,  // measure 24
1000
1000
1000
0000
,  // measure 25
0010
0010
0010
0000
,  // measure 26
0100
0100
0100
0000
,  // measure 27
0001
0001
0001
0000
,  // measure 28
1000
0010
1000
0000
,  // measure 29
0001
0100
0001
0000
,  // measure 30
0010
0100
0010
0000
,  // measure 31
0001
1000
0001
0000
,  // measure 32
2000
0000
0000
3000
,  // measure 33
0200
0000
0000
0300
,  // measure 34
0020
0000
0000
0030
,  // measure 35
0002
0000
0000
0003
,  // measure 36
1000
1000
0000
1000
,  // measure 37
0000
0001
0000
0001
,  // measure 38
0001
0000
1000
0000
,  // measure 39
0010
0010
0010
0010
,  // measure 40
0020
0000
0000
0030
,  // measure 41
2000
0000
0000
3000
,  // measure 42
0002
0000
0000
0003
,  // measure 43
0200
0000
0000
0300
,  // measure 44
0001
0000
0001
0000
,  // measure 45
1000
0000
1000
0000
,  // measure 46
0001
0001
1000
1000
,  // measure 47
0010
0010
0010
0000
,  // measure 48
1000
1000
1000
0000
,  // measure 49
0001
0001
0001
0000
,  // measure 50
1000
1000
1000
0000
,  // measure 51
0001
0000
1000
0000
,  // measure 52
0001
0001
0001
0000
,  // measure 53
1000
1000
1000
0000
,  // measure 54
0001
0001
0001
0000
,  // measure 55
1000
0000
0001
0000
,  // measure 56
1000
0000
0010
0000
,  // measure 57
0100
0000
0001
0000
,  // measure 58
0010
0000
0100
0000
,  // measure 59
1000
0000
0001
0000
,  // measure 60
0100
0000
0001
0000
,  // measure 61
1000
0000
0010
0000
,  // measure 62
1000
0000
0001
0000
,  // measure 63
0010
0010
0100
0100
,  // measure 64
0020
0000
0000
0030
,  // measure 65
0010
0000
0000
0000
,  // measure 66
0000
0000
0002
0003
,  // measure 67
1000
0000
1001
0000
,  // measure 68
0001
0000
1000
0000
,  // measure 69
0100
0000
0110
0000
,  // measure 70
0010
0000
0110
0000
,  // measure 71
0100
0000
0110
0000
,  // measure 72
0010
0000
0100
0000
,  // measure 73
0000
1000
0000
1000
,  // measure 74
0000
0001
0000
0001
,  // measure 75
0000
1000
0000
1000
,  // measure 76
0000
0001
0000
0001
,  // measure 77
0000
1000
1000
1000
,  // measure 78
0000
0001
0001
0001
,  // measure 79
0000
1000
1000
1000
,  // measure 80
0000
0001
0001
0001
,  // measure 81
0002
0000
0000
0003
,  // measure 82
0200
0000
0000
0300
,  // measure 83
0020
0000
0000
0030
,  // measure 84
2000
0000
0000
3000
,  // measure 85
0200
0000
0000
0300
,  // measure 86
0020
0000
0000
0030
,  // measure 87
0002
0000
0000
0003
,  // measure 88
2000
0000
0000
3000
,  // measure 89
0001
0000
0000
0000
,  // measure 90
1000
0000
0000
0000
,  // measure 91
0010
0000
0000
0000
,  // measure 92
0100
0000
0000
0000
,  // measure 93
0001
0000
0001
0000
,  // measure 94
1000
0000
1000
0000
,  // measure 95
0010
0000
0010
0000
,  // measure 96
0100
0000
0000
0000
,  // measure 97
0001
0001
0001
0000
,  // measure 98
1000
1000
1000
0000
,  // measure 99
0001
0001
0001
0000
,  // measure 100
1000
0000
0001
0000
,  // measure 101
1000
1000
1000
0000
,  // measure 102
0001
0001
0001
0000
,  // measure 103
1000
1000
1000
0000
,  // measure 104
0001
0000
1000
0000
,  // measure 105
0001
0000
0100
0000
,  // measure 106
0010
0000
1000
0000
,  // measure 107
0100
0000
0010
0000
,  // measure 108
0001
0000
1000
0000
,  // measure 109
0001
0000
0001
0000
,  // measure 110
1000
0000
1000
0000
,  // measure 111
0001
0001
1000
1000
,  // measure 112
2002
0000
0000
3003
,  // measure 113
0001
0000
0001
0000
,  // measure 114
0001
0000
0001
0010
,  // measure 115
0100
0000
0100
0000
,  // measure 116
0100
0000
0100
1000
,  // measure 117
0010
0000
0010
0000
,  // measure 118
0010
0000
0010
0100
,  // measure 119
0001
0000
0001
0000
,  // measure 120
0001
0000
1000
0000
,  // measure 121
0001
0000
0000
0000
;
